#TITLE:DANCING QUEEN;
#SUBTITLE:;
#ARTIST:CHER;
#TITLETRANSLIT:;
#SUBTITLETRANSLIT:;
#ARTISTTRANSLIT:;
#GENRE:;
#CREDIT:;
#BANNER:banner.png;
#BACKGROUND:bg.png;
#LYRICSPATH:;
#CDTITLE:;
#MUSIC:01 Dancing Queen.ogg;
#OFFSET:-0.515000;
#SAMPLESTART:83.500000;
#SAMPLELENGTH:12.000000;
#SELECTABLE:YES;
#BPMS:0.000000=103.250000
;
#STOPS:
;
#BGCHANGES:0.000=Cher - Dancing Queen [Official HD Audio].avi=1.000=1=0=0=StretchNoLoop==CrossFade==,
99999=-nosongbg-=1.000=0=0=0 // don't automatically add -songbackground-
;
#KEYSOUNDS:;
#ATTACKS:;

//---------------dance-single - ----------------
#NOTES:
     dance-single:
     :
     Hard:
     5:
     0.219272,0.363489,0.229090,0.152727,0.000000,201.000000,171.000000,30.000000,20.000000,0.000000,0.000000,0.219272,0.363489,0.229090,0.152727,0.000000,201.000000,171.000000,30.000000,20.000000,0.000000,0.000000:
0000
0000
0000
0000
,
0000
0000
0000
0000
,
0000
0000
0000
0000
,
0000
0000
0000
0000
,
0000
0000
0010
0000
0010
0000
0010
0001
,
0010
0000
0100
0000
0100
0000
0100
1000
,
0100
0010
0001
0100
,
1000
0010
0001
0100
,
1000
0200
0000
0000
,
0310
0020
0000
0000
,
0130
0000
1000
0100
0010
0000
0100
0010
,
0001
0000
0001
0010
0100
0000
0010
0100
,
1000
1001
0110
1001
,
0110
0110
1001
0110
,
1001
1000
0100
0001
,
0010
1000
0100
0001
,
0010
0001
0100
1000
,
0010
0001
1000
0100
,
0010
0002
0000
0000
,
0003
0000
1000
0100
1000
0000
0001
0010
,
0001
2000
0000
0000
,
3000
0000
0001
0010
0001
0000
1000
0100
,
1000
0001
1000
0001
,
1000
0010
0100
0010
,
0100
1001
0000
1001
,
0000
0110
0000
0110
,
0000
0200
0000
0000
,
0000
0320
0000
0000
,
0030
1000
0100
1000
,
0100
0001
0010
0001
,
0010
1000
0000
1000
,
0000
0001
0000
0001
,
0000
2000
0000
0000
,
0000
3002
0000
0000
,
0003
0200
0000
0000
,
0000
0320
0000
0000
,
0000
0000
1030
0100
1000
0000
1001
0000
,
1001
0000
0001
0010
0001
0000
1001
0000
,
1001
0000
1000
0100
0001
0000
1001
0000
,
1001
0000
0001
0100
1000
0000
1001
0000
,
1001
1000
0100
1000
,
0100
0001
0100
0001
,
0100
1000
0100
0001
,
0010
1000
0100
0001
,
0010
2002
0000
0000
,
3003
0220
0000
0000
,
0330
1001
1001
0110
,
0110
2002
0000
0000
,
3003
0100
0010
0100
,
0010
1000
0001
1000
,
0001
0100
0001
0100
,
0001
1000
0001
1000
,
0001
1000
0100
1000
,
0100
0001
0100
1000
,
1001
0220
0000
0000
,
0330
2002
0000
0000
,
3003
0000
0000
0000
;

//---------------dance-single - ----------------
#NOTES:
     dance-single:
     :
     Medium:
     3:
     0.162545,0.256581,0.152727,0.229090,0.000000,149.000000,129.000000,20.000000,30.000000,0.000000,0.000000,0.162545,0.256581,0.152727,0.229090,0.000000,149.000000,129.000000,20.000000,30.000000,0.000000,0.000000:
0000
0000
0000
0000
,
0000
0000
0000
0000
,
0000
0000
0000
0000
,
0000
0000
0000
0000
,
0000
2000
0000
0000
,
3001
0002
0000
0000
,
1003
2000
0000
0000
,
3001
0002
0000
0000
,
0003
1000
0000
1001
,
0000
0001
0000
1001
,
0000
1000
1000
0001
,
0001
2002
3003
0220
,
0330
1000
1000
1000
,
0000
0001
0001
0001
,
0000
1000
0100
0001
,
0000
0001
0100
1000
,
0000
1000
0000
1000
,
0000
0001
0000
0001
,
0000
0000
1000
0000
1000
0000
1000
0100
,
1000
0000
0001
0000
0001
0000
0001
0010
,
0001
1000
0100
0010
,
0000
0000
0010
0100
,
1000
2000
3000
0002
,
0003
0020
0030
0200
,
0300
1000
0100
1000
,
0000
0001
0010
0001
,
0000
1001
0000
1001
,
0000
0110
0000
0110
,
0000
1100
0000
0011
,
0000
1100
0000
0011
,
0000
2000
0000
0000
,
3000
0002
0000
0000
,
0003
0200
0000
0000
,
0300
0020
0000
0000
,
0030
1001
0000
1001
,
0000
0110
0000
0110
,
0000
0000
1000
0000
1000
0000
1000
0100
,
1000
0000
0001
0000
0001
0000
0001
0010
,
0001
0000
0010
0000
0010
0000
0010
0100
,
0010
0220
0000
0000
,
0330
0000
1000
0000
1000
0000
1000
0100
,
1000
0000
0001
0000
0001
0000
0001
0100
,
0001
0000
0100
0000
0100
0000
0100
0010
,
0100
0220
0000
0000
,
0330
1000
0000
1000
,
0000
0001
0000
0001
,
0000
0000
1000
0000
1000
0000
1000
0100
,
0001
0000
0001
0000
0001
0000
0001
0100
,
1000
2000
0000
0000
,
3000
0002
0000
0000
,
0003
2000
0000
0000
,
3000
0002
0000
0000
,
0003
0200
0000
0000
,
0300
0020
0000
0000
,
0030
0220
0000
0000
,
0330
2002
0000
0000
,
3003
0000
0000
0000
;

//---------------dance-single - ----------------
#NOTES:
     dance-single:
     :
     Easy:
     2:
     0.115636,0.171054,0.045818,0.229090,0.000000,106.000000,100.000000,6.000000,30.000000,0.000000,0.000000,0.115636,0.171054,0.045818,0.229090,0.000000,106.000000,100.000000,6.000000,30.000000,0.000000,0.000000:
0000
0000
0000
0000
,
0000
0000
0000
0000
,
0000
0000
0000
0000
,
0000
0000
0000
0000
,
0000
0100
0000
0100
,
0000
0010
0000
0010
,
0000
0100
0000
0100
,
0000
2002
0000
0000
,
3003
0200
0000
0000
,
0310
0020
0000
0000
,
0130
0100
0000
0100
,
0000
0010
0000
0010
,
0000
2000
0000
0000
,
3000
0002
0000
0000
,
0003
2000
0000
0000
,
3000
0002
0000
0000
,
0003
0200
0000
0000
,
0300
0020
0000
0000
,
0030
0200
0300
0100
,
0100
0020
0030
0010
,
0010
0200
0300
0100
,
0100
0020
0030
0010
,
0010
0100
0000
0100
,
0000
0010
0000
0010
,
0000
0001
0000
0001
,
0000
1000
0000
1000
,
0000
0200
0300
0100
,
0100
0020
0030
0010
,
0010
0002
0003
0001
,
0001
2000
3000
1000
,
1000
1000
0000
1000
,
0000
0001
0000
0001
,
0000
1000
0000
1000
,
0000
0001
0000
0001
,
0000
0100
0000
0100
,
0000
0010
0000
0010
,
0000
2000
0000
0000
,
3000
0002
0000
0000
,
0003
2000
0000
0000
,
3000
0002
0000
0000
,
0003
0100
0000
0100
,
0000
0010
0000
0010
,
0000
0100
0000
0100
,
0000
0010
0000
0010
,
0000
0220
0000
0000
,
0330
2002
0000
0000
,
3003
0100
0100
0010
,
0010
2002
0000
0000
,
3003
0220
0000
0000
,
0330
0100
0000
0100
,
0000
0010
0000
0010
,
0000
0001
0000
0001
,
0000
1000
0000
1000
,
0000
0100
0000
0100
,
0000
0010
0000
0010
,
0000
0001
0000
0001
,
1001
0000
0000
0000
;

//---------------dance-single - ----------------
#NOTES:
     dance-single:
     :
     Beginner:
     1:
     0.066545,0.128290,0.045818,0.000000,0.000000,61.000000,55.000000,6.000000,0.000000,0.000000,0.000000,0.066545,0.128290,0.045818,0.000000,0.000000,61.000000,55.000000,6.000000,0.000000,0.000000,0.000000:
// measure 0
0000
0000
0000
0000
,  // measure 1
0000
0000
0000
0000
,  // measure 2
0000
0000
0000
0000
,  // measure 3
0000
0000
0000
0000
,  // measure 4
0000
0100
0000
0000
,  // measure 5
0000
0010
0000
0000
,  // measure 6
0000
0100
0000
0000
,  // measure 7
0000
1001
0000
0000
,  // measure 8
0000
0100
0000
0000
,  // measure 9
0010
0000
0000
0000
,  // measure 10
0000
0100
0000
0000
,  // measure 11
0000
0010
0000
0000
,  // measure 12
0000
1000
0000
0000
,  // measure 13
0000
0001
0000
0000
,  // measure 14
0000
1000
0000
0000
,  // measure 15
0000
0001
0000
0000
,  // measure 16
0000
0100
0000
0000
,  // measure 17
0000
0010
0000
0000
,  // measure 18
0000
0100
0000
0000
,  // measure 19
0000
0010
0000
0000
,  // measure 20
0000
0100
0000
0000
,  // measure 21
0000
0010
0000
0000
,  // measure 22
0000
0100
0000
0000
,  // measure 23
0000
0010
0000
0000
,  // measure 24
0000
0001
0000
0000
,  // measure 25
0000
1000
0000
0000
,  // measure 26
0000
0100
0000
0000
,  // measure 27
0000
0010
0000
0000
,  // measure 28
0000
0001
0000
0000
,  // measure 29
0000
1000
0000
0000
,  // measure 30
0000
1000
0000
0000
,  // measure 31
0000
0001
0000
0000
,  // measure 32
0000
1000
0000
0000
,  // measure 33
0000
0001
0000
0000
,  // measure 34
0000
0100
0000
0000
,  // measure 35
0000
0010
0000
0010
,  // measure 36
0000
1000
0000
0000
,  // measure 37
0000
0001
0000
0000
,  // measure 38
0000
1000
0000
0000
,  // measure 39
0000
0001
0000
0000
,  // measure 40
0000
0100
0000
0000
,  // measure 41
0000
0010
0000
0000
,  // measure 42
0000
0100
0000
0000
,  // measure 43
0000
0010
0000
0000
,  // measure 44
0000
0110
0000
0000
,  // measure 45
0000
1001
0000
0000
,  // measure 46
0000
0100
0000
0010
,  // measure 47
0000
1001
0000
0000
,  // measure 48
0000
0110
0000
0000
,  // measure 49
0000
0100
0000
0000
,  // measure 50
0000
0010
0000
0000
,  // measure 51
0000
0001
0000
0000
,  // measure 52
0000
1000
0000
0000
,  // measure 53
0000
0100
0000
0000
,  // measure 54
0000
0010
0000
0000
,  // measure 55
0000
0001
0000
0000
,  // measure 56
1001
0000
0000
0000
;
