#TITLE:Boyz With Fun;
#SUBTITLE:;
#ARTIST:Bangtan Boys;
#TITLETRANSLIT:;
#SUBTITLETRANSLIT:;
#ARTISTTRANSLIT:;
#GENRE:;
#CREDIT:SoulEdge5000;
#BANNER:Boyz With Fun.png;
#BACKGROUND:Boyz With Fun-bg.png;
#LYRICSPATH:;
#CDTITLE:;
#MUSIC:Boyz With Fun.ogg;
#OFFSET:0.880000;
#SAMPLESTART:100.169998;
#SAMPLELENGTH:12.000000;
#SELECTABLE:YES;
#BPMS:0.000000=115.000000
,35.000000=116.040001
;
#STOPS:
;
#BGCHANGES:;
#KEYSOUNDS:;
#ATTACKS:;

//---------------dance-single - ----------------
#NOTES:
     dance-single:
     :
     Hard:
     6:
     0.305124,0.383420,0.192871,0.192871,0.000000,299.000000,272.000000,27.000000,27.000000,0.000000,0.000000,0.305124,0.383420,0.192871,0.192871,0.000000,299.000000,272.000000,27.000000,27.000000,0.000000,0.000000:
// measure 0
0000
0000
0000
0000
,  // measure 1
0000
0000
0000
0000
,  // measure 2
0000
0000
0000
0000
,  // measure 3
0000
0000
2100
0100
,  // measure 4
3100
0000
0000
0000
,  // measure 5
0000
0000
0210
0010
,  // measure 6
0310
0000
0000
0000
1000
0100
0001
0010
,  // measure 7
1000
0100
0001
0010
0010
0100
0010
0100
,  // measure 8
0010
0000
0110
0000
0110
0000
0001
0010
,  // measure 9
0100
0000
1000
0100
0010
0001
1001
0110
,  // measure 10
1001
0000
1001
0000
1001
0000
0100
0010
,  // measure 11
0100
0000
0010
0000
1000
0100
0010
0001
,  // measure 12
0110
0000
0110
0000
0110
0000
0100
0010
,  // measure 13
0100
0000
1000
0100
0001
0100
1000
0000
,  // measure 14
1001
0000
1001
0000
1000
1000
0001
0001
,  // measure 15
1000
1000
0001
0001
1000
0100
0010
0001
,  // measure 16
0010
0220
0330
0010
,  // measure 17
0010
0000
0010
0000
1000
0100
1000
0000
,  // measure 18
0001
0010
0001
0000
0100
0000
0100
0000
,  // measure 19
0100
0000
0100
0000
1000
0100
1000
0000
,  // measure 20
0001
0010
0001
0000
1000
0000
0001
0000
,  // measure 21
1000
0000
0001
0000
0100
0010
0100
0010
,  // measure 22
1000
0001
1000
0001
0001
0000
0001
0000
,  // measure 23
0001
0000
0001
0000
1000
0100
0001
0100
,  // measure 24
1000
0100
0001
0100
1000
0000
1000
0001
,  // measure 25
1000
0000
1000
0100
0010
0001
0010
0100
,  // measure 26
1000
0000
0010
0001
0010
0000
0100
1000
,  // measure 27
0100
0000
0010
0001
0010
1000
0010
0001
,  // measure 28
0010
1000
0010
0000
0010
0000
0010
0000
,  // measure 29
0010
0001
0010
0000
0010
0000
0010
0000
,  // measure 30
0010
1000
0010
0000
0010
0100
0010
0100
,  // measure 31
1000
0001
1000
0001
0100
0010
0100
0010
,  // measure 32
0110
0110
0110
2000
,  // measure 33
3200
0320
0032
0023
,  // measure 34
0230
2300
3000
0000
,  // measure 35
2002
3003
1000
1000
,  // measure 36
1000
1000
2000
3200
,  // measure 37
0320
0032
0023
0230
,  // measure 38
2300
0000
3200
0000
0320
0000
0032
0003
,  // measure 39
0002
0003
0002
0003
2002
0000
0000
0000
,  // measure 40
0000
3003
0100
0100
,  // measure 41
0100
0010
0100
0010
1000
0100
0001
0100
,  // measure 42
1000
1000
1000
1000
,  // measure 43
0010
0000
0010
0001
0010
1000
0010
0001
,  // measure 44
0010
0110
0001
0001
,  // measure 45
0001
0000
0001
1000
0001
0000
0100
0000
,  // measure 46
0100
0000
0010
0100
0010
0000
0010
0000
,  // measure 47
0010
0100
0010
0000
0010
0000
0010
0000
,  // measure 48
0010
0100
0010
0000
1001
0000
0110
0000
,  // measure 49
1001
0110
0001
0100
,  // measure 50
0001
1000
0100
1000
,  // measure 51
0100
0010
0001
0010
,  // measure 52
0001
0000
1000
0000
1000
0001
1000
0000
,  // measure 53
1000
0100
0010
0001
0010
0100
1000
0000
,  // measure 54
1001
0000
1001
0000
1000
0100
0001
0010
,  // measure 55
1000
0100
0001
0010
0100
0100
0100
0000
,  // measure 56
1000
1000
1000
0000
;

//---------------dance-single - Copied from----------------
#NOTES:
     dance-single:
     Copied from:
     Beginner:
     1:
     0.064290,0.100900,0.057147,0.000000,0.000000,63.000000,55.000000,8.000000,0.000000,0.000000,0.000000,0.064290,0.100900,0.057147,0.000000,0.000000,63.000000,55.000000,8.000000,0.000000,0.000000,0.000000:
0000
0000
0000
0000
,
0000
0000
0000
0000
,
0000
0000
0000
0000
,
0000
0000
0100
0000
,
0000
0000
0000
0000
,
0000
0000
0100
0000
,
0000
0000
1000
0000
,
0000
0000
0010
0000
,
0000
0000
0000
0001
,
0000
0000
0000
0001
,
0000
0000
0000
0100
,
0000
0000
1000
0000
,
0000
0110
0000
0000
,
0100
0000
0000
0000
,
1001
0000
0000
0001
,
0000
0001
0000
0000
,
0000
0110
0000
0010
,
0000
0000
1000
0000
,
0000
0000
0100
0000
,
0000
0000
1000
0000
,
0000
0000
1000
0000
,
0000
0000
0100
0000
,
0000
0000
0001
0000
,
0000
0000
1000
0000
,
0000
0000
1000
0000
,
0000
0000
0010
0000
,
0000
0000
0000
0000
,
0100
0000
0000
0000
,
0000
0000
0010
0000
,
0000
0000
0010
0000
,
0000
0000
0010
0000
,
0000
0000
0100
0000
,
0000
0000
0110
0000
,
0000
0000
0001
0000
,
0000
0000
0000
0000
,
1001
0000
0000
0000
,
0000
1000
0000
0000
,
0000
0001
0000
0000
,
0000
0000
0000
0001
,
0000
0000
1001
0000
,
0000
0000
0100
0000
,
0000
0000
1000
0000
,
0000
0000
0000
1000
,
0000
0000
0010
0000
,
0000
0110
0000
0000
,
0000
0001
0000
0000
,
0000
0010
0000
0000
,
0010
0000
0000
0000
,
0010
0000
0000
0110
,
0000
0000
0001
0000
,
0000
1000
0000
0000
,
0000
0010
0000
0000
,
0000
1000
0000
0000
,
1000
0000
0000
1000
,
0000
0000
1000
0000
,
0000
0000
0100
0000
,
0000
0000
1000
0000
;

//---------------dance-single - Copied from----------------
#NOTES:
     dance-single:
     Copied from:
     Easy:
     2:
     0.104089,0.181620,0.057147,0.157154,0.000000,102.000000,94.000000,8.000000,22.000000,0.000000,0.000000,0.104089,0.181620,0.057147,0.157154,0.000000,102.000000,94.000000,8.000000,22.000000,0.000000,0.000000:
0000
0000
0000
0000
,
0000
0000
0000
0000
,
0000
0000
0000
0000
,
0000
0000
2000
0000
,
3000
0000
0000
0000
,
0000
0000
0200
0000
,
0300
0000
1000
0000
,
1000
0000
0220
0000
,
0000
0000
0000
0330
0000
0000
0001
0000
,
0000
1000
0000
0001
,
0000
1000
0000
0100
,
0000
0010
0000
0000
,
0010
0000
0110
0000
,
0000
1000
0000
0000
,
1001
0000
1000
0001
,
1000
0001
1000
0010
,
0010
0220
0330
0010
,
0000
0010
0000
1000
,
0000
0001
0000
0100
,
0000
0100
0000
1000
,
0000
0001
0000
0001
,
0000
0001
0000
0000
,
0100
0000
0001
0000
,
0001
0000
1000
0001
,
1000
0001
1000
0000
,
0000
1000
0000
0000
,
1000
0000
0010
0000
,
0100
0000
0010
0000
,
0010
0000
0010
0000
,
0010
0000
0010
0000
,
0010
0000
0010
0000
,
1000
0000
0100
0000
,
0110
0000
0000
2000
,
3000
0000
0002
0003
,
0000
2000
3000
0000
,
2000
3000
1000
0000
,
1000
0000
2000
3000
,
0020
0030
0020
0030
,
2000
0000
3000
0000
0000
0000
0002
0003
,
0000
0001
2002
0000
,
0000
3003
0100
0000
,
0100
0000
1000
0000
,
0000
1000
0000
0000
,
0010
0000
0010
0000
,
0000
0110
0002
0000
,
0000
0000
0000
0003
0000
0000
0200
0000
,
0000
0000
0000
0300
0000
0000
0020
0000
,
0000
0000
0000
0000
0000
0030
0010
0000
,
0000
0000
1000
0000
,
0001
0000
1000
0000
,
0001
1000
0000
1000
,
0000
0010
0000
0010
,
0000
1000
0000
0000
,
1000
0000
0000
1000
,
0000
0000
1000
0000
,
1000
0000
0100
0000
,
2002
0000
3003
0000
;

//---------------dance-single - Copied from Copied from----------------
#NOTES:
     dance-single:
     Copied from Copied from:
     Medium:
     4:
     0.223485,0.302700,0.164297,0.221444,0.000000,219.000000,196.000000,23.000000,31.000000,0.000000,0.000000,0.223485,0.302700,0.164297,0.221444,0.000000,219.000000,196.000000,23.000000,31.000000,0.000000,0.000000:
0000
0000
0000
0000
,
0000
0000
0000
0000
,
0000
0000
0000
0000
,
0000
0000
2000
0000
,
3000
0000
0000
0000
,
0000
0000
0200
0000
,
0300
0000
0000
0000
1000
0100
1000
0000
,
1000
0001
1000
0000
0220
0000
0000
0000
,
0000
0000
0000
0330
0001
0000
0001
0000
,
1000
0000
1000
0000
0001
0100
0001
0000
,
1001
1001
0100
0100
,
0010
0000
0010
0000
0100
0010
0100
0000
,
0110
0110
0100
0110
,
0010
0000
0110
0000
0100
0010
0100
0000
,
0110
0000
0110
0000
1000
0100
1000
0000
,
0001
0010
0001
0000
1000
0000
0100
0000
,
0010
2002
3003
0010
,
0000
0010
0000
1000
,
0100
0001
0000
0100
,
0000
0100
0000
1000
,
0010
0001
0000
0001
,
0000
0001
0100
0000
,
0100
0000
0001
0100
,
1000
1000
0100
0001
,
1000
0000
0001
0000
1000
0001
1000
0000
,
0001
1000
0001
0000
1001
0000
0110
0000
,
1001
0110
0010
0000
,
0100
0000
0000
0000
0010
0100
0010
0000
,
0001
1000
0001
0000
0020
0000
0030
0000
,
0010
0100
0010
0000
0020
0000
0030
0000
,
0010
0100
0010
0000
0010
0000
0001
0000
,
0100
1000
0100
0001
,
0110
1001
0110
2000
,
3200
0320
0032
0023
,
0230
2300
3000
0000
,
2000
3000
1000
0001
,
1000
0001
2000
3200
,
0320
0032
0023
0230
,
2300
0000
3000
0000
0000
0000
0002
0003
,
0000
0001
2002
0000
,
0000
3003
0100
0010
,
0100
0000
0000
0000
1000
0100
0010
0000
,
0001
0010
0100
0000
0100
0000
0100
0000
,
0010
0000
0010
0000
0010
0100
0010
0000
,
0110
0110
0002
1000
,
1000
0000
1000
0003
0200
0000
0010
0000
,
0010
0000
0010
0300
0000
0000
0020
0000
,
0100
0000
0100
0000
0100
0030
0010
0000
,
0100
0000
0010
0000
0100
0000
0010
0100
,
0010
1000
1000
0001
,
0001
0000
1001
0000
1000
0100
1000
0000
,
0010
0001
0010
0000
0010
0000
0100
0000
,
0010
0100
1000
1000
,
0100
0000
0100
0000
0010
0001
0010
0001
,
0010
0000
0110
0000
1000
0100
0010
0000
,
1000
0100
0010
0000
0100
0000
0010
0000
,
2002
0000
3003
0000
;
