#TITLE:BELIEVE;
#SUBTITLE:;
#ARTIST:CHER;
#TITLETRANSLIT:;
#SUBTITLETRANSLIT:;
#ARTISTTRANSLIT:;
#GENRE:;
#CREDIT:;
#BANNER:bn.png;
#BACKGROUND:bg.png;
#LYRICSPATH:;
#CDTITLE:;
#MUSIC:BELIEVE.ogg;
#OFFSET:-1.800000;
#SAMPLESTART:43.500000;
#SAMPLELENGTH:12.000000;
#SELECTABLE:YES;
#BPMS:0.000000=133.000000
;
#STOPS:
;
#BGCHANGES:;
#KEYSOUNDS:;
#ATTACKS:;

//---------------dance-single - ----------------
#NOTES:
     dance-single:
     :
     Hard:
     6:
     0.332372,0.402682,0.220270,0.234037,0.013767,169.000000,153.000000,16.000000,17.000000,0.000000,0.000000,0.332372,0.402682,0.220270,0.234037,0.013767,169.000000,153.000000,16.000000,17.000000,0.000000,0.000000:
0000
0000
0000
0000
,
0000
0000
0000
0000
,
0000
0000
0000
0000
,
2000
0000
0000
3000
,
0200
0000
0000
0300
,
0020
0000
0000
0030
,
0002
0000
0000
0003
,
1000
0000
1100
0000
0100
0001
0100
0000
,
0100
0110
0010
0110
,
0100
0000
0101
0000
0001
1000
0001
1000
,
0001
0000
0000
0010
0000
0000
0200
0000
0000
0000
0000
0000
0300
0000
0000
0000
,
0100
0010
0100
0000
0220
0000
0000
0000
,
0330
0000
0110
0000
,
1000
0000
0000
1000
0000
0000
1000
0000
0002
0000
0000
0000
0000
0000
0000
0000
,
0003
1001
0000
0000
,
1000
0100
1000
0000
0001
0010
0001
0000
,
1000
0100
0010
0001
0010
0100
1000
0000
,
0100
0010
0100
0000
1000
0001
1000
0000
,
0001
0010
0100
1000
0100
0010
0001
0000
,
0100
0110
0010
0110
,
0100
0110
0010
0110
,
2002
0000
0000
3003
,
0220
0000
0000
0330
,
1000
0100
1000
0000
0001
0010
0001
0000
,
1000
0100
0010
0001
0010
0100
1000
0000
,
2000
0000
3100
0010
,
0001
0000
1001
0000
,
1000
0100
0010
0000
0001
0010
0100
0000
,
1000
0100
0010
0001
0010
0100
1000
0000
,
1000
1000
1000
0000
0001
0001
0001
0000
,
1000
0100
0010
0001
0010
0100
1000
0000
,
2002
0000
3003
0000
1000
0100
1000
0000
,
0001
0010
0001
0000
1000
0100
1000
0000
,
0002
0000
0013
0100
,
2000
0000
0000
3000
,
1000
0100
1000
0000
0001
0010
0001
0000
,
1000
0100
0010
0001
0010
0100
1000
0000
,
0001
0010
0001
0000
1000
0100
1000
0000
,
1000
0100
0010
0001
0010
0100
1000
0000
,
1001
0000
0000
0000
;

//---------------dance-single - ----------------
#NOTES:
     dance-single:
     :
     Easy:
     3:
     0.200603,0.348991,0.178970,0.165203,0.000000,102.000000,89.000000,13.000000,12.000000,0.000000,0.000000,0.200603,0.348991,0.178970,0.165203,0.000000,102.000000,89.000000,13.000000,12.000000,0.000000,0.000000:
0000
0000
0000
0000
,
0000
0000
0000
0000
,
0000
0000
0000
0000
,
2000
0000
0000
3000
,
0200
0000
0000
0300
,
0020
0000
0000
0030
,
0002
0000
0000
0003
,
1000
0000
1000
0000
,
0001
0010
0100
0000
,
0100
0000
0100
0000
,
0100
1000
0100
0000
,
0001
0000
0010
0000
,
0100
0000
1000
0000
,
1000
1000
1000
0000
,
0001
0001
0001
0000
,
1000
0000
1000
0000
,
0001
0000
0001
0000
,
0100
0000
0100
0000
,
0010
0000
0010
0000
,
1000
0000
0100
0000
,
0010
0000
0001
0000
,
0001
0000
0010
0000
,
0100
0000
1000
0000
,
1001
0110
1001
0110
,
0010
0100
0010
0100
,
1000
0100
1000
0100
,
0001
0010
0001
0010
,
0110
0000
0110
0000
,
1001
0000
1001
0000
,
1000
0100
1000
0100
,
0001
0010
0001
0010
,
0220
0000
0000
0330
,
2002
0000
0000
3003
,
0220
0000
0000
0330
,
2002
0000
0000
3003
,
1000
0100
1000
0100
,
0001
0010
0001
0010
,
1000
0100
0001
0010
,
1000
0100
0001
0010
,
0110
0000
0000
0000
;

//---------------dance-single - ----------------
#NOTES:
     dance-single:
     :
     Medium:
     4:
     0.263538,0.348991,0.137669,0.178970,0.000000,134.000000,124.000000,10.000000,13.000000,0.000000,0.000000,0.263538,0.348991,0.137669,0.178970,0.000000,134.000000,124.000000,10.000000,13.000000,0.000000,0.000000:
0000
0000
0000
0000
,
0000
0000
0000
0000
,
0000
0000
0000
0000
,
2000
0000
0000
3000
,
0200
0000
0000
0300
,
0020
0000
0000
0030
,
0002
0000
0000
0003
,
1000
0000
1000
0000
,
0001
0010
0100
0000
,
0100
0000
0100
0000
,
0100
1000
0100
0000
,
0001
0010
0100
0000
,
0100
0010
1000
0000
,
1000
0000
1000
0000
1000
0010
1000
0000
,
0001
0000
0001
0100
0001
0000
0000
0000
,
1000
0000
1000
0000
1000
0100
0010
0000
,
0001
0000
0001
0000
0001
0010
0100
0000
,
0100
0000
0100
0000
0100
0010
0100
0000
,
0010
0000
0010
0000
0010
0001
0010
0000
,
1000
1001
0001
1001
,
0010
0110
0100
0110
,
0020
0030
0200
0300
,
0020
0030
0200
0300
,
1000
0000
0100
0000
0001
0010
0100
0000
,
1000
0000
1000
0000
1000
0001
1000
0000
,
0200
0000
1000
0000
0001
0000
1000
0300
,
1001
0010
0001
0010
,
0110
0000
0110
0000
,
1001
0000
1001
0000
,
1000
0100
0010
0000
0010
0000
0100
0000
,
0100
0010
0001
0000
0001
0000
0010
0000
,
0020
0000
0100
0130
,
2000
0000
0001
3001
,
0200
0000
0010
0310
,
2000
0000
0001
3001
,
1000
0000
0100
0000
0010
0001
0010
0000
,
0100
0000
1000
0000
0010
0001
0010
0000
,
1000
0100
0001
0010
,
1000
0100
0001
0010
,
0110
0000
0000
0000
;

//---------------dance-single - ----------------
#NOTES:
     dance-single:
     :
     Beginner:
     2:
     0.106202,0.161073,0.013767,0.000000,0.000000,54.000000,53.000000,1.000000,0.000000,0.000000,0.000000,0.106202,0.161073,0.013767,0.000000,0.000000,54.000000,53.000000,1.000000,0.000000,0.000000,0.000000:
// measure 0
0000
0000
0000
0000
,  // measure 1
0000
0000
0000
0000
,  // measure 2
0000
0000
0000
0000
,  // measure 3
1000
0000
0000
0000
,  // measure 4
0100
0000
0000
0000
,  // measure 5
0010
0000
0000
0000
,  // measure 6
0001
0000
0000
0000
,  // measure 7
1000
0000
0000
0000
,  // measure 8
1000
0000
0000
0000
,  // measure 9
0001
0000
0000
0000
,  // measure 10
0001
0000
0000
0000
,  // measure 11
1000
0000
0000
0000
,  // measure 12
0100
0000
0000
0000
,  // measure 13
0010
0000
0000
0000
,  // measure 14
0001
0000
0000
0000
,  // measure 15
1000
1000
0000
0000
,  // measure 16
0001
0001
0000
0000
,  // measure 17
1000
1000
0000
0000
,  // measure 18
0001
0001
0000
0000
,  // measure 19
0010
0000
0000
0000
,  // measure 20
0100
0000
0000
0000
,  // measure 21
0100
0000
0000
0000
,  // measure 22
0010
0000
0000
0000
,  // measure 23
1000
1000
0000
0000
,  // measure 24
0001
0001
0000
0000
,  // measure 25
1000
1000
0000
0000
,  // measure 26
0001
0001
0000
0000
,  // measure 27
0100
0000
0010
0000
,  // measure 28
0100
0000
0010
0000
,  // measure 29
0100
0000
0010
0000
,  // measure 30
0100
0000
0010
0000
,  // measure 31
0100
0000
0000
0000
,  // measure 32
0010
0000
0000
0000
,  // measure 33
0100
0000
0000
0000
,  // measure 34
0010
0000
0000
0000
,  // measure 35
1000
1000
0000
0000
,  // measure 36
0001
0001
0000
0000
,  // measure 37
1000
1000
0000
0000
,  // measure 38
0001
0001
0000
0000
,  // measure 39
1001
0000
0000
0000
;
