#VERSION:0.83;
#TITLE:BBOOM BBOOM x BAAM;
#SUBTITLE:;
#ARTIST:MOMOLAND;
#TITLETRANSLIT:;
#SUBTITLETRANSLIT:;
#ARTISTTRANSLIT:;
#GENRE:;
#ORIGIN:;
#CREDIT:;
#BANNER:;
#BACKGROUND:;
#PREVIEWVID:;
#JACKET:;
#CDIMAGE:;
#DISCIMAGE:;
#LYRICSPATH:;
#CDTITLE:;
#MUSIC:Bboom Bboom x BAAM (Live).ogg;
#OFFSET:-0.063000;
#SAMPLESTART:67.500000;
#SAMPLELENGTH:12.000000;
#SELECTABLE:YES;
#BPMS:0.000=127.000;
#STOPS:;
#DELAYS:;
#WARPS:;
#TIMESIGNATURES:0.000=4=4;
#TICKCOUNTS:0.000=4;
#COMBOS:0.000=1;
#SPEEDS:0.000=1.000=0.000=0;
#SCROLLS:0.000=1.000;
#FAKES:;
#LABELS:0.000=Song Start;
#BGCHANGES:0.000=Bboom Bboom x BAAM (Live).mp4=1.000=0=0=0=StretchNoLoop====,
99999=-nosongbg-=1.000=0=0=0 // don't automatically add -songbackground-
;
#KEYSOUNDS:;
#ATTACKS:
;

//---------------dance-single - ----------------
#NOTEDATA:;
#CHARTNAME:;
#STEPSTYPE:dance-single;
#DESCRIPTION:;
#CHARTSTYLE:;
#DIFFICULTY:Hard;
#METER:7;
#RADARVALUES:0.448266,0.476792,0.285260,0.040751,0.071315,308.000000,280.000000,28.000000,4.000000,0.000000,0.000000,0.000000,0.000000,0.000000,0.448266,0.476792,0.285260,0.040751,0.071315,308.000000,280.000000,28.000000,4.000000,0.000000,0.000000,0.000000,0.000000,0.000000;
#CREDIT:;
#NOTES:
0000
0000
0000
0000
,
0000
1001
0000
0000
,
0000
0000
0000
0000
,
0000
0000
0000
0000
,
1001
0000
0000
0000
1000
0000
0000
0100
1000
0000
0100
0000
1000
0000
0100
0000
,
0010
0000
0000
0000
0001
0000
0000
0010
0001
0000
0001
0000
0010
0000
0001
0000
,
1001
0000
0000
0000
1000
0000
0000
0100
1000
0000
0100
0000
1000
0000
0100
0000
,
1000
0000
0110
0000
,
0110
0000
0000
0000
0001
0000
0000
0010
0001
0000
0001
0000
0010
0000
0001
0000
,
0000
0000
0000
0000
0110
0000
0000
0010
0100
0000
0010
0000
0100
0000
0010
0000
,
0000
0000
0000
0000
1000
0000
0000
0100
1000
0000
0100
0000
1000
0000
0100
0000
,
0000
0000
0110
0000
,
0110
0000
1000
0000
1000
0100
0010
0001
,
0010
0100
1000
0000
1000
0001
1000
0000
,
1000
0100
0010
0001
0010
0100
1000
0100
,
0010
0001
0010
0000
0010
0100
0010
0000
,
0110
0000
1000
0000
1000
0000
1000
0010
,
1000
0000
1000
0100
0010
0001
0010
0100
,
1000
0100
0010
0000
0001
0000
0001
0010
,
0100
1000
0100
0010
0000
0000
0100
0010
,
0000
0000
1000
0000
1000
0000
1000
0100
,
0010
0001
0010
0000
0100
0000
0100
1000
,
0100
0010
0001
0000
0001
0000
0001
0010
,
0100
0000
1000
0000
1000
0100
0000
0000
0001
0010
0000
0000
1000
0100
0000
0000
,
1001
0000
1000
0100
0001
0010
0100
0010
,
0100
0010
0100
0010
0010
0000
0100
0000
,
0010
0000
0100
0010
0100
0010
0100
0000
,
0110
0000
0010
0100
0010
0100
0010
0000
,
0110
0000
1000
0100
0001
0010
1000
0100
,
0001
0010
1000
0100
0001
0010
1000
1000
,
1000
0000
1000
0100
0001
0010
1000
0100
,
0001
0010
1000
0000
0000
0010
0100
0010
,
0100
0000
1000
0100
1000
0100
0010
0001
,
0000
0000
0001
0010
0001
0010
0100
1000
,
0000
0000
1000
0100
0001
0010
1000
0100
,
0001
0010
0220
0000
0000
0000
0000
0000
,
0330
0000
1000
0000
1000
0100
0010
0001
,
0010
0000
0000
0100
0000
0000
1000
0000
0000
0000
0100
0000
0000
0000
0000
0000
0000
0000
0010
0000
0000
0001
0000
0000
,
0010
0100
1000
0100
0100
0010
0010
0100
,
0100
0110
0000
0110
,
1000
0100
1000
0100
1000
1000
1000
0000
,
1000
0100
0010
0001
0010
0001
0010
0001
,
0010
0100
0010
0100
,
0010
1000
0001
1000
,
0001
0000
0000
0000
0110
0000
0000
0100
0010
0000
0100
0000
0010
0000
0100
0000
,
0000
0000
1001
0000
1000
0100
1000
0100
,
1000
1001
1001
0110
,
0110
0000
0000
0000
0100
0000
0000
0100
0000
0000
0100
0000
0110
0000
0000
0000
,
0110
0000
0000
0000
0110
0000
0000
0010
0100
0000
0010
0000
0100
0000
0010
0000
,
0000
0000
0110
0000
1000
0100
0010
0001
,
0010
0000
0000
0100
0000
0000
1001
0000
0000
0000
0110
0000
0000
0000
0000
0000
0000
0000
1000
0000
0000
0100
0000
0000
,
0010
0001
0220
0000
0000
0000
0000
0000
,
0330
0000
0000
0000
;

//---------------dance-single - ----------------
#NOTEDATA:;
#CHARTNAME:;
#STEPSTYPE:dance-single;
#DESCRIPTION:;
#CHARTSTYLE:;
#DIFFICULTY:Medium;
#METER:5;
#RADARVALUES:0.326012,0.423815,0.326012,0.040751,0.010188,224.000000,192.000000,32.000000,4.000000,0.000000,0.000000,0.000000,0.000000,0.000000,0.326012,0.423815,0.326012,0.040751,0.010188,224.000000,192.000000,32.000000,4.000000,0.000000,0.000000,0.000000,0.000000,0.000000;
#CREDIT:;
#NOTES:
0000
0000
0000
0000
,
0000
1001
0000
0000
,
0000
0000
0000
0000
,
0000
0000
0000
0000
,
1001
0000
1000
0000
0100
0000
1000
0100
,
1000
0000
0001
0000
0010
0000
0001
0010
,
0001
0000
1000
0000
0100
0000
1000
0100
,
1000
0000
0110
0000
,
0110
0110
0100
0010
,
0100
0110
0010
0100
,
0010
0010
0100
1000
,
0100
0010
0110
0100
,
0110
1000
0100
1000
,
0100
0010
0100
0000
0010
0100
0010
0000
,
0010
0001
0010
0100
,
0100
0010
0100
0000
0010
0100
0010
0000
,
0110
1000
0100
1000
,
0100
0010
0001
0010
,
0001
0000
0010
0000
0010
0000
0010
0100
,
0010
0100
0010
0000
0000
0000
0110
0000
,
0000
0000
1000
0000
1000
0000
1000
0100
,
1000
0000
0001
0000
0001
0000
0001
0010
,
0001
1000
0100
0010
,
0001
0000
0010
0100
0010
0000
0100
0010
,
0100
1000
1001
0001
,
1001
1000
0110
0001
,
0110
1000
1000
1000
,
0000
0001
0001
0001
,
1001
0000
1000
0100
1000
0000
1001
0000
,
1001
0000
0001
0010
0001
0000
1001
0000
,
1001
1000
0100
0001
,
0010
1000
0100
0001
,
0010
0110
0100
0010
,
0100
0110
0010
0100
,
0010
1000
0100
1000
,
0100
0220
0000
0000
,
0330
1000
0100
1000
,
0100
0000
0000
1000
0000
0100
0000
0000
0000
0010
0000
0000
,
0001
0010
0001
0010
,
0100
0110
0000
0110
,
1000
0100
0010
0001
,
0001
0010
0100
1000
,
1001
0000
0001
0000
,
1001
0000
1000
0000
,
1001
0001
0010
0001
,
0010
0100
1000
0100
,
1000
1001
0000
1001
,
0000
0000
0000
0000
0010
0000
0000
0010
0000
0000
0010
0000
0110
0000
0000
0000
,
0110
1000
0100
1000
,
0100
0001
0010
0001
,
0010
1000
0100
0010
,
0001
0220
0000
0000
,
0330
0000
0000
0000
;

//---------------dance-single - ----------------
#NOTEDATA:;
#CHARTNAME:;
#STEPSTYPE:dance-single;
#DESCRIPTION:;
#CHARTSTYLE:;
#DIFFICULTY:Easy;
#METER:3;
#RADARVALUES:0.225588,0.264884,0.387139,0.132442,0.000000,155.000000,117.000000,38.000000,13.000000,0.000000,0.000000,0.000000,0.000000,0.000000,0.225588,0.264884,0.387139,0.132442,0.000000,155.000000,117.000000,38.000000,13.000000,0.000000,0.000000,0.000000,0.000000,0.000000;
#CREDIT:;
#NOTES:
0000
0000
0000
0000
,
0000
0110
0000
0000
,
0000
0000
0000
0000
,
0000
0000
0000
0000
,
1001
0000
1000
0000
,
1001
0000
0001
0000
,
1001
0000
1000
0000
,
1001
0000
0001
0000
,
1001
0110
0000
0100
,
0000
0110
0000
0110
,
0000
1000
0000
0100
,
0000
0001
0000
0100
,
0000
1000
0100
0010
,
0001
1001
0000
0110
,
0000
1000
0100
0010
,
0001
0110
0000
0110
,
0000
1000
0000
1000
,
0000
0001
0000
0001
,
0000
1000
0000
1000
,
0000
1001
0000
1001
,
0000
0001
0001
0000
,
0000
1000
1000
0000
,
0000
0001
0001
0100
,
0010
0100
0010
0100
,
0110
0000
1001
0000
,
0110
0000
1001
0000
,
0110
1000
0100
1000
,
0000
0001
0010
0001
,
1001
0220
0000
0330
,
0000
2002
0000
3003
,
0000
0220
0000
0330
,
0000
2002
0000
3003
,
0000
1000
0100
1000
,
0000
0001
0010
0001
,
0000
0100
0010
0100
,
0010
0220
0000
0330
,
0110
1000
0000
1000
,
0000
0001
0000
0001
,
0000
1000
0000
1000
,
0001
1001
0000
0110
,
0000
1000
0000
1000
,
0000
0001
0000
0001
,
0000
1000
1000
0001
,
0001
1000
1000
0001
,
0001
1001
0000
0000
,
0000
0110
0000
0100
,
0010
0110
0000
0110
,
0000
2000
0000
3001
,
1001
1001
0000
0110
,
0000
1001
0000
1000
,
0100
1000
1000
0001
,
0010
0220
0000
0000
,
0330
0000
0000
0000
;

//---------------dance-single - ----------------
#NOTEDATA:;
#CHARTNAME:;
#STEPSTYPE:dance-single;
#DESCRIPTION:;
#CHARTSTYLE:;
#DIFFICULTY:Beginner;
#METER:2;
#RADARVALUES:0.117888,0.211908,0.163006,0.020376,0.000000,81.000000,65.000000,16.000000,2.000000,0.000000,0.000000,0.000000,0.000000,0.000000,0.117888,0.211908,0.163006,0.020376,0.000000,81.000000,65.000000,16.000000,2.000000,0.000000,0.000000,0.000000,0.000000,0.000000;
#CREDIT:;
#NOTES:
// measure 0
0000
0000
0000
0000
,  // measure 1
0000
0100
0000
0000
,  // measure 2
0000
0000
0000
0000
,  // measure 3
0000
0000
0000
0000
,  // measure 4
1001
0000
0000
0000
,  // measure 5
0000
0110
0000
0000
,  // measure 6
0000
0001
0000
0000
,  // measure 7
0000
0000
0001
0000
,  // measure 8
0001
1000
0000
0000
,  // measure 9
0000
1001
0000
0000
,  // measure 10
0000
0110
0000
0000
,  // measure 11
0000
1001
0000
0000
,  // measure 12
0000
0100
0000
0000
,  // measure 13
0000
0010
0000
0000
,  // measure 14
0000
0010
0000
0000
,  // measure 15
0000
0100
0000
0000
,  // measure 16
0000
0010
0010
0010
,  // measure 17
0000
0100
0100
0100
,  // measure 18
0000
0110
0000
0000
,  // measure 19
0000
1001
0000
1001
,  // measure 20
0000
1000
0000
1000
,  // measure 21
0000
0001
0000
0001
,  // measure 22
0000
1000
0000
1000
,  // measure 23
0000
0001
0000
0001
,  // measure 24
0000
0001
0000
0000
,  // measure 25
0000
1000
0000
0000
,  // measure 26
0000
0001
0000
0000
,  // measure 27
0000
1000
0000
0000
,  // measure 28
0110
0000
0000
0000
,  // measure 29
0000
0100
0000
0000
,  // measure 30
0000
0010
0000
0000
,  // measure 31
0000
0100
0000
0000
,  // measure 32
0000
0010
0000
0000
,  // measure 33
0000
0100
0000
0000
,  // measure 34
0000
0010
0000
0000
,  // measure 35
0000
0100
0000
0000
,  // measure 36
0000
1000
0000
1000
,  // measure 37
0000
0001
0000
0001
,  // measure 38
0000
1000
0000
1000
,  // measure 39
0000
0001
0000
0001
,  // measure 40
0000
0100
0000
0000
,  // measure 41
0000
0010
0000
0000
,  // measure 42
0000
0100
0000
0000
,  // measure 43
0000
0010
0000
0000
,  // measure 44
0000
0110
0000
0000
,  // measure 45
0000
0110
0000
0000
,  // measure 46
0000
0110
0000
0000
,  // measure 47
0000
0110
0000
0000
,  // measure 48
0000
0110
0000
0000
,  // measure 49
0000
1001
0000
0000
,  // measure 50
0000
0100
0100
0100
,  // measure 51
0220
0000
0000
0000
,  // measure 52
0330
0000
0000
0000
;
