#TITLE:As If It's Your Last;
#SUBTITLE:;
#ARTIST:BLACKPINK;
#TITLETRANSLIT:;
#SUBTITLETRANSLIT:;
#ARTISTTRANSLIT:;
#GENRE:;
#CREDIT:;
#BANNER:As If It's Your Last.png;
#BACKGROUND:As If It's Your Last-bg.png;
#LYRICSPATH:;
#CDTITLE:;
#MUSIC:As If It's Your Last.mp3;
#OFFSET:0.000000;
#SAMPLESTART:54.599998;
#SAMPLELENGTH:12.000000;
#SELECTABLE:YES;
#BPMS:0.000000=124.999992
,180.000000=125.800011
,220.000000=124.500000
,268.000000=124.999992
;
#STOPS:
;
#BGCHANGES:;
#KEYSOUNDS:;
#ATTACKS:;

//---------------dance-single - ----------------
#NOTES:
     dance-single:
     :
     Hard:
     10:
     0.642317,0.705340,0.507756,0.110382,0.419451,611.000000,542.000000,69.000000,15.000000,0.000000,0.000000,0.642317,0.705340,0.507756,0.110382,0.419451,611.000000,542.000000,69.000000,15.000000,0.000000,0.000000:
// measure 0
0000
0000
0000
0000
,  // measure 1
0000
0000
0000
0000
0000
0000
0000
0000
0010
0001
0010
0100
1000
0000
0000
0000
,  // measure 2
0100
0000
0000
0100
0000
0000
0100
0000
0001
0000
0000
0001
0000
0000
0001
0000
,  // measure 3
0010
0000
0000
0010
0000
0000
0010
0000
0000
0000
0000
0000
0100
0010
0001
0010
,  // measure 4
0100
0000
0000
0000
1000
0000
0000
0000
1001
0000
0000
0110
0000
0000
1001
0000
,  // measure 5
0100
0010
0001
0010
0100
0000
1001
0000
,  // measure 6
1001
0000
0000
0000
0110
0000
0000
0000
1001
0000
0000
0110
0000
0000
1001
0000
,  // measure 7
1000
0100
0010
0001
0010
0100
1000
0000
,  // measure 8
1001
0000
0000
0000
0110
0000
0000
0000
1001
0000
0000
0110
0000
0000
1001
0000
,  // measure 9
0000
0000
1001
0000
0100
0000
0010
0000
0010
0000
0000
0010
0000
0000
0010
0000
,  // measure 10
0000
0000
1000
0000
0100
0000
0010
0000
0001
0000
0000
0001
0000
0000
0001
0000
,  // measure 11
2000
0000
3002
0000
0103
1000
0100
0000
,  // measure 12
1000
0100
0010
0001
0010
0000
0000
0000
1001
0000
0000
0110
0000
0000
0110
0000
,  // measure 13
0110
0000
0000
1001
0000
0000
1001
0000
2002
0000
0000
0000
3003
0000
0000
0000
,  // measure 14
0010
0100
1000
0100
0010
0000
0000
0000
0110
0000
0000
0110
0000
0000
0110
0000
,  // measure 15
0110
0000
0000
1001
0000
0000
1001
0000
2002
0000
0000
0000
3003
0000
0000
0000
,  // measure 16
0000
0000
0100
0000
0010
0000
0001
0000
0100
0000
0000
0010
0000
0000
0001
0000
,  // measure 17
0000
0000
0100
0000
0010
0000
0100
0000
0010
0000
0000
0010
0000
0000
0010
0000
,  // measure 18
0000
1000
0100
0010
0001
0010
0100
0000
,  // measure 19
1001
0000
0000
1001
0000
0000
1000
0100
0010
0001
0010
0100
1000
0100
0010
0001
,  // measure 20
0010
0000
0001
0000
0010
0000
0100
0000
0010
0000
1000
0000
0010
0100
0010
0000
,  // measure 21
0010
0000
0001
0000
0010
0000
0100
0000
0010
0000
1000
0000
0010
0100
0010
0000
,  // measure 22
0010
0000
0001
0000
0010
0000
0100
0000
0010
0000
1000
0000
0010
0100
0010
0000
,  // measure 23
0010
0000
0001
0000
0010
0000
0100
0000
0010
0001
0010
0000
0010
0001
1000
0000
,  // measure 24
0100
0000
0010
0000
0100
0000
1000
0000
0100
0000
0010
0000
0100
0010
0001
0000
,  // measure 25
0100
0000
0010
0000
0100
0000
1000
0000
0100
0000
0010
1000
0100
0000
0001
0000
,  // measure 26
0100
0000
0010
0000
0100
0000
1000
0000
0100
0000
0010
0000
0100
0000
0001
0010
,  // measure 27
0100
0010
0100
0010
0100
0010
0100
0010
0100
0010
0100
0010
0100
0010
0100
0000
,  // measure 28
0220
0000
0000
0330
,  // measure 29
1000
0100
1000
0000
0001
0010
0001
0000
1000
0100
1000
0000
0001
0010
0001
0000
,  // measure 30
0010
0100
0010
0000
0100
1000
0100
0000
0110
0000
0110
0000
0110
0000
0000
0000
,  // measure 31
0010
0001
0010
0000
0010
0100
0010
0000
0010
1000
0010
0000
0010
0100
0010
0000
,  // measure 32
0010
0001
0010
0000
0010
0100
0010
0000
0010
1000
0010
0000
0010
0001
0010
0000
,  // measure 33
0010
0100
0010
0000
0010
0001
0010
0000
0010
0100
0010
0000
0010
0100
0010
0000
,  // measure 34
0010
1000
0010
0000
0010
0001
0010
0000
0010
1000
0010
0000
0010
0001
0010
0000
,  // measure 35
0010
0100
0010
0000
0010
0100
0010
0000
0010
0100
0010
0000
0010
0100
0010
0000
,  // measure 36
0010
0000
0000
0010
0000
0000
0010
0000
0100
0000
0000
0100
0000
0000
0100
0000
,  // measure 37
0100
0000
1000
0000
0100
0000
0010
0000
0001
0000
0000
0000
1000
0100
0010
0000
,  // measure 38
1000
0100
0010
0001
0110
0000
0110
0000
,  // measure 39
1000
0100
1000
0000
0001
0010
0001
0000
1000
0100
1000
0000
0001
0010
0001
0000
,  // measure 40
1000
0000
0100
0000
0001
0000
0100
0000
1000
0100
0010
0000
0001
0010
0100
0000
,  // measure 41
0100
0001
0010
1000
0010
0000
1001
0000
,  // measure 42
1001
0100
0010
0001
0010
0100
0010
0000
,  // measure 43
1000
0100
0001
0000
0001
0100
1000
0000
1000
0100
0001
0000
0001
0100
1000
0000
,  // measure 44
1000
0100
0001
0000
1001
0000
0110
0000
1001
0000
0000
0000
1001
0000
0000
0000
,  // measure 45
1000
0000
0100
0000
0010
0000
0010
0100
,  // measure 46
0010
0100
0010
0100
0010
0000
0110
0110
,  // measure 47
0020
0000
0100
0100
0130
0000
0110
0000
,  // measure 48
1000
0100
0001
0100
1000
0000
1001
0000
,  // measure 49
1000
0100
0001
0000
0001
0100
1000
0000
,  // measure 50
1000
0100
0001
0010
1000
0000
1000
0100
,  // measure 51
1000
0000
0001
0010
0001
0000
0100
0000
,  // measure 52
0100
0010
0100
0010
0100
0010
0220
0000
,  // measure 53
0000
0000
0000
0000
,  // measure 54
0330
0000
0000
0000
,  // measure 55
1000
0100
1000
0000
0001
0010
0001
0000
0100
0010
0100
0000
0010
0100
0010
0000
,  // measure 56
1001
0110
1001
0110
1001
0110
1001
0000
,  // measure 57
1000
0100
0001
0000
0001
0100
1000
0000
1000
0100
0001
0000
0001
0100
1000
0000
,  // measure 58
1000
0100
0001
0000
0001
0100
1000
0000
1000
0100
0001
0000
0001
0100
1000
0000
,  // measure 59
1000
0100
1000
0000
0001
0010
0001
0000
0100
0010
0100
0000
0010
0100
0010
0000
,  // measure 60
1000
0100
0001
0000
0001
0010
1000
0000
1001
0000
0110
0000
1001
0000
0000
0000
,  // measure 61
1000
0100
1000
0100
0010
0001
0010
0001
,  // measure 62
1000
0000
0100
0000
0001
0000
0010
0000
1000
0100
1000
0000
0010
0001
0010
0000
,  // measure 63
0010
0100
1000
0100
0010
0001
0010
0100
1000
0000
0000
0000
1001
0000
0000
0000
,  // measure 64
1000
0100
0001
0010
1000
0000
1001
0000
,  // measure 65
1000
0100
1000
0000
0001
0010
0001
0000
0010
0100
0010
0000
0100
0010
0100
0000
,  // measure 66
1000
0100
0001
0000
0001
0100
1000
0000
1001
0000
0110
0000
1001
0000
0110
0000
,  // measure 67
1000
0100
0001
0010
1000
0000
1001
0110
,  // measure 68
1000
0100
0001
0010
1000
0000
1001
0000
,  // measure 69
1000
0000
0100
0000
0010
0000
0001
0000
0010
0000
0000
0010
0000
0000
0010
0000
,  // measure 70
0220
0330
0220
0000
,  // measure 71
0330
0000
0000
0000
;

//---------------dance-single - ----------------
#NOTES:
     dance-single:
     :
     Medium:
     6:
     0.387913,0.470226,0.110382,0.147176,0.066229,369.000000,354.000000,15.000000,20.000000,0.000000,0.000000,0.387913,0.470226,0.110382,0.147176,0.066229,369.000000,354.000000,15.000000,20.000000,0.000000,0.000000:
0000
0000
0000
0000
,
0000
0000
0000
0000
0010
0010
0010
0000
,
0200
0000
0000
0300
0002
0000
0000
0003
,
0020
0000
0000
0030
0000
0000
0100
0001
,
0100
0000
0000
0000
1000
0000
0000
0000
1000
0000
0000
0100
0000
0000
0001
0000
,
0100
0000
0001
0010
0100
0000
0100
0000
,
1000
0000
0000
0000
0100
0000
0000
0000
0001
0000
0000
0100
0000
0000
1000
0000
,
1000
0100
0010
0000
0010
0100
1000
0000
,
0001
0000
0000
0000
0010
0000
0000
0000
1000
0000
0000
0100
0000
0000
0001
0000
,
0000
0001
0100
0020
0000
0000
0000
0030
,
0000
0000
1000
0000
0100
0000
0010
0000
0001
0000
0000
0001
0000
0000
0001
0000
,
2000
0000
3002
0000
0103
1000
0100
0000
,
1000
0000
1000
0000
1000
0000
0000
0000
1000
0000
0000
0100
0000
0000
0010
0000
,
0100
0000
0000
0001
0000
0000
1000
0000
0002
0000
0000
0000
0003
0000
0000
0000
,
0010
0000
1000
0000
0010
0000
0000
0000
0100
0000
0000
0010
0000
0000
0100
0000
,
0010
0000
0000
0001
0000
0000
1000
0000
0002
0000
0000
0000
0003
0000
0000
0000
,
0000
0000
0100
0000
0010
0000
0001
0000
0100
0000
0000
0010
0000
0000
0001
0000
,
0000
0000
0100
0000
0010
0000
0100
0000
0010
0000
0000
0010
0000
0000
0010
0000
,
0000
1000
0100
0010
0001
0010
0100
0000
,
1000
0000
0000
0001
0000
0000
1000
0000
0010
0000
0010
0000
1000
0000
0010
0000
,
0010
0000
0010
0000
0010
0010
0010
0000
,
0100
0000
0100
0000
0100
0100
0100
0000
,
1000
0000
1000
0000
1000
1000
1000
0000
,
0001
0000
0000
0000
0001
0000
0000
0000
0010
0001
0000
0000
0010
0001
0000
0000
,
0100
0000
0100
0000
0100
0100
0100
0000
,
0010
0000
0010
0000
0010
0010
0010
0000
,
0001
0000
0001
0000
0001
0001
0001
0000
,
0200
0010
0320
0130
,
0220
0000
0330
0000
,
1000
0100
1000
0100
0000
0010
0001
0010
,
0000
0010
0000
0010
0000
0100
1000
0100
,
0000
0100
0000
0100
0000
0100
0010
0001
,
0000
0001
0000
0010
0000
0100
0000
1000
,
0000
0100
1000
0100
0000
0100
0010
0100
,
0000
0100
0000
0100
0000
1000
0100
1000
,
0000
1000
0000
1000
0100
0010
0001
0010
,
0010
0000
0000
0010
0000
0000
0010
0000
0100
0000
0000
0100
0000
0000
0100
0000
,
0100
0000
0100
0010
0001
0000
1001
0000
,
1000
0100
0010
0000
0110
0000
0110
0000
,
1000
0000
1000
0000
0001
0000
0001
0000
1000
0000
0000
1000
0000
0000
1000
0000
,
0000
0100
0001
0010
0000
1000
0000
0100
,
0100
0001
0010
1000
0010
0000
1001
0000
,
1001
0100
0010
0001
0010
0100
0010
0000
,
1000
0000
0001
0000
0001
0000
1000
0000
1000
0000
0000
1000
0000
0000
1000
0000
,
0000
0000
1000
0100
0001
0000
1000
0000
,
1000
0000
0100
0000
0010
0000
0010
0100
,
0010
0000
0010
0000
0010
0000
0010
0010
,
0020
0100
0130
0110
,
1000
0100
0000
0100
1000
0000
1001
0000
,
1000
1000
1000
0000
0001
0001
0001
0000
,
0100
0100
0100
0000
1000
0000
1000
1000
,
1000
0000
0001
0010
0001
0000
0100
0000
,
0100
0010
0100
0010
0100
0010
0110
0000
,
0220
0000
0000
0000
,
0330
0000
0000
0000
,
1000
0100
0010
0100
0000
0100
0010
0100
,
0000
0100
0000
0100
0000
1000
0100
0010
,
0000
0010
0000
0010
0000
0010
0000
0010
,
0100
0001
0001
1000
1000
0001
0001
1000
,
1000
1000
0001
0001
0100
0100
0010
0010
,
1000
0001
0001
1000
1000
0100
1001
0000
,
1000
1000
0010
0010
,
1000
0100
0001
0010
1000
0000
0020
0000
,
0030
1000
0010
0010
1000
0000
0000
0000
,
1000
0100
0001
0000
0000
0000
1001
0000
,
1000
0001
0010
0100
,
1000
0000
0001
0000
1000
0100
1000
0000
,
0001
0100
0001
0000
1000
0000
0001
0010
,
0001
0000
0001
0010
1000
0000
1001
0000
,
1000
0000
0100
0000
0010
0000
0001
0000
0010
0000
0000
0010
0000
0000
0010
0000
,
0220
0330
0220
0000
,
0330
0000
0000
0000
;

//---------------dance-single - ----------------
#NOTES:
     dance-single:
     :
     Easy:
     3:
     0.229174,0.313484,0.110382,0.191328,0.000000,218.000000,203.000000,15.000000,26.000000,0.000000,0.000000,0.229174,0.313484,0.110382,0.191328,0.000000,218.000000,203.000000,15.000000,26.000000,0.000000,0.000000:
0000
0000
0000
0000
,
0000
0000
0010
0010
,
0200
0000
0000
0300
0002
0000
0000
0003
,
0020
0000
0000
0030
0000
0000
0100
0000
,
0100
1000
1000
0000
,
0100
0001
0100
0100
,
1000
0100
0001
0000
,
1000
0010
0010
1000
,
0001
0010
1000
0000
,
0000
0000
0100
0020
0000
0000
0000
0030
,
0000
0100
0001
0000
,
2000
3002
0103
0100
,
1000
1000
1000
0000
,
0100
0000
0002
0003
,
0010
0010
0100
0000
,
0010
0000
0002
0003
,
0000
0010
0100
0000
,
0000
0000
0010
0000
0020
0000
0000
0030
,
0000
0100
0001
0100
,
1000
0000
0010
1000
,
0010
0010
0010
0010
,
0100
0100
0100
0100
,
1000
1000
1000
1000
,
0001
0001
0010
0010
,
0100
0100
0100
0100
,
0010
0010
0010
0010
,
0001
0001
0001
0001
,
0200
0010
0320
0130
,
0220
0000
0330
0000
,
1000
1000
0000
0001
,
0000
0000
0000
1000
,
0000
0000
0000
0010
,
0000
0000
0000
0000
,
0000
1000
0000
0010
,
0000
0000
0000
0100
,
0000
0000
0100
0001
,
0020
0000
0000
0030
0200
0000
0000
0000
,
0300
0100
0001
1001
,
1000
0010
0110
0110
,
1000
0000
0001
0000
2000
0000
0000
3000
,
0000
0001
0000
0000
,
0100
0010
0010
1001
,
1001
0010
0010
0010
,
1000
0000
0001
0000
2000
0000
0000
3000
,
0000
1000
0001
1000
,
1000
0100
0010
0010
,
0010
0010
0010
0010
,
0020
0100
0130
0110
,
1000
0000
1000
1001
,
1000
1000
0001
0001
,
0100
0100
1000
1000
,
1000
0001
0001
0100
,
0100
0100
0100
0110
,
0220
0000
0000
0000
,
0330
0000
0000
0000
,
1000
0010
0000
0010
,
0000
0000
0000
0100
,
0000
0000
0000
0000
,
0100
0001
1000
0001
,
1000
0001
0100
0010
,
1000
0001
1000
1001
,
1000
1000
0010
0010
,
1000
0001
1000
0020
,
0030
0010
1000
0000
,
1000
0001
0000
1001
,
1000
0001
0010
0100
,
1000
0001
1000
1000
,
0001
0001
1000
0001
,
0001
0001
1000
1001
,
1000
0000
0010
0000
0020
0000
0000
0030
,
0220
0330
0220
0000
,
0330
0000
0000
0000
;

//---------------dance-single - ----------------
#NOTES:
     dance-single:
     :
     Beginner:
     2:
     0.098818,0.181578,0.080947,0.000000,0.000000,94.000000,83.000000,11.000000,0.000000,0.000000,0.000000,0.098818,0.181578,0.080947,0.000000,0.000000,94.000000,83.000000,11.000000,0.000000,0.000000,0.000000:
0000
0000
0000
0000
,
0000
0000
0010
0000
,
0000
0000
0000
0000
,
0000
0000
0000
0100
,
0000
1000
0000
0000
,
0100
0000
0100
0000
,
0000
0100
0000
0000
,
1000
0000
0010
0000
,
0000
0010
0000
0000
,
0000
0100
0000
0000
,
0000
0100
0000
0000
,
0000
0000
0100
0000
,
0000
1000
0000
0000
,
0100
0000
0000
0000
,
0010
0000
0100
0000
,
0010
0000
0000
0000
,
0000
0010
0000
0000
,
0000
0010
0000
0000
,
0000
0100
0000
0100
,
0000
0000
0000
0000
,
0010
0000
0000
0000
,
0100
0000
0000
0000
,
1000
0000
0000
0000
,
0001
0000
0010
0000
,
0100
0000
0000
0000
,
0010
0000
0000
0000
,
0001
0000
0000
0000
,
0100
0000
0000
0000
,
0110
0000
0000
0000
,
1000
0000
0000
0001
,
0000
0000
0000
1000
,
0000
0000
0000
0010
,
0000
0000
0000
0000
,
0000
1000
0000
0000
,
0000
0000
0000
0100
,
0000
0000
0100
0000
,
0010
0000
0100
0000
,
0000
0100
0000
0001
,
0000
0000
0000
0010
,
0000
0000
1000
0000
,
0000
0001
0000
0000
,
0100
0000
0000
0000
,
1001
0000
0000
0000
,
1000
0000
1000
0000
,
0000
0000
0001
0000
,
1000
0000
0010
0000
,
0000
0010
0000
0000
,
0010
0000
0000
0110
,
0000
0000
0000
1001
,
0000
0000
0000
1001
,
0000
0000
0000
0000
,
1000
0000
0001
0000
,
0000
0000
0000
0000
,
0110
0000
0000
0000
,
0000
0000
0000
0000
,
1000
0000
0000
0010
,
0000
0000
0000
0100
,
0000
0000
0000
0000
,
0100
0000
1000
0000
,
1000
0000
0100
0000
,
0000
0000
0000
1001
,
0000
0000
0010
0000
,
0000
0001
0000
0010
,
0000
0010
0000
0000
,
1000
0000
0000
1001
,
0000
0000
0010
0000
,
0000
0001
0000
1000
,
0000
0001
0000
0001
,
0000
0000
0000
1001
,
0000
0010
0000
0000
,
0110
0000
0110
0000
;
