#VERSION:0.83;
#TITLE:1年2ヶ月20日;
#SUBTITLE:;
#ARTIST:BRIGHT;
#TITLETRANSLIT:1 YEAR 2 MONTHS 20 DAYS;
#SUBTITLETRANSLIT:;
#ARTISTTRANSLIT:;
#GENRE:;
#ORIGIN:;
#CREDIT:;
#BANNER:bn.png;
#BACKGROUND:bg.png;
#PREVIEWVID:;
#JACKET:jacket.png;
#CDIMAGE:;
#DISCIMAGE:;
#LYRICSPATH:;
#CDTITLE:;
#MUSIC:1 Year 2 Months 20 Days.ogg;
#OFFSET:0.100000;
#SAMPLESTART:17.000000;
#SAMPLELENGTH:12.000000;
#SELECTABLE:YES;
#BPMS:0.000=118.700,
44.000=119.000;
#STOPS:;
#DELAYS:;
#WARPS:;
#TIMESIGNATURES:0.000=4=4;
#TICKCOUNTS:0.000=4;
#COMBOS:0.000=1;
#SPEEDS:0.000=1.000=0.000=0;
#SCROLLS:0.000=1.000;
#FAKES:;
#LABELS:0.000=Song Start;
#BGCHANGES:;
#KEYSOUNDS:;
#ATTACKS:
;

//---------------dance-single - ----------------
#NOTEDATA:;
#CHARTNAME:;
#STEPSTYPE:dance-single;
#DESCRIPTION:;
#CHARTSTYLE:;
#DIFFICULTY:Hard;
#METER:6;
#RADARVALUES:0.345084,0.368751,0.042754,0.106884,0.021377,226.000000,222.000000,4.000000,10.000000,0.000000,0.000000,0.000000,0.000000,0.000000,0.345084,0.368751,0.042754,0.106884,0.021377,226.000000,222.000000,4.000000,10.000000,0.000000,0.000000,0.000000,0.000000,0.000000;
#CREDIT:;
#NOTES:
// measure 0
0000
0000
0000
0000
1000
0100
0000
0000
,  // measure 1
0001
0010
0000
0000
1000
0100
0000
0000
,  // measure 2
0001
0010
0000
0000
1000
0200
0000
0000
,  // measure 3
0010
0010
0000
0300
0010
0001
0000
0000
,  // measure 4
0010
0100
0000
0000
1000
0100
0000
0000
,  // measure 5
1000
0100
0000
0000
0001
0010
0000
0000
,  // measure 6
0010
0002
0000
0000
0000
0000
0000
1000
,  // measure 7
0103
0010
0001
0010
0100
2000
0000
0000
,  // measure 8
0000
0000
0000
0000
,  // measure 9
3001
0010
0100
1000
0100
0010
0001
0010
,  // measure 10
0001
0010
0000
0010
0000
0010
0000
0110
,  // measure 11
1000
0100
0010
0001
0010
0100
1000
0100
,  // measure 12
0010
0100
0000
0100
0000
0100
0000
0000
,  // measure 13
0010
0100
0010
0100
0010
0100
0010
0100
,  // measure 14
0100
0200
0000
0000
0000
0000
0300
0000
,  // measure 15
0010
0001
0010
0100
1000
0100
0010
0001
,  // measure 16
0010
0200
0000
0000
0000
0000
0300
0000
,  // measure 17
0100
0010
0001
0010
0100
1000
0100
0010
,  // measure 18
0001
0010
0000
0010
0000
0010
0000
0000
,  // measure 19
1000
0100
1000
0100
0010
0001
0010
0001
,  // measure 20
0010
0100
0000
0010
0000
0100
0000
0000
,  // measure 21
1000
0100
1000
0100
1000
0100
0000
0000
,  // measure 22
0001
0010
0100
0000
0010
0000
0100
0000
0010
0000
0100
0000
0000
0000
0000
0000
,  // measure 23
0100
1000
0100
0010
0001
0010
0100
0000
,  // measure 24
0100
0010
0000
0010
0100
0000
0100
1000
,  // measure 25
0100
0010
0001
0010
0200
0000
0000
0000
,  // measure 26
0000
0000
0000
0000
0300
0020
0000
0000
,  // measure 27
0000
0000
0000
0000
0030
0200
0000
0000
,  // measure 28
0000
0000
0310
0010
,  // measure 29
0010
0000
0010
0000
0000
0000
1000
1000
,  // measure 30
1000
1000
1000
0000
1000
0100
0010
0001
,  // measure 31
0010
0000
0100
1000
0100
0010
0000
0001
,  // measure 32
0000
0010
0001
0010
0000
0000
0000
0110
,  // measure 33
0000
0000
0000
0110
0000
0000
1000
0100
,  // measure 34
1000
0100
1000
0000
0001
0010
0001
0010
,  // measure 35
0001
0000
1000
0100
0010
0001
0010
0100
,  // measure 36
1000
0100
0010
0001
0000
0000
0000
0000
,  // measure 37
1000
0100
1000
0100
1000
0100
0000
0000
,  // measure 38
0001
0010
0001
0010
0001
0010
0000
0000
,  // measure 39
1000
0100
0010
0001
0010
0100
0000
1000
,  // measure 40
0000
0100
0000
0010
0002
0000
0000
0000
,  // measure 41
0003
0000
1000
0100
1000
0100
0000
0100
,  // measure 42
0000
0100
0000
0100
0010
0001
0010
0100
,  // measure 43
0000
0000
1000
0000
0000
0000
0000
0000
0010
0100
0010
0000
0000
0000
0000
0000
,  // measure 44
1000
0001
1000
0000
0000
0000
0000
0000
0100
0010
0200
0000
0000
0000
0000
0000
,  // measure 45
0000
0000
0000
0000
0000
0310
0000
0000
,  // measure 46
0110
0000
0000
0000
;

//---------------dance-single - ----------------
#NOTEDATA:;
#CHARTNAME:;
#STEPSTYPE:dance-single;
#DESCRIPTION:;
#CHARTSTYLE:;
#DIFFICULTY:Medium;
#METER:4;
#RADARVALUES:0.218350,0.270418,0.010688,0.149638,0.000000,143.000000,142.000000,1.000000,14.000000,0.000000,0.000000,0.000000,0.000000,0.000000,0.218350,0.270418,0.010688,0.149638,0.000000,143.000000,142.000000,1.000000,14.000000,0.000000,0.000000,0.000000,0.000000,0.000000;
#CREDIT:;
#NOTES:
0000
0000
1000
0000
,
0001
0000
0000
0000
1000
0100
0000
0000
,
0001
0010
0000
0000
0000
0200
0000
0000
,
0000
0010
0000
0300
0010
0000
0000
0000
,
0010
0100
0000
0000
1000
0000
0000
0000
,
1000
0000
0000
0000
0001
0010
0000
0000
,
0010
0002
0000
0000
0000
0000
0000
0000
,
0103
0000
0001
0000
0100
2000
0000
0000
,
0000
0000
0000
0000
,
3001
0000
0100
0000
0100
0010
0001
0000
,
0001
0020
0000
0000
0000
0000
0000
0030
,
1000
0000
0010
0000
0010
0000
1000
0100
,
0010
0200
0000
0000
0000
0300
0000
0000
,
0010
0010
0010
0010
,
0100
0200
0000
0000
0000
0000
0300
0000
,
0010
0010
1000
0010
,
0010
0200
0000
0000
0000
0000
0300
0000
,
0100
0000
0001
0000
0100
1000
0100
0000
,
0001
0010
0000
0020
0000
0030
0000
0000
,
1000
1000
0010
0010
,
0010
0100
0000
0010
0000
0100
0000
0000
,
1000
0000
0000
0100
1000
0100
0000
0000
,
0001
0100
0010
0000
0010
0100
0000
0000
,
0100
0100
0001
0100
,
0100
0010
0000
0010
0100
0000
0100
0000
,
0100
0000
0001
0010
0200
0000
0000
0000
,
0000
0000
0000
0000
0300
0020
0000
0000
,
0000
0000
0000
0000
0030
0200
0000
0000
,
0000
0000
0320
0000
,
0000
0030
0000
2000
,
0000
0000
3000
0000
1000
0000
0000
0001
,
0010
0000
0100
0000
0100
0010
0000
0000
,
0000
0010
0001
0010
0000
0000
0000
0010
,
0000
0000
0000
0010
0000
0000
1000
0000
,
0000
0100
1000
0000
0001
0000
0000
0010
,
0001
1000
0010
0010
,
1000
0100
0010
0001
0000
0000
0000
0000
,
1000
0000
1000
0000
1000
0100
0000
0000
,
0001
0000
0001
0000
0001
0010
0000
0000
,
1000
0000
0010
0000
0010
0100
0000
1000
,
0000
0100
0000
0010
0002
0000
0000
0000
,
0003
0000
1000
0000
1000
0000
0000
0100
,
0000
0000
0000
0000
0010
0000
0010
0100
,
0000
1000
0000
0000
0010
0000
0000
0000
,
1000
0000
0000
0000
0100
0100
0000
0000
,
0000
0000
0000
0000
0000
0010
0000
0000
,
0110
0000
0000
0000
;

//---------------dance-single - ----------------
#NOTEDATA:;
#CHARTNAME:;
#STEPSTYPE:dance-single;
#DESCRIPTION:;
#CHARTSTYLE:;
#DIFFICULTY:Easy;
#METER:2;
#RADARVALUES:0.152692,0.196667,0.010688,0.149638,0.000000,100.000000,99.000000,1.000000,14.000000,0.000000,0.000000,0.000000,0.000000,0.000000,0.152692,0.196667,0.010688,0.149638,0.000000,100.000000,99.000000,1.000000,14.000000,0.000000,0.000000,0.000000,0.000000,0.000000;
#CREDIT:;
#NOTES:
0000
0000
1000
0000
,
0001
0000
1000
0000
,
0001
0000
0000
0000
0000
0100
0000
0000
,
0000
0010
0000
0000
0010
0000
0000
0000
,
0010
0000
1000
0000
,
1000
0000
0001
0000
,
0010
0001
0000
0000
0000
0000
0000
0000
,
0100
0000
0001
0000
0100
2000
0000
0000
,
0000
0000
0000
0000
,
3001
0100
0100
0000
,
0000
0020
0000
0000
0000
0000
0000
0030
,
1000
0000
0000
1000
,
0000
0200
0000
0000
0000
0300
0000
0000
,
0020
0000
0000
0030
,
0100
0200
0000
0000
0000
0000
0300
0000
,
0000
0010
0000
0010
,
0000
0200
0000
0000
0000
0000
0300
0000
,
0100
0000
0100
0100
,
0000
0000
0000
0020
0000
0030
0000
0000
,
1000
0000
0010
0000
,
0010
0100
0000
0000
0000
0100
0000
0000
,
1000
0000
1000
0000
,
0001
0010
0010
0000
,
0100
0100
0001
0100
,
0100
0000
0100
0100
,
0100
0000
0200
0000
,
0000
0000
0000
0000
0300
0020
0000
0000
,
0000
0000
0000
0000
0030
0200
0000
0000
,
0000
0000
0320
0000
,
0000
0030
0000
2000
,
0000
3000
1000
0000
,
0010
0100
0100
0000
,
0000
0010
0001
0010
0000
0000
0000
0010
,
0000
0000
0000
0010
0000
0000
1000
0000
,
0000
1000
0001
0000
,
0001
1000
0010
0010
,
1000
0010
0000
0000
,
1000
1000
1000
0000
,
0001
0001
0001
0000
,
1000
0000
0010
0000
0010
0100
0000
2000
,
0000
0000
3002
0000
,
0003
0000
1000
0000
1000
0000
0000
0100
,
0000
0000
0010
0010
,
0000
1000
0000
0000
0010
0000
0000
0000
,
1000
0000
0000
0000
0100
0100
0000
0000
,
0000
0000
0000
0000
0000
0010
0000
0000
,
0110
0000
0000
0000
;

//---------------dance-single - ----------------
#NOTEDATA:;
#CHARTNAME:;
#STEPSTYPE:dance-single;
#DESCRIPTION:;
#CHARTSTYLE:;
#DIFFICULTY:Beginner;
#METER:2;
#RADARVALUES:0.090088,0.121915,0.000000,0.010688,0.000000,59.000000,59.000000,0.000000,1.000000,0.000000,0.000000,0.000000,0.000000,0.000000,0.090088,0.121915,0.000000,0.010688,0.000000,59.000000,59.000000,0.000000,1.000000,0.000000,0.000000,0.000000,0.000000,0.000000;
#CREDIT:;
#NOTES:
0000
0000
1000
0000
,
0001
0000
0000
0000
,
0001
0000
0000
0000
,
0100
0000
0000
0000
,
0010
0000
0000
0000
,
1000
0000
0000
0000
,
0010
0000
0000
0000
,
0100
0000
0000
1000
,
0000
0000
0000
0000
,
0001
0100
0100
0000
,
0000
0010
0000
0000
0000
0000
0000
0000
,
1000
0000
0000
1000
,
0000
0100
0000
0000
0000
0000
0000
0000
,
0020
0000
0000
0030
,
0100
0100
0000
0000
0000
0000
0000
0000
,
0000
0010
0000
0010
,
0000
0100
0000
0000
0000
0000
0000
0000
,
0100
0000
0100
0000
,
0000
0000
0000
0010
0000
0000
0000
0000
,
1000
0000
0010
0000
,
0010
0000
0000
0000
,
1000
0000
0000
0000
,
0001
0000
0010
0000
,
0100
0000
0000
0000
,
0100
0000
0000
0000
,
0100
0000
0100
0000
,
0000
0000
0000
0000
0000
0010
0000
0000
,
0000
0000
0000
0000
0000
0100
0000
0000
,
0000
0000
0010
0000
,
0000
0000
0000
1000
,
0000
0000
1000
0000
,
0000
0000
0100
0000
,
0000
0000
0001
0000
0000
0000
0000
0010
,
0000
0000
0000
1000
,
0000
0000
0000
0000
,
0001
0000
0010
0000
,
0000
0010
0000
0000
,
1000
0000
0000
0000
,
0001
0000
0000
0000
,
1000
0000
0000
0000
0000
0000
0000
1000
,
0000
0000
0001
0000
,
0000
0000
1000
0000
0000
0000
0000
0100
,
0000
0000
0010
0000
,
0000
1000
0000
0000
0000
0000
0000
0000
,
1000
0000
0000
0000
0000
0100
0000
0000
,
0000
0000
0000
0000
0000
0010
0000
0000
;
