#TITLE:Pizza Song;
#SUBTITLE:;
#ARTIST:Uncle Moishy;
#TITLETRANSLIT:;
#SUBTITLETRANSLIT:;
#ARTISTTRANSLIT:;
#GENRE:;
#CREDIT:Izalot;
#MUSIC:Uncle Moishy - Pizza Song.ogg;
#BANNER:Uncle Moishy - Pizza Song.png;
#BACKGROUND:Pizza Song BG.png;
#CDTITLE:;
#SAMPLESTART:43.924271;
#SAMPLELENGTH:13.975564;
#SELECTABLE:YES;
#OFFSET:-0.616000;
#BPMS:0.000000=133.000000;
#STOPS:;
#BGCHANGES:;
#FGCHANGES:;

//--------------- dance-single - Izalot ----------------
#NOTES:
     dance-single:
     Izalot:
     Beginner:
     2:
     0,0,0,0,0:
0000
0000
0000
0000
,
0000
0000
0000
0000
,
0000
0000
0000
0000
,
0000
0000
0000
0000
,
0000
0000
0000
0000
,
0000
0000
0000
0000
,
0000
0000
0000
0000
,
0000
0000
0000
0000
,
1000
0000
1000
0000
,
0010
0000
0010
0000
,
0001
0000
1000
0000
,
0100
0000
0010
0000
,
0001
0000
1000
0000
,
0010
0000
0100
0000
,
0001
0000
1000
0000
,
0001
0000
0100
0000
,
0001
0000
0010
0000
,
1000
0000
0100
0000
,
0001
0000
0010
0000
,
1000
0000
1001
0000
,
0100
0000
0001
0000
,
0100
0000
1000
0000
,
0001
0000
1000
0000
,
0001
0000
1000
0000
,
2000
0000
0000
3000
,
0002
0000
0003
0000
,
2000
0000
0000
0000
0000
0000
0000
0000
0000
0000
0000
0000
0000
0000
0000
0000
0000
0000
0000
0000
0000
0000
0000
0000
0000
0000
0000
0000
0000
0000
0000
0000
0000
0000
0000
0000
0000
0000
0000
0000
0000
0000
0000
0000
0000
0000
0000
0000
0000
0000
0000
0000
0000
0000
0000
0000
0000
0000
0000
0000
0000
0000
0000
0000
0000
0000
0000
0000
0000
0000
0000
0000
0000
0000
0000
0000
0000
0000
0000
0000
0000
0000
0000
0000
0000
0000
0000
0000
0000
0000
0000
0000
0000
0000
0000
0000
0000
0000
0000
0000
0000
3000
0000
0000
0000
0000
0000
0000
0000
0000
0000
0000
0000
0000
0000
0000
0000
0000
0000
0000
0000
0000
0000
0000
0000
0000
0000
0000
0000
0000
0000
0000
0000
0000
0000
0000
0000
0000
0000
0000
0000
0000
0000
0000
0000
0000
0000
0000
0000
0000
0000
0000
0000
0000
0000
0000
0000
0000
0000
0000
0000
0000
0000
0000
0000
0000
0000
0000
0000
0000
0000
0000
0000
0000
0000
0000
0000
0000
0000
0000
0000
0000
0000
0000
0000
0000
0000
0000
0000
0000
0000
0000
,
0002
0003
0000
0000
,
2002
0000
3003
0000
,
0220
0000
0330
0000
,
2002
0000
3003
0000
,
0220
0000
0330
0000
0000
0000
0000
0001
,
0000
0000
0000
1000
0000
0000
0000
0010
,
0000
0000
0000
0100
0000
0000
0000
0010
,
0000
0010
0000
0010
0000
0000
0000
1000
,
0000
0000
0000
0010
0000
0000
0000
0001
,
0000
0000
0000
1000
0000
0000
0000
0000
,
0001
1001
0000
1000
,
0000
0000
0110
0000
0000
1000
0000
0000
,
0000
1001
0000
0000
0000
1000
0000
0000
,
0000
0001
0000
1001
0000
0000
0000
0010
,
0000
0000
0000
0110
0000
0000
0000
1000
,
0000
0002
0000
0003
1000
0000
0000
0000
,
0010
1001
0100
0000
,
0100
0000
1001
0000
0000
0000
0000
0010
,
0000
1001
0000
0000
0000
1000
0000
0000
,
0000
0001
0000
0000
0000
1000
0000
0000
,
1001
0000
0200
0000
0000
0000
0000
0300
,
0000
0020
0000
0000
,
0030
0000
2000
0000
0000
0000
0000
3000
,
0000
2002
0000
0000
0000
3003
0000
0000
,
0000
2000
0000
0000
0000
0000
3000
0000
,
0002
0000
0000
0000
0000
0003
0000
0000
,
2000
0000
0000
0000
3000
0000
0000
0002
,
0000
0000
0000
0000
0003
0000
0000
1000
,
0000
0000
0000
0001
0000
0000
1000
0000
,
0000
0010
1001
0001
,
0000
0000
1000
0000
0000
0001
0000
0000
,
0000
0010
0000
0000
0100
0000
0000
0000
,
0100
0000
0000
0000
0010
0000
0000
0001
,
0000
1001
0000
0000
0000
0100
0000
0100
,
0000
0000
0000
1000
0000
0000
0001
0000
,
1001
0010
0000
0001
,
1001
0000
0000
0000
0000
0100
0000
0110
,
0000
0200
0000
0300
0000
1000
0000
0000
,
0001
1000
0001
0000
,
0100
0010
0100
1001
,
0000
0100
0000
0100
0000
1001
0000
0000
,
0000
0001
0000
1000
,
0000
0001
0000
2002
,
0000
0000
3003
0000
0000
0200
0000
0000
,
0000
0300
0000
0000
0002
0000
0000
0000
,
0003
0000
2000
0000
,
3000
0000
0020
0000
,
0030
0000
0000
0200
0000
0000
0000
0000
,
0300
0000
0002
0000
0000
0000
0000
0003
,
0000
2000
0000
3000
,
0000
0020
0000
0030
,
0000
2000
0000
0000
0000
0000
3000
0000
,
0000
0020
0000
0000
0000
0000
0030
0000
,
0200
0000
0300
0000
,
0002
0000
0000
0000
0003
0000
0000
2000
,
0000
0000
0000
3000
0000
0000
0020
0000
,
0000
0000
0030
0000
0000
2000
0000
0000
,
0000
0000
3000
0000
0000
0010
0000
0000
,
0000
0100
0000
0000
0001
0000
0000
0000
,
1000
0000
0020
0000
,
0000
0030
0000
0000
0000
0000
0000
0000
;

//--------------- dance-single - Izalot ----------------
#NOTES:
     dance-single:
     Izalot:
     Easy:
     4:
     0,0,0,0,0:
0000
0000
0000
0000
,
0000
0000
0000
0000
,
0000
0000
0000
0000
,
0000
0000
0000
0000
,
0000
0000
0000
0000
,
0000
0000
0000
0000
,
0000
0000
0000
0000
,
0000
0000
0000
0000
,
1000
0001
1000
0000
,
0010
0010
0010
0000
,
0001
0100
1000
0010
,
0100
0001
1010
0001
,
0001
0000
1000
0000
,
0010
0100
0100
0001
,
0001
0000
1001
0000
,
0001
0000
0110
0000
,
1001
0000
0010
0100
,
1000
0001
0100
0100
,
0001
0001
0010
0010
,
1000
0001
1001
0100
,
0100
0001
0001
0100
,
0100
0001
1100
0010
,
1001
0100
1000
0100
,
0001
0010
1000
0100
,
2002
0000
3003
1000
,
0002
0000
0003
0001
,
2020
0000
0000
0000
0000
0000
0000
0000
0000
0000
0000
0000
0000
0000
0000
0000
0000
0000
0000
0000
0000
0000
0000
0000
0000
0000
0000
0000
0000
0000
0000
0000
0000
0000
0000
0000
0000
0000
0000
0000
0000
0000
0000
0000
0000
0000
0000
0000
0000
0000
0000
0000
0000
0000
0000
0000
0000
0000
0000
0000
0000
0000
0000
0000
0000
0000
0000
0000
0000
0000
0000
0000
0000
0000
0000
0000
0000
0000
0000
0000
0000
0000
0000
0000
0000
0000
0000
0000
0000
0000
0000
0000
0000
0000
0000
0000
0030
0000
0000
0000
0000
3000
0000
0000
0000
0000
0000
0000
0000
0000
0000
0000
0000
0000
0000
0000
0000
0000
0000
0000
0000
0000
0000
0000
0000
0000
0000
0000
0000
0000
0000
0000
0000
0000
0000
0000
0000
0000
0000
0000
0000
0000
0000
0000
0100
0000
0000
0000
0000
0000
0000
0000
0000
0000
0000
0000
0000
0000
0000
0000
0000
0000
0000
0000
0000
0000
0000
0000
0000
0000
0000
0000
0000
0000
0000
0000
0000
0000
0000
0000
0000
0000
0000
0000
0000
0000
0000
0000
0000
0000
0000
0000
,
0202
0303
0010
0001
,
2020
0000
3030
0100
,
0220
0000
0330
0001
,
2002
0000
3003
0100
,
0220
0000
0330
0000
0000
0000
0000
0001
,
0000
0100
0000
1000
0000
0001
0000
0010
,
0000
0010
0000
0100
0000
0100
0000
0010
,
0000
0010
0000
0010
0000
0001
0000
1000
,
0000
0100
0000
0010
0000
0001
0000
0001
,
0000
0100
0000
1000
0000
0000
0100
0000
,
0001
1001
0100
1000
,
0000
0000
0110
0000
0000
1000
0000
0100
,
0000
1001
0000
0000
0000
1000
0000
0001
,
0000
0010
0000
1001
0000
0010
0000
0010
,
0000
1000
0000
0110
0000
0001
0000
1000
,
0000
0002
0000
0003
1000
0000
0100
0000
,
0010
1001
0100
0001
,
0100
0000
1001
0000
0100
0000
0000
0010
,
0000
1001
0000
0001
0000
1000
0000
0100
,
0000
0001
0000
0010
0000
1000
0000
0000
,
1001
0000
0200
0000
0000
0000
0000
0300
,
0001
0000
0020
0000
0000
0000
0000
0030
,
0100
0000
2000
0000
0000
0000
3000
0010
,
0000
2002
0000
0000
0000
3003
0000
0010
,
0000
2000
0000
0000
0000
3000
0001
0000
,
0002
0000
0000
0000
0000
0003
0100
0000
,
2000
0000
0000
0000
3000
0010
0000
0002
,
0000
0000
0000
0000
0003
0100
0000
1000
,
0000
0010
0000
0001
0000
0000
1000
0000
,
0001
0010
1001
0001
,
0100
0000
1000
0000
0000
0001
0000
1000
,
0000
0010
0000
0000
0100
0000
0010
0000
,
0100
0000
0000
0000
0010
0000
0000
0001
,
0000
1001
0000
0010
0000
0100
0000
0010
,
0000
0100
0000
1000
0000
0000
0001
0000
,
1001
0010
1000
0001
,
1001
0000
0000
0000
0000
0100
0000
0110
,
0000
0200
0000
0300
0000
1000
0000
0000
,
0001
1000
0001
1000
,
0100
0010
0100
1001
,
0000
0100
0000
0100
0000
1001
0000
0100
,
0000
0001
0010
1000
,
0100
0001
0100
2002
,
0000
0000
3003
0010
0000
0200
0000
0000
,
0000
0300
0000
0000
0002
0000
0000
0000
,
0003
0001
2000
0000
,
3000
1000
0020
0000
,
0030
0000
0000
0200
0000
0000
0000
0300
,
0000
1000
0000
0002
0000
0000
0000
0003
,
0000
2000
0000
3000
,
0000
0020
0000
0030
,
0000
2000
0000
0000
0000
0000
3000
0001
,
0000
0020
0000
0000
0000
0000
0030
0000
,
0200
0000
0300
1000
,
0002
0000
0000
0000
0003
0000
0000
2000
,
0000
0000
0000
3000
0000
0000
0020
0000
,
0000
0000
0030
0001
0000
2000
0000
0000
,
0000
0000
3000
0000
0000
0010
0000
0010
,
0000
0100
0000
0000
0001
0000
0010
0000
,
0100
1000
2002
0000
,
0000
0000
0000
0000
0000
3003
0000
0000
;

//--------------- dance-single - Izalot ----------------
#NOTES:
     dance-single:
     Izalot:
     Medium:
     5:
     0,0,0,0,0:
0000
0000
0000
0000
,
0000
0000
0000
0000
,
0000
0000
0000
0000
,
0000
0000
0000
0000
,
0000
0000
0000
0000
,
0000
0000
0000
0000
,
0000
0000
0000
0000
,
0000
0000
0000
0000
,
1000
0001
1000
0000
,
0010
0000
0010
0001
0010
0000
0000
0000
,
0001
0100
1000
0110
,
0100
0000
0001
1000
0010
0000
0001
0000
,
0001
0100
1000
0000
,
0010
0000
0100
1000
0100
0000
0001
0000
,
0001
0010
1001
0000
,
0001
0010
0100
1000
0110
0000
0001
0000
,
0101
0000
0010
0000
0001
0100
0100
0000
,
1000
0000
0001
0000
0100
0001
0100
0000
,
0001
1000
0010
0001
,
1000
0001
1001
0100
,
0100
0000
0001
1000
0001
0000
0110
0000
,
0100
0001
1100
0010
,
1001
0100
1000
0100
,
0001
1000
0010
0100
1000
0000
0100
0000
,
2002
0000
0000
0000
3003
0000
1000
0010
,
0200
0000
0000
0000
0300
0100
0001
0100
,
0002
0000
0000
0000
0003
0100
0001
0100
,
0002
0003
0010
0001
,
2020
0000
0000
0000
3030
0000
0100
0010
,
0200
0000
0000
0000
0300
1000
0001
1000
,
0002
0000
0000
0000
0003
0000
0100
0010
,
0200
0000
0300
0000
0000
0000
0000
0001
,
0000
0100
0000
1000
0000
0001
0000
0010
,
1000
0010
0000
0100
0000
0100
0000
0110
,
0000
0010
0001
0010
0000
0001
0000
1000
,
0000
0100
0000
0010
0000
0001
0000
0001
,
0000
0100
0000
1001
0000
0000
0100
0000
,
0001
1000
0001
0000
0110
0000
1000
0001
,
0000
0000
0110
0000
0000
1000
0000
0100
,
0000
1001
0000
0010
0000
1000
0000
0001
,
0000
0100
0001
0001
0000
0010
0000
0010
,
0000
1000
0010
0010
0000
0001
0000
1000
,
0000
0002
0000
0003
1000
0000
0100
0000
,
0010
0000
1001
0000
0100
0000
0001
0010
,
0100
0000
1001
0000
0100
0000
0000
0001
,
0000
1001
0000
0001
0000
1000
0000
0100
,
0000
0001
0000
0010
0001
1000
0000
0000
,
1001
0000
0200
0000
0000
0000
0000
0300
,
0001
1000
0020
0000
0000
0000
0000
0030
,
0100
0010
2000
0000
0000
0000
3000
0010
,
1000
0002
0000
0000
0000
0003
0000
0010
,
0001
2000
0000
0000
0000
3000
0001
1000
,
0002
0000
0000
0000
0000
0003
0100
0001
,
2000
0000
0000
0000
3000
0010
1000
0002
,
0000
0000
0000
0000
0003
0100
0001
1000
,
0000
0010
0000
0001
0000
0000
1000
0000
,
0001
1000
0010
0000
1001
0000
0001
0000
,
0100
0000
1000
0000
0000
0001
0010
0100
,
1000
0010
0000
0100
0000
0100
0000
0000
,
0100
0000
0000
0000
0010
0000
0000
0001
,
2000
0000
3000
0010
0000
0100
0010
0100
,
0000
0100
0000
1000
0001
1000
0000
0000
,
1001
0010
1000
0001
,
1001
0000
0100
0000
0000
0100
0010
0100
,
0000
0200
0000
0300
0000
2000
0000
3000
,
0001
1000
0001
1000
,
0100
0000
0010
0000
0100
0010
1000
0000
,
0000
0100
0000
0100
0010
1000
0000
0100
,
0000
1000
0000
0010
0010
0000
1000
0000
,
0100
0001
0100
2002
,
0000
0000
3003
0010
0100
0020
0000
0000
,
0000
0030
0001
1000
0000
2000
0000
0000
,
3000
0100
0001
0000
0020
0000
0000
0000
,
0030
1000
0020
0000
,
0030
0000
0001
0200
0000
0000
0000
0300
,
0000
1000
0000
0002
0000
0000
0000
0003
,
1000
0001
2000
0000
0000
0000
3000
0000
,
0000
0000
0020
0000
0000
0000
0030
0001
,
0000
2000
0000
0000
0000
0000
3000
0001
,
0000
0020
0000
0000
0000
0030
0100
0000
,
0200
0000
0300
1000
,
0002
0000
0000
0000
0003
0010
0000
2000
,
0000
0000
0000
3000
0100
0000
0020
0000
,
0000
0000
0030
0001
0010
2000
0000
0000
,
0000
0000
3000
0000
0000
0020
0000
0230
,
0000
0302
0000
2003
0000
3020
0000
0230
,
0000
0302
0000
0003
2002
0000
0000
0000
,
0000
0000
0000
0000
0000
3003
0000
0000
;

//--------------- dance-single - Izalot ----------------
#NOTES:
     dance-single:
     Izalot:
     Hard:
     7:
     0,0,0,0,0:
0000
0000
0000
0000
,
0000
0000
0000
0000
,
0000
0000
0000
0000
,
0000
0000
0000
0000
,
0000
0000
0000
0000
,
0000
0000
0000
0000
,
0000
0000
0000
0000
,
0000
0000
0000
0000
,
1000
0010
0100
0010
1000
0001
0000
0000
,
0010
1000
0010
0001
0010
0000
0010
0000
,
1001
0000
0100
0010
1000
0000
0110
0000
,
0100
0000
0001
1000
0010
0000
0001
1000
,
0001
0010
0100
0001
1000
0010
0000
0000
,
0010
0001
0100
1000
0100
0000
0001
1000
,
0001
1000
0010
0000
1001
0110
0000
1000
,
0001
0010
0100
1000
0110
0000
0001
0000
,
0101
0000
0010
1000
0001
0100
0110
0000
,
1000
0100
0001
0000
0100
0001
0100
0000
,
0001
0000
1000
0000
0010
1000
0001
0000
,
1000
0100
0001
0000
1001
0000
0100
0000
,
0100
0000
0001
1000
0001
0110
0110
0000
,
0100
0000
0001
0000
0100
1000
0010
0000
,
1001
0000
0100
0001
1000
0010
0100
0000
,
0001
1000
0010
0100
1000
0000
0100
0000
,
2002
0000
0000
0000
3003
0010
1000
0010
,
0200
0000
0000
0000
0300
0100
0001
0100
,
0002
0000
0000
0000
0003
0100
0001
0100
,
0002
1003
0010
0001
,
2020
0000
0000
0000
3030
0001
0100
0010
,
0200
0000
0000
0000
0300
1000
0001
1000
,
0002
0000
0000
0000
1003
0001
0100
0200
,
0000
0000
0300
0000
0100
0000
1000
0001
,
0000
0100
0010
1000
0100
0001
0100
0010
,
1000
0010
0001
0100
1000
0100
0010
0100
,
1000
0010
0001
0010
0000
0001
0000
1000
,
0010
0100
1000
0010
0000
0001
1000
0001
,
1000
0100
0010
1001
0000
0000
0100
1000
,
0001
1000
0001
0000
0110
0000
1001
0010
,
0100
1000
0220
0000
0330
1000
0001
0100
,
0010
1000
0000
0001
0000
1000
0100
0010
,
0001
0010
0001
0010
0000
0010
0000
0010
,
0000
1000
0010
0010
0000
0001
0010
1000
,
0100
0002
0000
0003
1000
0001
0100
0001
,
0010
0000
1001
0000
0100
0000
0001
0010
,
0100
1001
1001
0000
0100
0000
0010
0001
,
0010
1000
0010
0001
0000
1000
0000
0100
,
0000
0001
0000
0010
0001
1000
0000
0001
,
0000
1001
0000
0200
0000
0000
0000
0300
,
0001
1000
0020
0000
0000
0000
0000
0030
,
0100
0010
2000
0000
0000
0000
3000
0010
,
1000
0002
0000
0000
0000
0003
0000
0010
,
0001
2000
0000
0000
0000
3000
0001
1000
,
0002
0000
0000
0000
0000
0003
0100
0001
,
2000
0000
0000
0000
3000
0010
1000
0002
,
0000
0000
0000
0000
0003
0100
0001
1000
,
0010
0100
1000
0001
0000
0000
1000
0001
,
0010
1000
0010
0000
1001
0000
0001
0000
,
0100
0000
1000
0000
0000
0001
0010
0100
,
1000
0010
0000
0100
0000
0100
0001
1000
,
0100
0000
0000
0000
0100
0001
1000
0001
,
1000
0010
0001
0010
0000
0100
0010
0100
,
0000
0100
0000
1000
0001
1000
0000
0000
,
1001
0000
0010
0000
1000
0001
0001
0000
,
1001
0000
0100
0000
0100
0100
0010
0100
,
0000
0200
0000
0300
0000
2000
0000
3000
,
0001
0010
0100
1000
0001
0010
1000
0000
,
0100
0000
0010
0000
0100
0010
1000
0000
,
0000
0100
0000
0100
0010
1000
0000
0100
,
0000
1000
0100
0010
0010
0000
1000
0000
,
0100
0001
0100
2002
,
0000
0000
3003
0010
0100
0020
0000
0000
,
0000
0030
0001
1000
0001
2000
0000
0000
,
3000
0100
0001
1000
0020
0000
0000
0000
,
0030
1000
0020
0000
,
0030
1000
0001
0200
0000
0000
0000
0300
,
0010
1000
0000
0002
0000
0000
0000
0003
,
1000
0001
2000
0000
0000
0000
3000
0000
,
0000
0000
0020
0000
0000
0000
0030
0001
,
0010
2000
0000
0000
0000
0000
3000
0001
,
0100
0020
0000
0000
0000
0030
0100
1000
,
0200
0000
0000
0000
0300
0000
1000
0100
,
0002
0000
0000
0000
0003
0010
0001
2000
,
0000
0000
0000
3000
0100
0001
0020
0000
,
0000
0000
0030
0001
0010
2000
0000
0000
,
0000
0000
3000
0100
0000
0020
0000
0230
,
0000
0302
0000
2003
0000
3020
0000
0230
,
0000
0302
0000
0003
2002
0000
0000
0000
,
0000
0000
0000
0000
0000
3003
0000
0000
;
