#TITLE:TIMBER (LONG VER.);
#SUBTITLE:;
#ARTIST:Pitbull ft. Ke$ha;
#TITLETRANSLIT:;
#SUBTITLETRANSLIT:;
#ARTISTTRANSLIT:;
#GENRE:;
#CREDIT:;
#BANNER:Timber.png;
#BACKGROUND:Timber-bg.png;
#LYRICSPATH:;
#CDTITLE:;
#MUSIC:Timber.mp3;
#OFFSET:0.000000;
#SAMPLESTART:100.000000;
#SAMPLELENGTH:12.000000;
#SELECTABLE:YES;
#BPMS:0.000000=130.000000
,228.000000=130.500000
,320.000000=130.000000
;
#STOPS:
;
#BGCHANGES:;
#KEYSOUNDS:;
#ATTACKS:;

//---------------dance-single - ----------------
#NOTES:
     dance-single:
     :
     Challenge:
     14:
     0.601738,0.724442,0.076066,0.152132,0.261478,886.000000,870.000000,16.000000,32.000000,0.000000,2.000000,0.601738,0.724442,0.076066,0.152132,0.261478,886.000000,870.000000,16.000000,32.000000,0.000000,2.000000:
// measure 0
1000
1000
1000
1000
,  // measure 1
0100
0100
0100
0100
,  // measure 2
0200
0000
0000
0300
,  // measure 3
2000
0000
0000
0000
,  // measure 4
3100
0100
0100
0100
,  // measure 5
0010
0010
0010
0010
,  // measure 6
2000
0000
0000
0000
,  // measure 7
3200
0000
0000
0000
0300
1000
0100
0010
,  // measure 8
0202
0000
0000
0000
0000
1303
1000
1000
,  // measure 9
1000
2000
0000
0000
0100
3010
0001
0002
,  // measure 10
2000
0000
3000
0000
0103
0010
0100
1001
,  // measure 11
2002
0000
0000
0000
3013
0100
0010
0100
,  // measure 12
0020
0000
0000
0000
0000
0100
1030
0100
,  // measure 13
0010
0002
0000
0000
1000
0100
0010
1003
,  // measure 14
0200
0000
0000
0000
0010
0310
0010
0100
,  // measure 15
2000
0000
0000
3001
,  // measure 16
1000
0100
0010
0001
0010
0100
0010
0100
,  // measure 17
1000
0100
0100
0100
0100
0100
0100
0100
,  // measure 18
1000
0100
0010
0100
1000
0100
0010
0010
,  // measure 19
0001
0010
0100
1000
0100
0000
0010
0000
,  // measure 20
1000
0100
1000
0100
0001
0100
1000
0100
,  // measure 21
0001
0100
1000
0010
0001
0100
1000
0100
,  // measure 22
1000
0100
0010
0100
0001
1000
0001
0100
,  // measure 23
1000
0100
0010
1000
0010
0001
0100
1000
,  // measure 24
0010
1000
0100
0010
0000
0000
0000
0000
1000
0100
0010
0100
0010
0000
0000
0000
,  // measure 25
1000
0100
1000
0100
0000
0100
0010
0001
0010
0001
0000
0000
1000
0100
0010
0001
,  // measure 26
0010
0100
0010
0100
0010
0100
1000
0100
0010
0000
0000
0000
1000
0000
0000
0000
,  // measure 27
1000
0100
0010
0001
0010
0100
1000
0000
0100
0000
0000
0000
0100
0000
0000
0000
,  // measure 28
1000
0100
1000
0000
0100
0010
0100
0000
1000
0100
1000
0000
0001
0010
0001
0000
,  // measure 29
1000
0100
1000
0000
0010
0100
0010
0000
0001
0010
0001
0000
0100
0010
0100
0000
,  // measure 30
0010
0100
0010
0000
1000
0100
1000
0000
0010
0100
0010
0000
0001
0010
0001
0000
,  // measure 31
0010
0100
1000
0000
0100
0010
0001
0000
0010
0100
1000
0100
0010
0001
0010
0100
,  // measure 32
1000
0100
0010
0001
0010
0100
0100
1000
,  // measure 33
0100
0010
0001
0010
0100
0100
0100
0000
,  // measure 34
1000
1000
1000
0000
0010
0010
0010
0000
,  // measure 35
0100
0010
0001
0010
0100
1000
0100
0010
,  // measure 36
1000
0100
0010
1000
0010
0001
0100
1000
,  // measure 37
0100
0010
0001
0100
1000
0010
0010
0100
,  // measure 38
1000
0100
0010
0001
0100
0100
0010
0100
,  // measure 39
1000
1000
1000
1000
1000
1000
1000
1000
,  // measure 40
2000
0000
0000
0000
0001
0010
3100
0010
,  // measure 41
2000
0000
0000
0000
0000
3100
0010
0001
,  // measure 42
2000
0000
0000
0000
0010
3010
0010
0010
,  // measure 43
0020
0000
0000
0000
0000
1030
1000
1000
,  // measure 44
2000
0000
0000
0000
0000
3100
0010
0001
,  // measure 45
0010
0200
0000
0000
0010
0001
0010
0301
,  // measure 46
0200
0000
0010
0010
0010
0310
1000
0100
,  // measure 47
0010
0001
0020
1000
0100
1000
0100
0030
,  // measure 48
2000
0000
0100
0100
0100
0000
0100
0010
,  // measure 49
3100
0010
2000
0000
0000
3010
0100
0010
,  // measure 50
0001
0010
1000
0100
0010
1000
0100
0010
,  // measure 51
1000
0010
1000
0100
0010
0100
1000
0000
,  // measure 52
1000
0100
0001
0100
1000
0100
0001
0100
,  // measure 53
1000
0010
0001
0010
1000
0010
0001
0010
,  // measure 54
1000
0100
0001
0010
1000
0100
0001
0010
,  // measure 55
0100
0001
1000
0100
0010
0001
0010
0010
,  // measure 56
1000
0100
1000
0000
0010
0100
0010
0000
0001
0010
0001
0000
0100
0010
0100
0000
,  // measure 57
1000
0100
0010
0000
0001
0010
0100
0000
0100
0000
0010
0000
0100
0000
1000
0000
,  // measure 58
0100
0010
0100
0010
0001
0100
1000
0100
,  // measure 59
0010
1000
0100
0010
1001
0100
0010
1000
,  // measure 60
0010
0001
0100
1000
0100
0010
0100
1000
,  // measure 61
0100
0010
0001
0100
1000
0100
0010
0100
,  // measure 62
1000
0100
1000
0000
0010
0100
0010
0000
,  // measure 63
1000
1000
1000
1000
1000
0100
0010
0001
,  // measure 64
1000
0100
1000
0100
1000
0100
0010
0001
0010
0100
0010
0100
1000
0100
0010
0100
,  // measure 65
1000
0100
0010
0100
1000
0000
1000
0000
1000
0000
1000
0000
1000
0000
1000
0000
,  // measure 66
1000
0100
1000
0000
0010
0100
0010
0000
,  // measure 67
0001
0010
0001
0000
1000
0000
1000
0000
,  // measure 68
1000
0100
1000
0000
0010
0100
0010
0000
0001
0010
0001
0000
0100
0010
0100
0000
,  // measure 69
1000
0100
1000
0000
0010
0100
0010
0000
0001
0010
0001
0000
0100
0010
0100
0000
,  // measure 70
1000
0100
0010
0000
0100
0010
0001
0000
0100
1000
0100
0000
0100
0010
0001
0000
,  // measure 71
1000
0000
1000
0000
1000
0000
1000
0000
0100
0010
0001
0010
0100
0000
0000
0000
,  // measure 72
1000
0100
0010
0100
1000
0000
0000
0000
0001
0010
0100
0010
0001
0000
0000
0000
,  // measure 73
1000
0100
1000
0100
1000
0000
0000
0000
0010
0100
0010
0100
0010
0000
0000
0000
,  // measure 74
0001
0010
0001
0010
0001
0000
0000
0000
0100
0010
0100
0010
0100
0000
0000
0000
,  // measure 75
1000
0100
1000
0100
1000
0100
0010
0001
0010
0100
1000
0000
1000
0000
1000
0000
,  // measure 76
1000
0100
0010
0001
0010
0100
0010
0100
,  // measure 77
1000
0100
0010
0001
0100
0100
1000
0100
,  // measure 78
0010
0100
1000
0001
0100
1000
0100
0010
,  // measure 79
0100
0001
0100
0001
1000
0100
0010
0100
,  // measure 80
2000
0000
0000
0000
0010
3100
0010
0100
,  // measure 81
0010
0100
0000
1000
0100
0020
0031
0000
,  // measure 82
1000
0100
0010
0100
1000
0000
0001
0000
,  // measure 83
1000
0100
1000
0100
0010
0001
0010
0001
,  // measure 84
0000
1000
1000
1000
0100
0010
0100
1000
,  // measure 85
0100
0010
0010
0001
0010
0100
1000
0100
,  // measure 86
0010
1000
0100
0010
0001
0100
0010
0100
,  // measure 87
1000
0100
0010
0001
0100
1000
0010
0100
,  // measure 88
1000
0100
0010
0100
0010
0100
0010
0001
,  // measure 89
1000
0100
0010
1000
0100
0001
0110
1000
,  // measure 90
0100
0010
1000
0010
0100
0001
0100
0010
,  // measure 91
1000
0100
0010
0100
1000
0010
1100
0010
,  // measure 92
1100
0010
0011
0010
0011
0010
0110
0110
,  // measure 93
0010
0100
1000
0100
0010
0100
0010
0011
,  // measure 94
1100
1000
0010
0100
0010
1000
0010
0001
,  // measure 95
0100
1000
0010
0100
1000
0000
1000
0000
,  // measure 96
1000
0100
1000
0000
0010
0100
0010
0000
0001
0010
0001
0000
0100
0010
0100
0000
,  // measure 97
1000
0100
1000
0000
0010
0100
0010
0000
1000
0100
1000
0000
0100
0010
0100
0000
,  // measure 98
0010
0100
0010
0000
0100
0010
0100
0000
1000
0100
0010
0000
0001
0010
0100
0000
,  // measure 99
1000
0100
0010
0000
0100
0010
0001
0000
0010
0100
1000
0000
1000
0000
0000
0000
,  // measure 100
1000
0100
1000
0000
0010
0100
0010
0000
0001
0010
0001
0000
0100
0010
0100
0000
,  // measure 101
1000
0100
1000
0000
0010
0100
0010
0000
1000
0100
1000
0000
0010
0100
0001
0000
,  // measure 102
0010
0001
0100
0000
1000
0100
0010
0000
0100
0010
0100
0000
1000
0100
1000
0000
,  // measure 103
0100
0100
0100
0100
0100
0000
0100
0000
,  // measure 104
1000
0100
0010
0100
1000
0100
0010
0001
,  // measure 105
0110
0100
0010
1000
0100
0020
0130
0000
,  // measure 106
1000
0100
1000
0100
0001
0100
1000
0100
,  // measure 107
0001
0010
0001
0010
1000
0010
0001
0010
,  // measure 108
1000
0100
0001
0010
1000
0001
0100
0010
,  // measure 109
1000
1000
1000
0100
0010
0100
0010
0100
,  // measure 110
0010
0001
0020
0230
1300
0100
0010
0101
,  // measure 111
1000
0100
1000
0100
1000
0100
0010
0001
,  // measure 112
0220
0000
0000
0000
0000
0000
0000
0330
;
