#TITLE:TALK THAT TALK;
#SUBTITLE:;
#ARTIST:TWICE;
#TITLETRANSLIT:;
#SUBTITLETRANSLIT:;
#ARTISTTRANSLIT:;
#GENRE:;
#CREDIT:SoulEdge5000;
#BANNER:banner.png;
#BACKGROUND:;
#LYRICSPATH:;
#CDTITLE:;
#MUSIC:Talk That Talk.ogg;
#OFFSET:0.950000;
#SAMPLESTART:51.068001;
#SAMPLELENGTH:12.000000;
#SELECTABLE:YES;
#BPMS:0.000000=120.000000
;
#STOPS:
;
#BGCHANGES:;
#KEYSOUNDS:;
#ATTACKS:;

//---------------dance-single - ----------------
#NOTES:
     dance-single:
     :
     Hard:
     12:
     0.486675,0.552272,0.138220,0.162612,0.203265,419.000000,402.000000,17.000000,20.000000,0.000000,0.000000,0.486675,0.552272,0.138220,0.162612,0.203265,419.000000,402.000000,17.000000,20.000000,0.000000,0.000000:
0000
0000
0000
0000
,
1000
0100
2000
0000
0000
3000
0000
0000
,
0001
0010
0002
0000
0000
0000
0000
0003
,
1000
0100
2000
0000
0000
0000
0000
3000
,
0100
0100
0010
0010
0001
0001
1000
0100
,
0010
0001
0010
0000
0100
0000
0010
0000
0100
0000
0100
0010
0000
0000
0100
0000
,
0010
0000
0001
0010
0000
0000
0100
0000
1000
0000
0010
0001
0000
0000
0110
0000
,
1001
0000
0110
0000
0000
0000
0010
0000
0100
0000
0010
0001
0000
0000
0100
0000
,
1000
0000
0100
0020
0000
0000
0000
0000
0030
0000
0000
0000
1000
0000
1000
0000
,
0100
0100
0010
0000
1001
0000
0001
0001
,
0010
0010
0100
0000
0110
0000
0100
0001
,
0010
1000
0100
0000
0100
0010
0100
0010
,
1001
0000
0001
0010
0100
1000
0100
0010
,
1001
0000
0100
0100
0010
0010
0100
0100
,
0001
0010
0001
0000
0010
0000
0010
0000
0100
0000
0100
0000
1000
0000
1000
0000
,
0100
0001
0100
0000
0010
0000
0010
0000
0001
0000
0001
0000
1000
0000
1000
0000
,
0010
0100
0010
0000
0001
0000
0001
0000
1000
0000
1000
0000
0010
0000
0010
0000
,
0100
0010
0100
0000
0001
0000
1000
0000
0001
0000
1000
0000
0010
0000
0100
0000
,
0010
0100
0010
0000
1000
0000
0100
0000
0001
0000
0010
0000
1000
0000
0100
0000
,
0010
0001
0010
0001
0010
0000
0000
0000
0100
0000
0000
0000
0100
0010
0000
0000
,
0100
0010
0000
0000
1000
0001
0000
0000
0010
0000
0100
0000
0010
0000
0000
0000
,
0110
0000
0100
1000
0100
0010
0000
0010
,
0100
1000
0000
1000
0001
1000
0001
0000
,
0100
0010
0000
0001
0010
0001
0000
0100
,
1000
0100
0000
0010
0001
0010
0100
0010
,
0100
0000
0100
0010
0100
0010
0000
0100
,
1000
0100
0000
0010
0001
0010
0000
0100
,
0010
0000
0100
0100
0010
0010
1000
1000
,
0100
0100
0010
0010
0001
0010
0100
0000
,
0100
0000
0000
0000
0110
0000
0000
0000
0010
0000
0010
0000
0010
0000
0000
0010
,
0000
0010
0000
0100
0010
0100
0010
0001
,
0010
0000
0100
0000
1000
0000
0100
0000
0010
0001
0010
0001
0010
0000
0000
0000
,
0100
2002
0000
3003
0010
0000
0100
0000
,
0010
0000
0000
0000
0100
0000
0000
0100
0000
0100
0000
0100
0000
0000
0010
0000
,
0001
0000
0010
0000
0100
0000
0000
0100
0000
0100
0000
0100
0000
0000
0001
0000
,
0010
0100
1000
0010
0001
2000
3000
0200
,
0300
0020
0030
0002
0003
0020
0030
0200
,
0310
0000
0000
0000
0110
0000
0000
0000
1001
0000
0000
0000
0010
0000
0000
0010
,
0000
0000
0010
0000
0000
0000
0100
0000
0010
0100
0010
0000
0100
0000
0000
0001
,
0000
0000
0010
0000
0000
0000
0100
1000
0100
1000
0100
1000
0100
0000
0000
0010
,
0000
0000
0001
0010
0100
0000
0010
0100
1000
0000
0100
0000
0010
0000
0001
0000
,
0010
0100
0010
0000
1000
0000
0100
0000
0010
0000
0001
0000
0010
0100
0010
0000
,
1001
0000
0000
0000
0010
0000
0100
0000
0010
0000
0001
0000
0010
0100
0010
0000
,
1001
0000
0020
0030
0200
0300
0001
0010
,
0001
0020
0000
0030
0100
2000
0000
3100
,
0001
0000
0010
0100
0010
0100
0000
1000
,
0100
0010
0000
0001
0010
0100
0000
0010
,
0100
0010
0000
0100
0010
0100
0000
0001
,
0010
0100
0000
0010
0100
1000
0100
0010
,
0001
0000
0010
0010
0010
0010
0000
0100
,
0010
0100
0000
0010
1000
0010
0000
0010
,
0100
0000
0010
0010
0100
0100
0010
0010
,
0100
0010
0220
0000
0000
0000
0330
0000
,
0110
0000
0000
0000
0110
0000
0000
0000
0001
0000
0010
0000
0100
0000
0000
0100
,
0000
0000
0100
0000
0010
0000
0001
0000
0010
0000
0100
0000
1000
0000
0100
0010
,
0000
0100
0010
0000
0000
0000
0001
0000
0010
0100
0010
0100
0010
0000
0100
0000
,
0000
0100
0000
0000
0100
0000
0010
0000
0100
0000
0010
0000
0001
0000
0010
0000
,
0100
0000
1000
0000
0100
0000
0000
0100
0000
0100
0000
0100
0000
0000
0010
0000
,
0001
0000
0010
0000
0100
0000
0000
0001
0000
1000
0000
0001
0000
0000
0010
0000
,
0100
0010
0200
0000
0300
0010
0000
0100
,
0000
0010
0000
0100
0000
0010
1000
0100
,
0010
0001
0010
0000
0200
0000
0000
0000
0000
0000
0000
0000
0300
0000
0000
0000
;

//---------------dance-single - ----------------
#NOTES:
     dance-single:
     :
     Medium:
     8:
     0.315932,0.401652,0.073175,0.203265,0.040653,272.000000,263.000000,9.000000,25.000000,0.000000,0.000000,0.315932,0.401652,0.073175,0.203265,0.040653,272.000000,263.000000,9.000000,25.000000,0.000000,0.000000:
0000
0000
0000
0000
,
1000
0000
2000
0000
0000
3000
0000
0000
,
0001
0000
0002
0000
0000
0000
0000
0003
,
1000
0000
2000
0000
0000
0000
0000
3000
,
0100
0010
0001
1000
,
0010
0001
0100
0000
0100
0010
0000
0100
,
0010
0001
0000
0100
1000
0010
0000
0100
,
1000
0010
0000
0010
0100
0010
0000
0000
,
1000
0000
0000
0020
0000
0000
0000
0000
0030
0000
0000
0000
1000
0000
0000
0000
,
0100
0020
0030
0001
,
0010
0100
0110
0100
,
0010
1000
0100
0000
0000
0000
0100
0000
,
1001
0000
0001
0000
0100
0000
0100
0010
,
0001
0100
0010
0100
,
0001
0000
0010
0000
0100
0000
1000
1000
,
0100
0100
0010
0000
0001
0000
1000
0000
,
0010
0010
0001
0000
1000
0000
0010
0010
,
0100
0100
0001
0000
0001
1000
0010
0000
,
0010
0000
1000
0100
0001
0000
1000
0100
,
0010
0010
0100
0100
,
0100
1000
0010
0000
,
0110
0000
0000
0000
0100
0010
0000
0010
,
0100
1000
0000
0000
0001
1000
0001
0000
,
0100
0010
0000
0000
0010
0001
0000
0000
,
1000
0100
0000
0000
0001
0010
0100
0000
,
0100
0000
0100
0010
0100
0000
0000
0000
,
1000
0100
0000
0000
0001
0010
0000
0100
,
0010
0100
0010
1000
,
0100
0000
0010
0000
0001
0010
0100
0000
,
0000
0000
0000
0000
0110
0000
0000
0000
0000
0000
0000
0000
0010
0000
0000
0010
,
0000
0010
0000
0000
0010
0000
0010
0000
,
0010
0100
1000
0000
0010
0010
0010
0000
,
2002
0000
0000
3003
0010
0000
0100
0000
,
0010
0000
0000
0000
0200
0000
0000
0000
0000
0000
0000
0300
0000
0000
0010
0000
,
0001
0000
0010
0000
0200
0000
0000
0000
0000
0000
0000
0300
0000
0000
0000
0000
,
0010
0000
1000
0010
0001
2000
3000
0200
,
0300
0020
0030
0002
0003
0020
0030
0200
,
0300
0000
0000
0000
0110
0000
0000
0000
1000
0000
0000
0000
0010
0000
0000
0010
,
0000
0000
0010
0000
0000
0000
0100
0000
0010
0000
0010
0000
0100
0000
0000
0001
,
0000
0000
0010
0000
0000
0000
0100
0000
0000
0000
0000
1000
0100
0000
0000
0010
,
0000
0001
0100
0010
1000
0100
0010
0001
,
0010
0010
1000
0100
0010
0001
0010
0000
,
1001
0000
0010
0100
0010
0001
0010
0000
,
1001
0000
0020
0030
0200
0300
0001
0010
,
0001
0020
0000
0030
0100
2000
0000
3100
,
0001
0010
0010
0000
,
0100
0010
0000
0000
0010
0100
0000
0000
,
0100
0010
0000
0000
0010
0100
0000
0000
,
0010
0100
0000
0000
0000
0000
0100
0010
,
0001
0000
0200
0000
0000
0300
0000
0000
,
0010
0100
0000
0000
1000
0010
0000
0010
,
0100
0010
0100
0010
,
0100
0220
0000
0330
,
0100
0000
0000
0000
1000
0000
0000
0000
0001
0000
0010
0000
0100
0000
0000
0100
,
0000
0100
0000
0000
0010
0000
1000
0100
,
0000
0010
0000
0001
0000
0000
0000
0100
,
0000
0100
0000
0000
0100
0000
0000
0000
0100
0000
0000
0000
0001
0000
0010
0000
,
0100
0000
0000
0000
0020
0000
0000
0000
0000
0000
0000
0030
0000
0000
0000
0000
,
0001
0000
0010
0000
0100
0000
0000
0000
0000
1000
0000
0000
0000
0000
0000
0000
,
0100
0010
0200
0000
0300
0010
0000
0100
,
0000
0010
0000
0100
0000
0010
1000
0100
,
0010
0001
0010
0000
0200
0000
0000
0000
0000
0000
0000
0000
0300
0000
0000
0000
;

//---------------dance-single - ----------------
#NOTES:
     dance-single:
     :
     Easy:
     4:
     0.182358,0.251033,0.073175,0.130090,0.020327,157.000000,148.000000,9.000000,16.000000,0.000000,0.000000,0.182358,0.251033,0.073175,0.130090,0.020327,157.000000,148.000000,9.000000,16.000000,0.000000,0.000000:
0000
0000
0000
0000
,
0000
0000
2000
0000
0000
3000
0000
0000
,
0000
0000
0002
0000
0000
0000
0000
0003
,
0000
0000
2000
0000
0000
0000
0000
3000
,
0100
0010
0001
1000
,
0010
0100
0100
0000
,
0010
0000
1000
0000
,
1000
0000
0100
0000
,
1000
0000
0000
0020
0000
0000
0000
0000
0030
0000
0000
0000
1000
0000
0000
0000
,
0000
0020
0030
0001
,
0010
0000
0110
0000
,
0010
0100
0000
0000
,
1001
0000
0100
0100
,
0001
0100
0010
0100
,
0001
0010
0100
1000
,
0100
0010
0001
1000
,
0010
0001
1000
0010
,
0100
0001
0001
0010
,
0010
1000
0001
1000
,
0010
0010
0000
0100
,
0000
1000
0000
0000
,
0110
0000
0100
0000
,
0100
0000
0001
0001
,
0100
0000
0010
0000
,
1000
0000
0001
0100
,
0100
0100
0100
0000
,
1000
0000
0001
0000
,
0010
0100
0010
1000
,
0100
0010
0001
0100
,
0000
0110
0000
0200
,
0000
0300
0000
0000
0010
0000
0000
0000
,
0010
1000
0010
0000
,
2002
0000
0000
3003
0000
0000
0100
0000
,
0000
0000
0000
0000
0200
0000
0000
0000
0000
0000
0000
0300
0000
0000
0000
0000
,
0001
0000
0000
0000
0200
0000
0000
0000
0000
0000
0000
0300
0000
0000
0000
0000
,
0010
0000
0000
0000
0000
2000
3000
0000
,
0000
0020
0030
0000
0000
0000
0000
0000
,
0000
0000
0000
0000
0110
0000
0000
0000
0000
0000
0000
0000
0010
0000
0000
0010
,
0000
0000
0010
0000
0000
0000
0100
0000
0010
0000
0000
0000
0100
0000
0000
0001
,
0000
0010
0000
0000
0000
0000
0100
0000
,
0000
0100
1000
0010
,
0010
1000
0010
0000
,
1001
0000
0010
0000
,
1001
0000
0020
0030
0200
0300
0001
0000
,
0001
0000
0100
0000
,
0000
0010
0010
0000
,
0100
0000
0010
0000
,
0100
0000
0010
0000
,
0010
0000
0000
0100
,
0000
0100
0000
0000
,
0010
0000
1000
0000
,
0100
0000
0000
0010
,
0000
0110
0000
0000
,
0100
0000
0000
0000
0000
0000
0000
0000
0000
0000
0000
0000
0100
0000
0000
0100
,
0000
0100
0000
0000
0010
0000
1000
0000
,
0000
0000
0000
0000
0000
0000
0000
0100
,
0000
0100
0000
0000
0100
0000
0000
0000
0000
0000
0000
0000
0001
0000
0000
0000
,
0000
0010
0000
0000
,
0001
0100
0000
0000
,
0100
0000
0200
0000
0300
0000
0000
0100
,
0000
0000
0000
0100
0000
0000
0000
0100
,
0000
0200
0000
0300
;

//---------------dance-single - ----------------
#NOTES:
     dance-single:
     :
     Beginner:
     2:
     0.125444,0.149400,0.073175,0.016261,0.000000,108.000000,99.000000,9.000000,2.000000,0.000000,0.000000,0.125444,0.149400,0.073175,0.016261,0.000000,108.000000,99.000000,9.000000,2.000000,0.000000,0.000000:
// measure 0
0000
0000
0000
0000
,  // measure 1
0000
1000
0000
0000
,  // measure 2
0000
0001
0000
0000
,  // measure 3
0000
1000
0000
0000
,  // measure 4
0100
0000
0000
1000
,  // measure 5
0000
0000
0100
0000
,  // measure 6
0010
0000
1000
0000
,  // measure 7
1000
0000
0100
0000
,  // measure 8
1000
0000
0000
1000
,  // measure 9
0000
0000
0000
0001
,  // measure 10
0000
0000
0110
0000
,  // measure 11
0000
0100
0000
0000
,  // measure 12
1001
0000
0000
0100
,  // measure 13
0000
0100
0000
0100
,  // measure 14
0000
0010
0000
0000
,  // measure 15
0100
0000
0001
0000
,  // measure 16
0000
0001
0000
0010
,  // measure 17
0000
0000
0001
0000
,  // measure 18
0000
1000
0000
1000
,  // measure 19
0000
0010
0000
0100
,  // measure 20
0000
1000
0000
0000
,  // measure 21
0110
0000
0100
0000
,  // measure 22
0100
0000
0001
0000
,  // measure 23
0100
0000
0000
0000
,  // measure 24
1000
0000
0001
0000
,  // measure 25
0100
0000
0100
0000
,  // measure 26
1000
0000
0000
0000
,  // measure 27
0010
0000
0010
0000
,  // measure 28
0100
0000
0000
0100
,  // measure 29
0000
0110
0000
0200
,  // measure 30
0000
0300
0000
0000
0010
0000
0000
0000
,  // measure 31
0010
0000
0010
0000
,  // measure 32
1001
0000
0000
0100
,  // measure 33
0000
0100
0000
0000
,  // measure 34
0001
0100
0000
0000
,  // measure 35
0010
0000
0000
0000
0000
1000
0000
0000
,  // measure 36
0000
0010
0000
0000
0000
0000
0000
0000
,  // measure 37
0000
0110
0000
0010
,  // measure 38
0000
0010
0000
0000
0010
0000
0000
0000
,  // measure 39
0000
0010
0000
0000
0000
0000
0100
0000
,  // measure 40
0000
0100
0000
0010
,  // measure 41
0000
1000
0000
0000
,  // measure 42
1001
0000
0000
0000
,  // measure 43
1001
0000
0100
0000
,  // measure 44
0001
0000
0100
0000
,  // measure 45
0000
0010
0000
0000
,  // measure 46
0100
0000
0010
0000
,  // measure 47
0100
0000
0010
0000
,  // measure 48
0010
0000
0000
0100
,  // measure 49
0000
0100
0000
0000
,  // measure 50
0010
0000
1000
0000
,  // measure 51
0100
0000
0000
0010
,  // measure 52
0000
0110
0000
0000
,  // measure 53
0100
0000
0000
0100
,  // measure 54
0000
0100
0000
0000
0000
0000
1000
0000
,  // measure 55
0000
0000
0000
0000
0000
0000
0000
0100
,  // measure 56
0000
0100
0000
0001
,  // measure 57
0000
0010
0000
0000
,  // measure 58
0001
0100
0000
0000
,  // measure 59
0100
0200
0300
0000
,  // measure 60
0010
0000
0010
0000
,  // measure 61
0000
0100
0000
0000
;
