#TITLE:SCOUT!;
#SUBTITLE:;
#ARTIST:TYSM!;
#TITLETRANSLIT:;
#SUBTITLETRANSLIT:;
#ARTISTTRANSLIT:;
#GENRE:;
#CREDIT:SoulEdge5000;
#BANNER:banner.png;
#BACKGROUND:background.png;
#LYRICSPATH:;
#CDTITLE:;
#MUSIC:SCOUT!.ogg;
#OFFSET:-0.226000;
#SAMPLESTART:31.153835;
#SAMPLELENGTH:12.000000;
#SELECTABLE:YES;
#BPMS:0.000000=194.000000
,36.000000=97.000000
,44.000000=194.000000
,92.000000=97.000000
,108.000000=194.000000
,132.000000=97.000000
,136.000000=194.000000
,168.000000=97.000000
,176.000000=194.000000
,224.000000=97.000000
,240.000000=194.000000
,304.000000=97.000000
;
#STOPS:
;
#BGCHANGES:;
#KEYSOUNDS:;
#ATTACKS:;

//---------------dance-single - ----------------
#NOTES:
     dance-single:
     :
     Hard:
     15:
     0.743160,0.951821,0.324584,0.456172,0.302653,593.000000,556.000000,37.000000,52.000000,0.000000,0.000000,0.743160,0.951821,0.324584,0.456172,0.302653,593.000000,556.000000,37.000000,52.000000,0.000000,0.000000:
2002
3003
0220
0330
0022
0033
2200
3300
,
1000
1000
1000
1000
0001
0001
0001
0001
,
1000
1000
1000
1000
0100
0100
0100
0100
,
0010
0010
0010
0010
0001
0001
0001
0001
,
0010
0010
0010
0010
2002
3003
0220
0330
,
0100
1000
0100
1000
0010
0001
0010
0001
,
0100
1000
0100
1000
0010
0100
0010
0100
,
0001
0010
0001
0010
0100
1000
0100
1000
,
0010
0001
0010
0001
0010
0100
1000
0100
,
0010
0000
0010
0010
0010
0000
0010
0100
0010
0100
0010
0100
0000
1000
0001
1000
,
0010
0000
0100
0010
0100
0000
0010
0100
0010
0100
0010
0100
0000
0010
0000
0000
,
2002
3003
0220
0330
0010
0001
0010
0000
,
0010
0100
0010
0100
0010
0100
0010
0100
,
0001
0001
0010
0010
,
0100
0000
0000
0000
0100
0000
0000
0000
1000
0100
1000
0000
0001
0010
0001
0000
,
0010
0010
0001
0001
0010
0010
0100
0100
,
1000
0100
0010
0000
0010
0100
1000
0000
,
0010
0000
0100
0000
1000
0100
0010
0001
,
0001
0000
0010
0000
0100
0000
1000
0000
0100
0010
0100
0010
0100
0000
0000
0000
,
0110
0000
0110
0000
1000
0100
1000
0100
,
0001
0010
0001
0010
1000
0000
1000
0000
,
0001
0010
0100
0000
0001
0010
0100
0000
,
1000
0000
0100
0000
0010
0000
0100
0000
1000
0100
1000
0100
1000
0100
1000
0000
,
2002
0000
3003
0000
0010
0100
0010
0100
0000
0010
0100
0000
0001
0010
0100
0000
,
2002
0000
3003
0000
0010
0100
0010
0100
0000
0010
0100
0000
0000
0000
0010
0000
,
0010
0100
0000
0000
0100
1000
0100
0000
0010
0001
0010
0000
0100
1000
0100
0000
,
0011
0000
0110
0000
1100
0000
0110
0000
0001
0010
0100
1000
0100
0010
0001
0010
,
0100
0100
0010
0010
0100
0100
1000
1000
,
0100
0100
0010
0010
0001
0001
0010
0010
,
0001
0001
0010
0010
0100
0100
1000
0100
,
0010
0001
0100
0000
0010
0000
0100
0000
,
0010
0100
0010
0000
2002
0000
0000
3003
,
0010
0100
0010
0100
0010
0000
0110
0000
,
2000
0000
3200
0000
0320
0000
0032
0000
1003
1000
1100
0100
0100
0110
0010
0010
,
0010
0010
0100
0100
0010
0010
0100
0100
,
0010
0010
0100
0100
0100
0010
0001
0010
,
0000
0100
0000
1000
0000
0000
0100
0000
,
0010
0000
0000
0000
0010
0000
0000
0000
0010
0100
0010
0100
0010
0000
0000
0000
,
0100
1000
0100
0000
0001
0010
0001
0000
,
0100
1000
0100
0000
0010
0001
0010
0100
,
0000
0100
0000
0100
0000
0010
0000
0000
,
0100
0000
0000
0000
0010
0000
0000
0000
0100
0010
0100
0010
0100
0000
0000
0000
,
1000
0000
0100
0010
0001
0000
0010
0100
0010
0100
1000
0100
0000
0010
0001
0010
,
0100
0000
1000
0000
0100
0000
0010
0001
0010
0000
0100
1000
0100
0000
0010
0000
,
1000
0100
1000
0000
0001
0010
0001
0000
,
1000
0100
1000
0000
0010
0001
0010
0000
,
0100
1000
0100
0000
0010
0001
0010
0000
,
0100
0000
1000
0000
0100
0000
0010
0000
0001
0010
0001
0010
0001
0000
0000
0000
,
1000
0100
1000
0100
1100
0000
0001
0010
,
0001
0010
0001
0010
0011
0000
0110
0000
,
1000
0100
0010
0000
0001
0010
0100
0000
,
1000
0100
1000
0100
0001
0010
0001
0010
,
1100
0000
0011
0000
0010
0100
0010
0000
,
1000
0100
1000
0000
0001
0010
0001
0000
,
2000
3000
0200
0300
0020
0030
0002
0003
,
2000
3000
0200
0300
0010
0001
0010
0100
,
2002
0000
3003
0000
0100
0010
0100
0010
0000
0100
0010
0000
0001
0010
0100
0000
,
2002
0000
3003
0000
0010
0100
0010
0100
0000
0010
0100
0000
0000
0000
1001
0000
,
0220
0000
0330
0000
0001
0010
0100
1000
0000
0100
2020
0000
3030
0000
0202
0000
,
0000
0303
0000
0000
0010
0100
0010
1000
0000
0001
0100
0000
0000
0000
0110
0000
,
0010
0001
0010
0000
0010
0100
0010
0000
,
0010
1000
0010
0000
0010
0001
0010
0000
,
0010
0100
0010
0000
0100
0010
0100
0000
,
0001
0010
0100
0000
1000
0100
0010
0000
,
0010
0001
0010
0000
0001
0010
0001
0000
,
0100
1000
0100
0000
1000
0100
1000
0000
,
0010
0100
0010
0100
,
1000
0000
0001
0000
1000
0000
0001
0000
0100
0000
0010
0000
0100
0010
0100
0010
,
0100
0100
0010
0010
0001
0001
0010
0010
,
0100
0000
0100
0000
1000
0000
1000
0000
0100
0010
0001
0000
0010
0000
0100
0000
,
0000
0000
0020
0000
0230
0000
0300
0020
,
0000
0000
0000
0030
2002
3003
0220
0330
,
1000
1000
0100
0100
0010
0010
0001
0001
,
0010
0000
0010
0000
0100
0000
0100
0000
1000
0100
1000
0100
1000
0000
0000
0000
,
0100
0100
0010
0010
0001
0001
0010
0010
,
0100
0100
0010
0010
1001
0000
0110
0000
,
2002
3003
0100
0010
0001
0010
0100
0010
,
0200
0000
0300
0000
;

//---------------dance-single - ----------------
#NOTES:
     dance-single:
     :
     Medium:
     10:
     0.484996,0.543898,0.017545,0.201769,0.004386,387.000000,385.000000,2.000000,23.000000,0.000000,0.000000,0.484996,0.543898,0.017545,0.201769,0.004386,387.000000,385.000000,2.000000,23.000000,0.000000,0.000000:
2000
3000
0200
0300
0020
0030
2000
3000
,
1000
1000
0001
0001
,
1000
1000
0100
0100
,
0010
0010
0001
0001
,
0010
0010
1001
0110
,
0100
1000
0100
0000
0010
0001
0010
0000
,
0100
1000
0100
0000
0010
0100
0010
0000
,
0001
0010
0001
0000
0100
1000
0100
0000
,
0010
0001
0010
0000
0000
0000
1000
0100
,
0010
0010
0000
0000
0010
0010
0000
0000
,
0010
0100
0100
0000
0010
0010
0000
0000
,
0002
0003
0200
0300
0010
0000
0000
0000
,
0010
0000
0000
0000
0010
0000
0010
0100
,
0001
0001
0010
0010
,
0100
0100
1000
0001
,
0010
0001
0010
0100
,
1000
0100
0010
0000
0010
0100
1000
0000
,
0010
0000
0100
0000
1000
0100
0010
0000
,
0000
0010
0100
1000
0100
0000
0100
0000
,
0010
0000
0010
0000
1000
0100
1000
0000
,
0001
0010
0001
0000
1000
0000
1000
0000
,
0001
0010
0100
0000
0001
0010
0100
0000
,
1000
0100
0010
0100
1000
0000
1000
0000
,
2000
3000
0010
0010
0000
0100
0001
0100
,
2000
3000
0010
0010
0000
0100
0000
0010
,
0010
0000
0100
0100
0010
0010
0100
0100
,
0001
0100
1000
0100
0001
0100
0100
0001
,
0100
0010
0100
1000
,
0100
0010
0001
0010
,
0001
0000
0010
0000
0100
0000
1000
0100
,
0010
0100
0010
0100
,
0010
0100
0010
0000
2000
0000
0000
3000
,
0010
0000
0010
0100
0010
0000
0010
0000
,
2000
3000
0020
0030
1000
1000
0100
0010
,
0010
0010
0100
0000
0010
0000
0100
0000
,
0010
0000
0100
0100
0100
0000
0001
0010
,
0000
0100
0000
1000
0000
0000
0100
0000
,
0010
0000
0010
0000
0010
0010
0010
0000
,
0100
1000
0100
0000
0001
0010
0001
0000
,
0100
1000
0100
0000
0010
0001
0010
0100
,
0000
0100
0000
0100
0000
0010
0000
0000
,
0100
0010
0100
0100
,
1000
0100
0001
0010
0010
1000
0000
0001
,
0100
1000
0100
0010
0010
0100
0100
0010
,
1000
0100
1000
0000
0001
0010
0001
0000
,
1000
0100
1000
0000
0010
0001
0010
0000
,
0100
1000
0100
0000
0010
0001
0010
0000
,
0100
1000
0100
0010
0001
0000
0001
0000
,
1000
0100
1000
0000
1000
0000
0001
0010
,
0001
0000
0001
0010
0001
0000
0100
0000
,
1000
0100
0010
0000
0001
0010
0100
0000
,
1000
0100
1000
0000
0001
0010
0001
0000
,
1000
0000
0010
0000
0010
0100
0010
0000
,
1000
0100
1000
0000
0001
0010
0001
0000
,
1000
0100
0010
0001
,
1000
0000
0100
0000
0010
0001
0010
0100
,
2000
3000
0100
0100
0000
0010
0001
0100
,
0002
0003
0010
0010
0000
0100
0000
1000
,
0200
0300
0001
0100
0000
2000
3000
0002
,
0000
0003
0000
0000
0010
0000
0010
0000
0000
0000
0100
0000
0000
0000
0100
0000
,
0010
0000
0000
0000
0010
0100
0010
0000
,
0000
0010
0000
0010
,
0010
0100
0010
0000
0100
0010
0100
0000
,
0001
0010
0100
0000
1000
0100
0010
0000
,
0010
0000
0010
0000
0001
0010
0001
0000
,
0100
1000
0100
0000
1000
0100
1000
0000
,
0010
0100
0010
0100
,
1000
0001
1000
0000
0100
0000
0100
0000
,
0100
0010
0001
0010
,
0100
0000
0000
0000
1000
0000
0000
0000
0100
0010
0001
0000
0010
0000
0100
0000
,
0000
0000
0020
0000
0230
0000
0300
0020
,
0000
0000
0000
0030
2000
3000
0200
0300
,
1000
0100
0010
0001
,
0010
0100
1000
1000
,
0100
0010
0001
0010
,
0100
0010
1000
0100
,
2000
3000
0100
0000
0001
0000
0100
0010
,
0200
0000
0300
0000
;

//---------------dance-single - ----------------
#NOTES:
     dance-single:
     :
     Easy:
     5:
     0.263176,0.305943,0.008773,0.087725,0.000000,210.000000,209.000000,1.000000,10.000000,0.000000,0.000000,0.263176,0.305943,0.008773,0.087725,0.000000,210.000000,209.000000,1.000000,10.000000,0.000000,0.000000:
1000
0000
0010
0000
,
1000
0000
0001
0000
,
1000
0000
0100
0000
,
0010
0000
0001
0000
,
0010
0000
1001
0000
,
0100
0100
0010
0010
,
0100
0100
0010
0010
,
0001
0001
0100
0100
,
0010
0010
0000
1000
,
0010
0000
0010
0000
,
0010
0100
0010
0000
,
0001
0100
0010
0000
,
0010
0000
0010
0000
,
0001
0000
0010
0000
,
0100
0000
1000
0000
,
0010
0001
0010
0000
,
1000
0010
0010
1000
,
0010
0100
1000
0010
,
0000
0100
0000
0100
,
0000
0010
1000
0000
,
0001
0000
1000
0000
,
0001
0000
0001
0000
,
1000
0000
1000
0000
,
1000
0010
0000
0001
,
2000
3000
0010
0000
0000
0000
0000
0000
,
0010
0100
0010
0100
,
0001
1000
0001
0100
,
0100
0000
0100
0000
,
0100
0000
0001
0000
,
0001
0000
0000
1000
,
0010
0000
0010
0100
,
0010
0010
1000
0000
,
0000
0010
0010
0000
,
1000
0010
1000
0100
,
0010
0100
0010
0100
,
0010
0000
0100
0000
0100
0000
0001
0010
,
0000
0100
0000
1000
0000
0000
0100
0000
,
0010
0000
0010
0010
,
0100
0000
0001
0000
,
0100
0000
0000
0000
0010
0000
0000
0100
,
0000
0100
0000
0100
0000
0010
0000
0000
,
0100
0010
0100
0100
,
1000
0001
0010
0000
,
0100
0100
0010
0100
,
1000
0000
0001
0000
,
0000
1000
0000
0010
,
0000
0100
0010
0000
,
0100
0000
0000
0010
0000
0000
0001
0000
,
0000
0100
0000
0000
1000
0000
0000
0000
,
0001
0000
0001
0000
,
1000
0010
0001
0100
,
1000
0000
0001
0000
,
1000
0010
0000
0010
,
1000
0000
0001
0000
,
1000
0000
0000
0001
,
1000
0000
0010
0010
,
2000
3000
0100
0000
0000
0000
0001
0000
,
0002
0003
0010
0000
0000
0000
0000
0000
,
0200
0300
0001
0000
0000
0000
0000
0002
,
0000
0003
0000
0000
0010
0000
0000
0000
0000
0000
0000
0000
0000
0000
0000
0000
,
0010
0000
0010
0000
,
0000
0010
0000
0010
,
0000
0010
0000
0100
,
0000
0100
0000
0010
,
0000
0010
0001
0001
,
0100
0100
1000
1000
,
0010
0100
0010
0100
,
1000
1000
0000
0100
,
0000
0010
0001
0000
,
0000
0000
1000
0000
0100
0001
0010
0100
,
0000
0000
0020
0000
0230
0000
0300
0020
,
0000
0000
0000
0030
2000
3000
0000
0000
,
1000
0100
0000
0001
,
0010
0000
1000
0000
,
0100
0000
0001
0000
,
0100
0010
1000
0000
,
1000
0000
0001
0000
,
0200
0000
0300
0000
;

//---------------dance-single - ----------------
#NOTES:
     dance-single:
     :
     Beginner:
     3:
     0.165425,0.168872,0.008773,0.000000,0.000000,132.000000,131.000000,1.000000,0.000000,0.000000,0.000000,0.165425,0.168872,0.008773,0.000000,0.000000,132.000000,131.000000,1.000000,0.000000,0.000000,0.000000:
// measure 0
1000
0000
0000
0000
,  // measure 1
1000
0000
0000
0000
,  // measure 2
1000
0000
0000
0000
,  // measure 3
0010
0000
0000
0000
,  // measure 4
0010
0000
1001
0000
,  // measure 5
0100
0000
0000
0010
,  // measure 6
0000
0100
0000
0010
,  // measure 7
0000
0001
0000
0100
,  // measure 8
0000
0010
0000
0000
,  // measure 9
0010
0000
0010
0000
,  // measure 10
0010
0000
0010
0000
,  // measure 11
0001
0000
0000
0000
,  // measure 12
0010
0000
0000
0000
,  // measure 13
0001
0000
0000
0000
,  // measure 14
0100
0000
1000
0000
,  // measure 15
0010
0000
0010
0000
,  // measure 16
1000
0000
0010
0000
,  // measure 17
0010
0000
1000
0000
,  // measure 18
0000
0100
0000
0100
,  // measure 19
0000
0010
0000
0000
,  // measure 20
0001
0000
1000
0000
,  // measure 21
0001
0000
0001
0000
,  // measure 22
1000
0000
0000
0000
,  // measure 23
1000
0000
0000
0000
,  // measure 24
1000
0000
0000
0000
,  // measure 25
0010
0000
0010
0000
,  // measure 26
0001
0000
0001
0000
,  // measure 27
0100
0000
0100
0000
,  // measure 28
0100
0000
0001
0000
,  // measure 29
0001
0000
0000
0000
,  // measure 30
0010
0000
0000
0100
,  // measure 31
0000
0010
0000
0000
,  // measure 32
0000
0010
0000
0000
,  // measure 33
1000
0000
1000
0000
,  // measure 34
0010
0000
0010
0000
,  // measure 35
0010
0000
0100
0001
,  // measure 36
0000
0000
0000
1000
0000
0000
0000
0000
,  // measure 37
0010
0000
0010
0000
,  // measure 38
0100
0000
0001
0000
,  // measure 39
0100
0000
0010
0000
,  // measure 40
0000
0100
0000
0000
0000
0010
0000
0000
,  // measure 41
0100
0000
0000
0000
,  // measure 42
1000
0000
0010
0000
,  // measure 43
0100
0000
0010
0000
,  // measure 44
1000
0000
0001
0000
,  // measure 45
0000
1000
0000
0010
,  // measure 46
0000
0100
0000
0000
,  // measure 47
0100
0000
0000
0001
,  // measure 48
0000
0000
1000
0000
,  // measure 49
0001
0000
0001
0000
,  // measure 50
1000
0000
0001
0100
,  // measure 51
0000
0000
0001
0000
,  // measure 52
1000
0000
0000
0000
,  // measure 53
1000
0000
0001
0000
,  // measure 54
1000
0000
0000
0001
,  // measure 55
1000
0000
0010
0000
,  // measure 56
0000
0100
0000
0001
,  // measure 57
0000
0010
0000
0000
,  // measure 58
0000
0001
0000
0000
,  // measure 59
0000
0010
0000
0000
,  // measure 60
0010
0000
0010
0000
,  // measure 61
0000
0010
0000
0010
,  // measure 62
0000
0010
0000
0100
,  // measure 63
0000
0100
0000
0010
,  // measure 64
0000
0010
0001
0000
,  // measure 65
0100
0000
1000
0000
,  // measure 66
0010
0000
0010
0000
,  // measure 67
1000
0000
0000
0100
,  // measure 68
0000
0010
0000
0000
,  // measure 69
0000
1000
0100
0010
,  // measure 70
0000
0010
0100
0000
,  // measure 71
0000
0000
1000
0000
,  // measure 72
1000
0000
0000
0000
,  // measure 73
0010
0000
1000
0000
,  // measure 74
0100
0000
0001
0000
,  // measure 75
0100
0000
1000
0000
,  // measure 76
1000
0000
0001
0000
,  // measure 77
0100
0000
0000
0000
;
