#TITLE:PON MI (SWALLA REMIX);
#SUBTITLE:;
#ARTIST:Shenseea Remixed by Ranvision;
#TITLETRANSLIT:;
#SUBTITLETRANSLIT:;
#ARTISTTRANSLIT:;
#GENRE:;
#CREDIT:SoulEdge5000;
#BANNER:banner.png;
#BACKGROUND:background.png;
#LYRICSPATH:;
#CDTITLE:;
#MUSIC:Pon Mi (SWALLA REMIX).ogg;
#OFFSET:-0.047000;
#SAMPLESTART:30.659246;
#SAMPLELENGTH:12.000000;
#SELECTABLE:YES;
#BPMS:0.000000=196.000000
;
#STOPS:
;
#BGCHANGES:;
#KEYSOUNDS:;
#ATTACKS:;

//---------------dance-single - ----------------
#NOTES:
     dance-single:
     :
     Hard:
     15:
     0.748072,1.171481,0.635861,0.209460,0.130913,700.000000,615.000000,85.000000,28.000000,0.000000,0.000000,0.748072,1.171481,0.635861,0.209460,0.130913,700.000000,615.000000,85.000000,28.000000,0.000000,0.000000:
// measure 0
0000
0000
0000
0000
,  // measure 1
1002
0000
0000
1000
1000
0000
1003
0000
,  // measure 2
2001
0000
0000
0001
0001
0000
3001
0000
,  // measure 3
1002
0000
0000
1000
1000
0000
1003
0000
,  // measure 4
0000
0000
1000
1000
1000
0000
0010
0010
,  // measure 5
0010
0000
0100
0100
0110
0000
0000
0000
,  // measure 6
0000
0000
0100
0010
0100
0000
1000
0001
,  // measure 7
1000
0000
0010
0100
0010
0000
0110
0000
,  // measure 8
0000
1000
0000
0010
0100
0000
0010
0000
,  // measure 9
0100
0000
0010
0100
0010
0000
0000
0000
,  // measure 10
1100
0011
1100
0011
,  // measure 11
0010
0100
1000
0100
0010
0001
0110
0000
,  // measure 12
1000
0100
1000
0000
0001
0000
0010
0000
0001
0000
0010
0000
0001
0000
0000
0000
,  // measure 13
0010
0000
0100
0000
0010
0000
0100
0000
1000
0100
1000
0000
0100
0000
0000
0000
,  // measure 14
0100
0000
0000
0100
0100
0000
0110
0000
,  // measure 15
0001
0010
0000
0001
0010
0000
0110
0000
,  // measure 16
1000
0100
0010
0000
0001
0010
0100
0000
,  // measure 17
1000
0100
0010
0100
0010
0000
0010
0100
,  // measure 18
0000
0100
0000
0010
0001
0010
0100
1000
,  // measure 19
0100
0000
0010
0000
0100
0000
0010
0000
0100
0010
0100
0010
0100
0000
0000
0000
,  // measure 20
0220
0000
0000
0330
,  // measure 21
1000
0100
1000
0000
0001
0010
0001
0000
,  // measure 22
1000
0100
0010
0000
0001
0010
0100
0000
,  // measure 23
1000
0100
1000
0100
1000
0000
0000
0000
,  // measure 24
0220
0000
0000
0330
,  // measure 25
0010
0001
0010
0000
0100
1000
0100
0000
,  // measure 26
0110
0110
1001
1001
,  // measure 27
0001
0000
0010
0000
0100
0000
1000
0000
0100
0000
0010
0000
0001
0010
0001
0010
,  // measure 28
0001
0000
0100
0010
0100
0000
0010
0100
,  // measure 29
0000
0100
0010
0100
0010
0001
0010
0000
,  // measure 30
0100
1000
0100
0000
0010
0001
0010
0000
,  // measure 31
0100
1000
0100
0001
0100
1000
0100
0001
,  // measure 32
0100
1000
0100
0000
0010
0001
0010
0000
,  // measure 33
0100
1000
0100
0000
0010
0001
0010
0100
,  // measure 34
1100
0110
0011
0110
,  // measure 35
1000
0000
0100
0000
1000
0000
0100
0000
0001
0000
0010
0000
0001
0010
0001
0010
,  // measure 36
0001
0000
0010
0100
0010
0000
0020
0030
,  // measure 37
0100
0010
0100
0000
0220
0000
0000
0330
,  // measure 38
0000
0000
1000
0100
0010
0000
1001
0000
,  // measure 39
0001
0010
0100
0000
2002
0000
0000
3003
,  // measure 40
0000
0000
0010
0100
0010
0000
0200
0300
,  // measure 41
0001
1000
0001
0000
0220
0000
0000
0330
,  // measure 42
1000
0000
0100
0001
0010
0000
0100
0000
,  // measure 43
0010
1000
0010
0000
0200
0000
0310
0000
,  // measure 44
0100
0000
0001
0010
0001
0010
0100
1000
,  // measure 45
0100
1000
0100
0000
0010
0001
0010
0000
,  // measure 46
0100
0000
0010
0100
0010
0000
0100
0010
,  // measure 47
0100
0000
0010
0100
0010
0000
1001
0000
,  // measure 48
0110
0000
0001
0010
0100
0000
1000
0100
,  // measure 49
0010
0000
0001
0010
0100
0000
0110
0000
,  // measure 50
1100
0110
0011
0110
,  // measure 51
0100
0000
1000
0000
0100
0000
0010
0000
0001
0010
0001
0000
0010
0100
0010
0000
,  // measure 52
1000
0000
0100
0010
0100
0000
0110
0000
,  // measure 53
0001
0010
0000
0010
0000
0100
0000
0000
,  // measure 54
1000
0100
1000
0000
0001
0010
0001
0000
,  // measure 55
1000
0100
0010
0000
0001
0010
0100
0000
,  // measure 56
0010
0001
0010
0001
,  // measure 57
0100
1000
0100
1000
,  // measure 58
0110
0011
0110
1100
,  // measure 59
0001
0000
0010
0000
0100
0000
1000
0000
0100
0000
0010
0000
0001
0010
0100
0010
,  // measure 60
2002
0000
0000
3003
,  // measure 61
0100
0010
0100
0000
0010
0100
0010
0000
,  // measure 62
1000
0001
1000
0000
0001
1000
0001
0000
,  // measure 63
0001
0010
0100
1000
0000
0100
0010
0000
,  // measure 64
0220
0000
0000
0000
0000
0330
1000
0100
,  // measure 65
1000
0000
0001
0010
0001
0000
0110
0000
,  // measure 66
1100
1100
0011
0011
,  // measure 67
0001
0000
0010
0000
0100
0000
1000
0000
0100
0000
0010
0000
0001
0010
0100
1000
,  // measure 68
0100
0000
0010
0100
0010
0000
0100
0010
,  // measure 69
0000
0000
0100
0010
1000
0001
0010
0000
,  // measure 70
1000
0100
0010
0000
0010
0100
1000
0000
,  // measure 71
0100
0010
0001
0000
0001
0010
0100
0000
,  // measure 72
0110
0000
0100
0010
0100
0000
1001
0000
,  // measure 73
0001
1000
0001
0000
0100
0100
0100
0000
,  // measure 74
0220
0000
0000
0330
0000
2002
0000
0000
,  // measure 75
3003
0220
0000
0000
0330
2002
0000
3003
,  // measure 76
0100
0000
0010
0100
0010
0000
1000
0001
,  // measure 77
0000
0000
0010
0100
0010
0100
1000
0000
,  // measure 78
0010
0001
0010
0000
0100
1000
0100
0000
,  // measure 79
0010
0001
0010
0100
1000
0100
0010
0000
,  // measure 80
0001
0010
0100
0000
1000
0100
0010
0000
,  // measure 81
0001
0010
0001
0000
0100
1000
0100
0000
,  // measure 82
0110
1001
1100
0101
,  // measure 83
0001
0000
0010
0000
0100
0000
1000
0000
0100
0010
0001
0010
0100
0000
0000
0000
,  // measure 84
1100
0000
0001
0010
0001
0000
0010
0100
,  // measure 85
0000
0000
0010
0100
0010
0000
1000
0010
,  // measure 86
1000
0000
0001
0010
0100
1000
0100
0010
,  // measure 87
0001
0010
0001
0010
0100
0000
0110
0000
,  // measure 88
1000
0100
1000
0000
0001
0010
0001
0000
,  // measure 89
0010
0100
0010
0000
1000
0100
1000
0000
,  // measure 90
0110
1001
0110
1001
,  // measure 91
0110
1100
0110
0011
0110
1100
0110
0011
,  // measure 92
0100
0010
0100
0000
0001
1000
0001
0000
0010
0100
0010
0000
0110
0000
0000
0000
,  // measure 93
0010
0100
0010
0000
0100
0010
0100
0000
0010
0100
0010
0000
0110
0000
0000
0000
,  // measure 94
0010
0001
0010
0000
0100
1000
0100
0000
0010
0001
0010
0000
0100
0010
0100
0000
,  // measure 95
0010
1000
0100
0000
0010
0001
0000
0100
0000
0000
0000
0000
1001
0000
0000
0000
,  // measure 96
0100
0010
0100
0000
0001
0010
0001
0000
0100
1000
0100
0000
0010
0001
0010
0000
,  // measure 97
1000
0100
1001
0000
1001
0000
0010
0100
,  // measure 98
0010
0000
1000
0100
0010
0000
0001
0000
,  // measure 99
0100
1000
0001
0000
0110
0000
0000
0000
,  // measure 100
0100
0000
0010
0000
0100
0000
0010
0000
1000
0001
1000
0000
0110
0000
0000
0000
,  // measure 101
0010
0100
0010
0000
1001
0000
0110
0000
,  // measure 102
0001
0010
0100
0000
1001
0000
0110
0000
,  // measure 103
0001
0010
0001
0000
1100
0000
0000
0000
0011
0000
0000
0000
0001
0000
0010
0000
,  // measure 104
0100
0000
1000
0100
0010
0000
0001
0010
,  // measure 105
0100
1001
0110
0000
,  // measure 106
1000
1000
0100
0100
0010
0010
0001
0001
,  // measure 107
0010
0100
1000
0100
0010
0001
0010
0100
,  // measure 108
1001
0000
0000
0000
;

//---------------dance-single - ----------------
#NOTES:
     dance-single:
     :
     Medium:
     11:
     0.523650,0.686730,0.089769,0.097249,0.000000,490.000000,478.000000,12.000000,13.000000,0.000000,0.000000,0.523650,0.686730,0.089769,0.097249,0.000000,490.000000,478.000000,12.000000,13.000000,0.000000,0.000000:
0000
0000
0000
0000
,
1000
0000
0000
1000
1000
0000
1000
0000
,
0001
0000
0000
0001
0001
0000
0001
0000
,
1000
0000
0000
1000
1000
0000
1000
0000
,
0000
0000
1000
1000
1000
0000
0010
0010
,
0010
0000
0100
0100
0100
0000
0000
0000
,
0000
0000
0100
0010
0100
0000
1000
0001
,
1000
0000
0010
0100
0010
0000
0100
0000
,
0000
1000
0000
0010
0100
0000
0010
0000
,
0100
0000
0010
0100
0010
0000
0000
0000
,
1000
0010
1000
0010
,
0010
0100
1000
0000
0010
0001
0010
0000
,
1000
0000
0001
0010
0001
0000
0001
0000
,
0010
0000
0010
0000
1000
1000
0100
0000
,
0100
0000
0000
0100
0100
0000
0100
0000
,
0001
0010
0000
0001
0010
0000
0100
0000
,
1000
0000
0010
0000
0001
0010
0100
0000
,
1000
0000
0010
0000
0010
0000
0010
0100
,
0000
0100
0000
0010
0001
0000
0100
1000
,
0000
0010
0100
0000
0100
0100
0100
0000
,
0200
0000
0000
0300
,
1000
0100
1000
0000
0001
0010
0001
0000
,
1000
0100
0010
0000
0001
0010
0100
0000
,
1000
0100
1000
0000
1000
0000
0000
0000
,
0020
0000
0000
0030
,
0010
0001
0010
0000
0100
1000
0100
0000
,
0100
0010
1000
1000
,
0001
0000
0100
0000
0100
0010
0001
0000
,
0001
0000
0100
0000
0100
0000
0010
0100
,
0000
0000
0010
0100
0010
0000
0010
0000
,
0100
0000
0100
0000
0010
0001
0010
0000
,
0100
1000
0100
0000
0000
0000
0100
0001
,
0100
0000
0010
0010
,
0100
1000
0100
0000
0010
0001
0010
0000
,
1000
0100
0010
0010
,
1000
0000
1000
0000
0001
0000
0001
0001
,
0001
0000
0010
0100
0010
0000
0020
0030
,
0100
0010
0100
0000
0200
0000
0000
0300
,
0000
0000
1000
0100
0010
0000
1000
0000
,
0001
0010
0100
0000
2000
0000
0000
3000
,
0000
0000
0010
0100
0010
0000
0000
0000
,
0001
1000
0001
0000
0200
0000
0000
0300
,
1000
0100
0010
0100
,
0010
1000
0010
0000
0200
0000
0300
0000
,
0100
0001
0001
0100
,
0100
1000
0100
0000
0010
0000
0010
0000
,
0100
0000
0010
0000
0010
0000
0100
0010
,
0100
0010
0010
1000
,
0100
0001
0100
1000
,
0010
0000
0001
0010
0100
0000
0100
0000
,
1000
0010
0010
0100
,
0100
0000
0100
0000
0001
0001
0010
0010
,
1000
0000
0100
0010
0100
0000
0100
0000
,
0001
0010
0000
0010
0000
0100
0000
0000
,
1000
0000
1000
0000
0001
0010
0001
0000
,
1000
0000
0010
0000
0001
0010
0100
0000
,
0010
0000
0010
0001
,
0100
1000
0100
1000
,
0100
0010
0100
0100
,
0001
0000
0100
0000
0100
0000
0001
0100
,
0002
0000
0000
0003
,
0100
0100
0010
0010
,
1000
0001
1000
0000
0001
0000
0001
0000
,
0001
0000
0100
1000
0000
0100
0010
0000
,
0020
0000
0000
0000
0000
0030
1000
0000
,
1000
0001
0001
0100
,
1000
1000
0001
0001
,
0001
0000
0100
0000
0100
0000
0001
0100
,
0100
0000
0010
0000
0010
0000
0100
0010
,
0000
0000
0100
0010
1000
0000
0010
0000
,
1000
0010
0010
1000
,
0100
0000
0001
0000
0001
0010
0100
0000
,
0010
0100
0100
1001
,
0001
1000
0001
0000
0100
0000
0100
0000
,
0200
0000
0000
0300
0000
2000
0000
0000
,
3000
0200
0000
0000
0300
0002
0000
0003
,
0100
0000
0010
0100
0010
0000
1000
0001
,
0000
0000
0010
0100
0010
0000
1000
0000
,
0010
0010
0100
0100
,
0010
0001
0010
0000
1000
0000
0010
0000
,
0001
0100
1000
0010
,
0001
0010
0001
0000
0100
1000
0100
0000
,
0000
1001
0000
0101
,
0000
0100
0100
0000
,
1000
0000
0001
0000
0001
0000
0010
0100
,
0000
0010
0010
1000
,
1000
0001
0100
0100
,
0001
0010
0001
0000
0100
0000
0110
0000
,
1000
1000
0001
0001
,
0010
0000
0010
0000
1000
0100
1000
0000
,
0100
1000
0100
1000
,
0010
1000
0010
0001
0100
1000
0100
0010
,
0100
0100
0001
0001
0010
0010
0110
0000
,
0010
0010
0100
0100
0010
0000
0110
0000
,
0010
0010
0100
0100
0010
0010
0100
0100
,
0010
0100
0010
0000
0000
0000
1001
0000
,
0100
0100
0001
0001
0100
0100
0010
0010
,
1000
0100
0001
0000
1001
0000
0010
0000
,
0010
0000
1000
0100
0010
0000
0001
0000
,
0100
0001
0110
0000
,
0100
0010
0100
0010
1000
1000
0010
0000
,
0010
0100
0010
0000
1001
0000
0110
0000
,
0001
0100
1000
0100
,
0001
0001
1000
0000
0001
0000
0001
0000
,
0100
0000
1000
0000
0010
0000
0001
0010
,
0100
0001
0100
0000
,
1000
0100
0010
0001
,
0010
1000
0010
0010
,
1001
0000
0000
0000
;

//---------------dance-single - ----------------
#NOTES:
     dance-single:
     :
     Easy:
     8:
     0.411440,0.444355,0.089769,0.082288,0.000000,385.000000,373.000000,12.000000,11.000000,0.000000,0.000000,0.411440,0.444355,0.089769,0.082288,0.000000,385.000000,373.000000,12.000000,11.000000,0.000000,0.000000:
0000
0000
0000
0000
,
1000
0000
1000
1000
,
0001
0000
0001
0001
,
1000
0000
1000
1000
,
0000
1000
1000
0010
,
0010
0100
0100
0000
,
0000
0100
0100
1000
,
1000
0010
0010
0100
,
0000
0000
0100
0010
,
0100
0010
0010
0000
,
1000
0010
1000
0010
,
0010
1000
0010
0010
,
1000
0001
0001
0001
,
0010
0010
1000
0100
,
0100
0000
0100
0100
,
0001
0000
0010
0100
,
1000
0010
0001
0100
,
1000
0010
0010
0010
,
0000
0100
0000
0000
0001
0000
0100
0000
,
0000
0100
0000
0100
,
0200
0000
0000
0300
,
1000
1000
0001
0001
,
1000
0010
0001
0100
,
1000
1000
1000
0000
,
0020
0000
0000
0030
,
0010
0010
0100
0100
,
0100
0010
1000
1000
,
0001
0100
0100
0001
,
0001
0100
0100
0010
,
0000
0010
0010
0010
,
0100
0100
0010
0010
,
0100
0100
0000
0100
,
0100
0000
0010
0010
,
0100
0100
0010
0010
,
1000
0100
0010
0010
,
1000
1000
0001
0001
,
0001
0010
0010
0000
,
0100
0100
0100
0000
,
0000
1000
0010
1000
,
0001
0000
0100
0000
2000
0000
0000
3000
,
0000
0010
0010
0000
,
0001
0000
0001
0000
0200
0000
0000
0300
,
1000
0100
0010
0100
,
0010
0010
0200
0300
,
0100
0001
0001
0100
,
0100
0100
0010
0010
,
0100
0010
0010
0100
,
0100
0010
0010
1000
,
0100
0001
0100
1000
,
0010
0001
0100
0100
,
1000
0010
0010
0100
,
0100
0100
0001
0010
,
1000
0100
0100
0100
,
0001
0000
0000
0000
,
1000
1000
0001
0001
,
1000
0010
0001
0100
,
0010
0000
0010
0001
,
0100
1000
0100
1000
,
0100
0010
0100
0100
,
0001
0100
0100
0001
,
0002
0000
0000
0003
,
0100
0100
0010
0010
,
1000
1000
0001
0001
,
0001
0100
0000
0010
,
0020
0000
0000
0000
0000
0030
1000
0000
,
1000
0001
0001
0100
,
1000
1000
0001
0001
,
0001
0100
0100
0001
,
0100
0010
0010
0100
,
0000
0100
1000
0010
,
1000
0010
0010
1000
,
0100
0001
0001
0100
,
0010
0100
0100
1001
,
0001
0001
0100
0100
,
0200
0000
0000
0300
0000
2000
0000
0000
,
3000
0200
0000
0000
0300
0002
0000
0003
,
0100
0010
0010
1000
,
0000
0010
0010
1000
,
0010
0010
0100
0100
,
0010
0010
1000
0010
,
0001
0100
1000
0010
,
0001
0001
0100
0100
,
0000
1001
0000
0101
,
0000
0100
0100
0000
,
1000
0001
0001
0010
,
0000
0010
0010
1000
,
1000
0001
0100
0100
,
0001
0001
0100
0110
,
1000
1000
0001
0001
,
0010
0010
1000
1000
,
0100
1000
0100
1000
,
0010
0010
0100
0100
,
0100
0001
0010
0110
,
0010
0100
0010
0110
,
0010
0100
0010
0100
,
0010
0010
0000
1001
,
0100
0001
0100
0010
,
1000
0001
1001
0010
,
0010
1000
0010
0001
,
0100
0001
0110
0000
,
0100
0100
1000
0010
,
0010
0010
1001
0110
,
0001
0100
1000
0100
,
0001
1000
0001
0001
,
0100
1000
0010
0001
,
0100
0001
0100
0000
,
1000
0100
0010
0001
,
0010
1000
0010
0010
,
1001
0000
0000
0000
;

//---------------dance-single - ----------------
#NOTES:
     dance-single:
     :
     Beginner:
     4:
     0.213735,0.323167,0.044884,0.022442,0.000000,200.000000,194.000000,6.000000,3.000000,0.000000,0.000000,0.213735,0.323167,0.044884,0.022442,0.000000,200.000000,194.000000,6.000000,3.000000,0.000000,0.000000:
0000
0000
0000
0000
,
1000
0000
1000
0000
,
0001
0000
0001
0000
,
1000
0000
1000
0000
,
0000
1000
0000
0010
,
0000
0100
0000
0000
,
0000
0000
0100
0000
,
1000
0000
0010
0100
,
0000
0000
0100
0000
,
0100
0000
0010
0000
,
1000
0000
1000
0000
,
0010
0000
0010
0000
,
1000
0000
0001
0000
,
0010
0000
1000
0000
,
0100
0000
0100
0000
,
0001
0000
0000
0100
,
0000
0010
0000
0000
,
1000
0000
0010
0000
,
0000
0000
0000
0100
,
0000
0100
0000
0000
,
0100
0000
0000
0000
,
1000
0000
0001
0000
,
1000
0000
0001
0000
,
1000
0000
1000
0000
,
0010
0000
0000
0000
,
0010
0000
0000
0000
,
0100
0000
0000
1000
,
0000
0100
0000
0001
,
0000
0100
0000
0010
,
0000
0000
0010
0000
,
0100
0000
0010
0000
,
0100
0000
0000
0100
,
0000
0000
0000
0010
,
0000
0100
0000
0010
,
0000
0100
0000
0010
,
0000
1000
0000
0001
,
0000
0010
0000
0000
,
0100
0000
0000
0000
,
0000
1000
0000
1000
,
0000
0100
1000
0000
,
0000
0010
0000
0000
,
0001
0000
0100
0000
,
1000
0000
0010
0000
,
0010
0000
0100
0000
,
0100
0000
0001
0000
,
0100
0000
0010
0000
,
0100
0000
0010
0000
,
0100
0000
0010
1000
,
0000
0001
0000
1000
,
0000
0001
0000
0100
,
0000
0010
0000
0000
,
0100
0000
0000
0010
,
0000
0100
0000
0100
,
0001
0000
0000
0000
,
1000
0000
0000
0000
,
1000
0000
0001
0000
,
0010
0000
0010
0000
,
0100
0000
0000
0000
,
0100
0000
0100
0000
,
0001
0000
0100
0000
,
0001
0000
0000
0000
,
0100
0000
0010
0000
,
1000
0000
0001
0000
,
0000
0100
0000
0010
,
0010
0000
0000
1000
,
0000
0001
0000
0000
,
1000
0000
0001
0000
,
0001
0000
0100
0000
,
0100
0000
0010
0000
,
0000
0100
0000
0010
,
0000
0010
0000
1000
,
0000
0001
0000
0100
,
0000
0100
0000
1001
,
0000
0000
0100
0000
,
0100
0000
0000
0000
0000
2000
0000
0000
,
3000
0200
0000
0000
0300
0002
0000
0003
,
0000
0010
0000
1000
,
0000
0010
0000
1000
,
0000
0010
0000
0100
,
0000
0010
1000
0000
,
0001
0000
1000
0000
,
0001
0000
0100
0000
,
0000
1001
0000
0100
,
0000
0100
0000
0000
,
1000
0001
0000
0010
,
0000
0000
0010
0000
,
1000
0000
0100
0000
,
0001
0000
0000
0110
,
0000
1000
0000
0001
,
0000
0010
0000
1000
,
0000
1000
0000
1000
,
0000
0010
0000
0100
,
0000
0001
0000
0100
,
0000
0010
0000
0000
,
0000
0100
0000
0100
,
0000
0010
0000
1001
,
0000
0001
0000
0010
,
0000
0000
1001
0000
,
0000
1000
0000
0001
,
0000
0001
0000
0000
,
0100
0000
1000
0000
,
0010
0000
1000
0100
,
0001
0100
1000
0100
,
0001
1000
0000
0001
,
0000
1000
0000
0001
,
0000
0001
0000
0000
,
1000
0000
0000
0001
,
0000
1000
0000
0000
,
1001
0000
0000
0000
;
