#TITLE:NEVERLAND (LONG VER.);
#SUBTITLE:;
#ARTIST:U-KISS;
#TITLETRANSLIT:;
#SUBTITLETRANSLIT:;
#ARTISTTRANSLIT:;
#GENRE:K-POP;
#CREDIT:;
#BANNER:NEVERLAND.png;
#BACKGROUND:;
#LYRICSPATH:;
#CDTITLE:;
#MUSIC:NEVERLAND.mp3;
#OFFSET:4.000000;
#SAMPLESTART:104.000000;
#SAMPLELENGTH:12.000000;
#LASTBEATHINT:6.294500;
#SELECTABLE:YES;
#BPMS:0.000000=125.889999
,168.000000=125.910004
,184.000000=126.050003
;
#STOPS:
;
#BGCHANGES:;
#KEYSOUNDS:;
#ATTACKS:;

//---------------dance-single - ----------------
#NOTES:
     dance-single:
     :
     Challenge:
     15:
     0.631982,0.854918,0.232346,0.125467,0.506515,952.000000,902.000000,50.000000,27.000000,0.000000,0.000000,0.631982,0.854918,0.232346,0.125467,0.506515,952.000000,902.000000,50.000000,27.000000,0.000000,0.000000:
// measure 0
0000
0000
0000
0000
,  // measure 1
0000
0000
0000
0000
,  // measure 2
0000
0000
0000
0000
,  // measure 3
0000
0000
0000
0000
,  // measure 4
0000
0000
0000
0000
,  // measure 5
1000
0100
0010
0001
0010
0100
1000
0000
,  // measure 6
1010
1000
1010
0000
1010
0100
0010
0010
,  // measure 7
0100
1000
0100
0010
0001
0010
0100
1000
,  // measure 8
1000
0100
1000
0100
1000
0010
0100
0000
0010
0100
0000
0000
0110
0000
1000
0000
,  // measure 9
0100
1000
0100
0001
0010
0100
1000
0100
,  // measure 10
0010
0100
0010
0110
0000
0110
0000
0110
,  // measure 11
1000
0100
0010
0100
1000
0100
0010
0000
,  // measure 12
0100
0010
0001
0100
0010
0001
0010
0000
,  // measure 13
0220
0330
1000
0100
0010
0100
1000
0100
,  // measure 14
1000
0100
1000
0100
1000
0100
0010
0000
0010
0000
0010
0000
1010
0000
0100
0000
,  // measure 15
1000
0100
0010
0100
0010
0001
0010
0001
,  // measure 16
0010
0001
0001
0001
0001
0001
0010
0010
,  // measure 17
0010
0000
0100
0010
0100
0010
1000
0100
,  // measure 18
1000
0200
0000
0000
1300
1000
0100
0010
,  // measure 19
0100
0010
0100
0010
1000
0100
0010
0100
,  // measure 20
1000
0001
0100
1010
0100
0010
0100
0110
,  // measure 21
1100
0110
0011
0100
0010
1000
0100
0001
,  // measure 22
0100
1000
0200
0000
0010
0000
0010
0000
,  // measure 23
0010
0300
0010
0000
0001
0000
0010
0000
,  // measure 24
1000
0100
0001
0100
,  // measure 25
1000
0100
0100
0001
,  // measure 26
0100
1000
0100
0001
,  // measure 27
0100
0000
0000
0000
0010
0000
0000
0000
1000
0000
0000
0000
0001
0000
0000
0100
,  // measure 28
0000
0000
0000
0020
0000
0000
0000
0000
0000
0000
0000
0000
0000
0000
0000
0030
,  // measure 29
0100
0100
1001
0000
0110
0000
1010
0000
,  // measure 30
0101
0000
0000
0000
1000
0100
1000
0100
1000
0000
0000
0000
0010
0100
0010
0100
,  // measure 31
0010
0000
0000
0000
0010
0100
1000
0100
0010
0001
0010
0100
1000
0100
0010
0001
,  // measure 32
0000
0000
0001
0000
0010
0000
0001
0000
0010
0100
0100
0010
0100
1000
0100
0010
,  // measure 33
0001
0100
0010
0100
0010
0100
1000
0100
0000
0000
0000
0000
0100
0000
0100
0000
,  // measure 34
0100
0000
0100
0000
0000
0000
0000
0000
1000
0100
0010
0001
0010
0100
0010
0000
,  // measure 35
0100
0000
0001
0010
0100
1000
0100
0010
0001
0010
0100
1000
0100
0010
0001
0010
,  // measure 36
0100
0000
1001
0000
0100
1000
0100
0010
0001
0010
0100
0010
0100
1000
0100
0010
,  // measure 37
0100
0010
0100
0000
0100
0010
0000
0100
0010
0000
0010
0100
0000
0010
0000
0100
,  // measure 38
0000
0010
0000
0100
0000
0000
0100
0000
1000
0000
0100
0000
1000
0000
0100
0000
,  // measure 39
0010
0100
0010
0100
0010
0001
0010
0100
,  // measure 40
0100
0000
0100
0000
0100
0001
0000
0000
1000
0100
0000
0000
1000
0100
0000
0000
,  // measure 41
1000
0100
0000
0000
1000
0100
0010
0001
0010
0100
1000
0000
0010
0000
0000
0000
,  // measure 42
0020
0000
0030
0100
1000
0100
0010
0100
,  // measure 43
0010
0001
0010
0001
0010
0001
0010
0000
,  // measure 44
1000
0100
1000
0100
1000
0100
0010
1000
,  // measure 45
0100
1000
0010
0100
0010
0100
0010
0000
,  // measure 46
2002
0000
3003
0100
0010
0100
0010
1000
,  // measure 47
0100
0010
0100
1000
0001
0010
0001
0000
,  // measure 48
1000
0100
1000
0000
0010
0100
0010
0000
0001
0010
0001
0000
0010
0000
0010
0000
,  // measure 49
0010
0000
0000
0000
0010
0100
0010
0000
1000
0100
1000
0000
0010
0100
0010
0000
,  // measure 50
0220
0000
0330
0001
0001
0001
0001
1000
,  // measure 51
1000
1000
1000
0100
0010
0100
0010
0010
,  // measure 52
0010
0000
0000
0000
1000
0100
1000
0000
0010
0100
0010
0000
0001
0010
0001
0000
,  // measure 53
0010
0100
0010
0000
1000
0100
0010
0001
0010
0100
1000
0100
0010
0001
0010
0100
,  // measure 54
1000
0100
0000
0000
0220
0000
0000
0000
0000
0330
0000
0000
0010
0000
0100
0000
,  // measure 55
0010
0000
1000
0001
1000
0000
0100
0010
,  // measure 56
0100
0000
0220
0000
0000
0000
0000
0330
,  // measure 57
0010
0010
1000
0100
1000
0100
0010
0001
,  // measure 58
0010
0100
1000
0000
1000
0100
1000
0000
,  // measure 59
0100
0000
0010
0000
0100
0000
0000
0000
0010
0000
0001
0000
0010
0000
0000
0010
,  // measure 60
0000
0220
0000
0000
0330
0000
0000
0000
,  // measure 61
1000
0100
0010
0000
0100
0000
0010
0000
,  // measure 62
0100
0000
0000
0000
1000
0100
0010
0001
0010
0100
1000
0100
0010
0001
0010
0100
,  // measure 63
1000
0100
0010
0001
0010
0100
1000
0100
1000
0100
0010
0100
0010
0001
0010
0001
,  // measure 64
0010
0100
1000
0100
0010
0001
0010
0100
1000
0100
0010
0001
0010
0100
1000
0100
,  // measure 65
0010
0001
0010
0001
0010
0100
1000
0000
0110
0000
0110
0000
1100
0000
0000
0000
,  // measure 66
0110
0000
0000
0000
1000
0100
1000
0000
0010
0100
0010
0000
0001
0010
0001
0000
,  // measure 67
1000
0100
0010
0001
0010
0100
1000
0000
0100
0010
0100
0000
0001
0010
0001
0000
,  // measure 68
1000
0100
1000
0000
0010
0100
0010
0000
1000
0100
1000
0000
0010
0001
0010
0000
,  // measure 69
0100
0010
0100
0000
1000
0100
0010
0000
0001
0010
0100
0000
0010
0000
0010
0000
,  // measure 70
0010
0000
0010
0000
1010
0100
1000
0100
1000
0000
0000
0000
0100
0010
0100
0010
,  // measure 71
0100
0000
0000
0000
1000
0100
0010
0001
0010
0100
1000
0100
0010
0001
0010
0100
,  // measure 72
1000
0000
0000
0000
1000
0100
1000
0100
1000
0000
0000
0000
0010
0100
0010
0100
,  // measure 73
0010
0000
0000
0000
0001
0010
0100
1000
0100
0010
0001
0000
0001
0000
0001
0000
,  // measure 74
0001
0000
0001
0000
0011
0100
1000
0100
0010
0001
0010
0100
1000
0100
0010
0100
,  // measure 75
0010
1000
0100
0010
0001
0010
0100
1000
0010
0000
0010
0000
0100
0000
0010
0000
,  // measure 76
0100
0010
0100
0010
0100
1000
0100
0010
,  // measure 77
0001
0010
0100
1000
1000
1000
1000
0100
,  // measure 78
0202
0000
0000
0303
1000
0100
1000
0000
,  // measure 79
0010
0100
0010
0000
0001
0010
0100
1000
,  // measure 80
0100
0010
0001
0010
0010
0000
1000
0100
,  // measure 81
1000
0000
0010
0100
0010
0100
1000
0100
,  // measure 82
0010
0000
0001
0000
0010
0000
0000
0000
1000
0100
1000
0000
0010
0100
0010
0000
,  // measure 83
0001
0010
0001
0000
0010
0100
0010
0000
1000
0100
1000
0000
0010
0100
0010
0000
,  // measure 84
0001
0010
0001
0000
0010
0100
0010
0000
0100
1000
0100
0000
0100
0010
0100
0000
,  // measure 85
0001
0010
0001
0000
0100
0010
0100
0000
0202
0000
0000
0000
0000
0000
0000
0000
,  // measure 86
0000
0000
0000
0303
1000
0100
0010
0100
0010
0100
1000
0100
0010
0001
0010
0100
,  // measure 87
1000
1000
0100
0010
0001
0010
0100
1000
,  // measure 88
0100
0220
0000
0330
,  // measure 89
1000
0100
1000
0000
0010
0100
0010
0000
,  // measure 90
0001
0010
0002
0000
1000
0100
1003
0000
,  // measure 91
0100
0010
0100
0000
0010
0001
0010
0000
,  // measure 92
0100
0010
0220
0000
0000
0000
0000
0330
,  // measure 93
1000
1000
1000
0000
0100
0000
0010
0000
,  // measure 94
0001
0000
0000
0000
1000
0100
0010
0001
0010
0100
1000
0100
0010
0001
0010
0100
,  // measure 95
1000
0100
0010
0100
0010
0001
0010
0001
0010
0100
1000
0100
1000
0100
0010
0001
,  // measure 96
0010
0100
0010
0100
0010
0000
1000
0100
0010
0100
0010
0100
0010
0100
1000
0100
,  // measure 97
0010
0001
0010
0100
1000
0100
0010
0001
0010
0100
1000
0100
0010
0001
0010
0100
,  // measure 98
1000
0000
0000
0000
1000
0100
1000
0000
0100
0010
0100
0000
0010
0001
0010
0000
,  // measure 99
0010
0100
0010
0000
1000
0100
1000
0000
0100
0010
0100
0000
0010
0001
0010
0000
,  // measure 100
1000
0100
1000
0000
0010
0100
0010
0000
0100
0010
0100
0000
0001
0010
0001
0000
,  // measure 101
1000
0100
1000
0000
0010
0100
0010
0000
0001
0010
0001
0000
1000
0100
1000
0000
,  // measure 102
0010
0100
0010
0000
1001
0000
0000
0000
0110
0000
0000
0000
1100
0000
0000
0000
,  // measure 103
0110
0011
0110
1100
,  // measure 104
0110
0011
0110
0011
,  // measure 105
0110
0000
0011
0000
0100
0010
0100
0000
,  // measure 106
0100
0000
0000
0000
1000
0100
1000
0000
0010
0100
0010
0000
0001
0010
0001
0000
,  // measure 107
0010
0100
0010
0000
1000
0100
1000
0000
0100
0010
0100
0000
0010
0100
0010
0000
,  // measure 108
1000
0100
1000
0000
0010
0100
0010
0000
0001
0010
0001
0000
0010
0100
0010
0000
,  // measure 109
1000
0010
1000
0000
0110
0000
0100
0000
0010
0000
0100
0000
1001
0000
1000
0000
,  // measure 110
0010
0001
2002
0000
0000
0000
0000
0000
,  // measure 111
0000
0000
3003
0000
;
