#VERSION:0.83;
#TITLE:LITERAL LEGEND;
#SUBTITLE:;
#ARTIST:AYESHA EROTICA;
#TITLETRANSLIT:;
#SUBTITLETRANSLIT:;
#ARTISTTRANSLIT:;
#GENRE:;
#ORIGIN:;
#CREDIT:;
#BANNER:banner.png;
#BACKGROUND:background.png;
#PREVIEWVID:;
#JACKET:jacket.png;
#CDIMAGE:;
#DISCIMAGE:;
#LYRICSPATH:;
#CDTITLE:;
#MUSIC:Ayesha Erotica - Literal Legend-1.ogg;
#OFFSET:-0.163000;
#SAMPLESTART:43.958618;
#SAMPLELENGTH:12.000000;
#SELECTABLE:YES;
#BPMS:0.000=137.000;
#STOPS:;
#DELAYS:;
#WARPS:;
#TIMESIGNATURES:0.000=4=4;
#TICKCOUNTS:0.000=4;
#COMBOS:0.000=1;
#SPEEDS:0.000=1.000=0.000=0;
#SCROLLS:0.000=1.000;
#FAKES:;
#LABELS:0.000=Song Start;
#BGCHANGES:;
#KEYSOUNDS:;
#ATTACKS:
;

//---------------dance-single - ----------------
#NOTEDATA:;
#CHARTNAME:;
#STEPSTYPE:dance-single;
#DESCRIPTION:;
#CHARTSTYLE:;
#DIFFICULTY:Hard;
#METER:15;
#RADARVALUES:0.739015,0.773238,0.418212,0.263656,0.686414,569.000000,523.000000,46.000000,29.000000,0.000000,0.000000,0.000000,0.000000,0.000000,0.739015,0.773238,0.418212,0.263656,0.686414,569.000000,523.000000,46.000000,29.000000,0.000000,0.000000,0.000000,0.000000,0.000000;
#CREDIT:;
#NOTES:
0000
0000
0000
0000
,
0000
0000
0000
0000
1000
0000
0100
0010
0100
0000
0001
1000
0001
1000
0001
0000
,
0110
0000
0000
0000
0001
0000
0010
0100
0010
0000
0100
1000
0100
0010
0001
0010
,
0100
0000
0000
0000
0100
0000
0001
0010
0001
0000
0100
1000
0100
0000
0010
0001
,
0010
0000
1100
1100
0011
0011
1100
0011
,
0010
0100
0010
0100
0010
0000
0100
0000
1000
0000
0000
0000
0110
0000
0000
0000
,
0000
0010
0100
0000
0000
0100
0010
0000
,
0000
0000
0000
0200
0000
0000
0300
0010
,
0001
0010
0100
0000
1000
0000
0100
0000
0010
0000
0001
0000
1000
0100
0010
0000
,
0100
0000
0010
0000
0100
0000
1000
0000
0100
0000
1000
0000
0100
0010
0100
0000
,
0010
0000
0001
0000
0010
0000
0100
1000
0100
0000
0000
0000
0100
1000
0001
0000
,
0010
0100
0010
0000
0100
0000
1000
0000
0100
0000
0010
0000
0001
0010
0100
0000
,
0010
0000
0001
0000
0010
0000
0100
0000
0010
0100
1000
0000
0100
0000
0100
0000
,
0010
0000
0010
0000
0100
0010
0100
0000
0010
0000
0001
0000
0010
0000
0001
0000
,
0010
0100
1000
0000
0010
0001
0010
0000
0100
1000
0100
0000
0010
0001
0010
0000
,
0110
0000
1001
0000
0100
0010
0100
0000
0010
0100
0010
0000
0100
0010
0100
0000
,
0010
0100
0010
0000
0100
0010
0100
0000
0010
0100
0010
0000
1000
0100
0010
0000
,
1001
0000
0110
0000
0001
0010
0001
0000
0010
0100
0010
0000
0100
1000
0100
0000
,
0100
0010
0100
0000
0010
0001
0010
0000
0010
0100
0010
0000
0100
1000
0100
0000
,
0110
0000
1001
0000
0010
0000
0100
0010
0000
0100
0000
0000
1000
0000
0001
0010
,
0000
0100
0000
0000
0001
0000
0100
0010
0000
1000
0000
0000
0100
0010
0001
0000
,
0110
0000
1001
0000
0010
0000
0100
0010
0000
0001
0000
0000
0010
0000
0100
1000
,
0000
0100
0000
0000
0010
0000
0001
0010
0000
0100
0000
0000
1000
0100
0010
0000
,
0001
0000
0110
0000
2000
0000
0020
0000
0000
0000
3030
0000
0100
0010
0100
0000
,
0001
1000
0001
0000
0020
0000
0200
0000
0000
0000
0330
0000
0001
0010
0100
0000
,
1000
0100
0010
0000
0200
0000
0020
0000
0000
0000
0330
0000
0010
0100
0010
0000
,
0100
0010
0100
0000
2000
0000
0200
0000
0000
0000
3300
0000
0001
0010
0001
0000
,
0100
1000
0100
0000
0020
0000
0002
0000
0000
0000
0033
0000
0200
0000
2000
0000
,
0000
3300
0020
0200
0000
0330
0002
0020
,
0000
0000
0033
0000
1000
0000
0100
0010
0100
0000
0001
0010
0001
0010
0100
1000
,
0100
0000
0000
0000
0010
0001
0010
0100
1000
0100
0010
0000
0001
0000
0000
0000
,
1001
0000
0000
0000
1000
0000
0010
0100
0000
0010
0000
0000
0001
0000
0100
1000
,
0000
0100
0000
0000
0010
0000
0001
0010
0000
0000
0100
1000
0100
1000
0100
0000
,
0011
0000
0000
0000
0100
0000
0010
0001
0000
0100
0000
0000
0010
0000
1000
0100
,
0000
0010
0000
0000
0001
0000
0010
0100
0000
0000
1000
0100
1000
0000
0000
0000
,
0110
0000
0000
0000
0001
0000
0010
0000
0100
1000
0100
0000
0010
0000
0001
0000
,
0010
0000
0001
0000
0010
0000
0100
0000
0010
0100
0010
0000
1001
0000
0000
0000
,
0110
0000
0000
0000
0010
0000
0100
0000
0010
0100
0010
0000
0110
0000
0000
0000
,
1001
0000
0000
0000
0100
0000
0010
0000
0100
0010
0001
0000
0010
0000
0100
0000
,
1001
0000
0000
0000
0100
0000
0010
0001
0000
0010
0000
0000
0100
0000
0010
1000
,
0000
0100
0000
0000
0010
0000
0001
0000
0010
0000
0100
0000
1000
0000
0100
0000
,
0011
0000
0000
0000
0001
0000
0010
0100
0000
0010
0000
0100
0000
0000
0010
0000
,
0001
0010
0001
0010
0100
0010
0100
1000
,
0100
0000
0000
0000
0010
0000
0001
0010
0000
0100
0010
0000
0100
0000
0000
0000
,
1000
0000
0100
0000
0010
0001
0010
0000
0100
0000
0010
0000
0100
0000
0000
0000
,
0110
0000
0000
0000
0001
0000
0010
0100
0000
0010
0000
0100
0000
1000
0010
0000
,
0010
0000
0100
0000
1000
0100
0000
0100
0000
0010
0100
0000
0010
0000
0000
0000
,
1001
0000
0000
0000
0010
0000
0000
0100
0000
0000
0010
0000
0000
0100
0000
0000
,
1000
0100
0010
0100
0002
0000
0000
0203
0000
0000
0320
0000
0000
2030
0000
3000
,
0110
0000
0000
0000
0002
0000
0003
0020
0000
0030
2000
0000
3000
0200
0000
0300
,
0010
0001
0010
0100
2000
0000
3000
0200
0000
0000
0320
0000
0030
0002
0000
0003
,
0110
0000
0000
0000
0100
0000
0000
0010
0000
0000
0100
0000
0000
0010
0000
0000
,
0010
0100
0010
0100
0010
0000
0000
0001
0000
0000
0100
0000
0000
1000
0000
0000
,
0110
0000
0000
0000
0001
0000
0000
0010
0000
0000
0100
0000
0000
1000
0000
0000
,
0100
0010
0100
0010
0100
0000
0010
0000
0100
0000
0010
0000
1001
0000
0110
0000
,
1000
0100
1000
0100
0001
0010
0001
0000
0010
0100
0010
0000
0100
1000
0100
0000
,
0011
0000
0000
0000
1000
0100
0010
0000
0001
0010
0100
0000
1000
0100
0010
0001
,
0010
0100
1000
0000
0010
0001
0010
0000
0010
0100
0010
0000
0100
1000
0100
0000
,
0110
0000
0000
0000
0010
0100
0001
0000
0010
1000
0100
0000
0010
0001
0010
0000
,
1100
0000
0000
0000
0001
0010
0100
0000
0010
0100
1000
0000
0110
0000
1001
0000
,
0110
0000
0000
0000
0010
0100
0010
0000
0100
0001
0000
1000
0110
0000
0011
0000
,
0110
0000
0000
0000
0100
1000
0100
0000
0010
0001
0010
0000
0110
0000
1100
0000
,
0110
0000
0000
1000
0001
0010
0100
0000
0010
0001
0010
0000
0100
1000
0100
0000
,
0011
0000
0000
0000
;

//---------------dance-single - ----------------
#NOTEDATA:;
#CHARTNAME:;
#STEPSTYPE:dance-single;
#DESCRIPTION:;
#CHARTSTYLE:;
#DIFFICULTY:Medium;
#METER:10;
#RADARVALUES:0.458475,0.515492,0.136374,0.127282,0.109099,353.000000,338.000000,15.000000,14.000000,0.000000,0.000000,0.000000,0.000000,0.000000,0.458475,0.515492,0.136374,0.127282,0.109099,353.000000,338.000000,15.000000,14.000000,0.000000,0.000000,0.000000,0.000000,0.000000;
#CREDIT:;
#NOTES:
0000
0000
0000
0000
,
0000
0000
1000
0100
0100
0001
0001
0001
,
0100
0000
0001
0010
0010
0100
0100
0001
,
0100
0000
0100
0001
0001
0100
0100
0010
,
0010
0000
1000
0100
0010
0001
0100
0000
,
0010
0000
0010
0100
1000
0000
0100
0000
,
0000
0010
0100
0000
0000
0100
0010
0000
,
0000
0000
0000
0200
0000
0000
0300
0010
,
0001
0000
1000
0100
0010
0001
1000
0000
,
0100
0010
0000
0000
0100
1000
0100
0000
,
0010
0000
0010
0100
0100
0000
0100
0000
,
0010
0010
0100
0000
0100
0010
0001
0000
,
0010
0000
0010
0100
0010
0000
0100
0000
,
0010
0000
0100
0000
0010
0001
0010
0000
,
0010
1000
0010
0000
0100
0000
0010
0000
,
0100
0000
1000
0000
0100
0010
0100
0000
0010
0000
0010
0000
0100
0000
0100
0000
,
0010
0010
0100
0100
0010
0010
1000
0010
,
1000
0000
0100
0000
0001
0010
0001
0000
0010
0000
0010
0000
0100
0000
0100
0000
,
0100
0000
0010
0010
0010
0000
0100
0100
,
0010
0000
1000
0000
0010
0000
0100
0000
0000
0100
0000
0000
1000
0000
0001
0000
,
0000
0100
0000
0000
0001
0000
0100
0000
0000
1000
0000
0000
0100
0000
0001
0000
,
0100
0000
1000
0000
0010
0000
0100
0000
0000
0001
0000
0000
0010
0000
0100
0000
,
0000
0100
0000
0000
0010
0000
0001
0000
0000
0100
0000
0000
1000
0000
0000
0000
,
0001
0100
2000
0000
0000
3000
0100
0100
,
0001
0001
0020
0000
0000
0030
0001
0100
,
1000
0010
0200
0000
0000
0300
0010
0010
,
0100
0100
2000
0000
0000
3000
0001
0001
,
0100
0100
0020
0000
0000
0030
0200
0000
,
0000
0300
0020
0000
0000
0030
0002
0000
,
0000
0003
1000
0000
0100
0000
0001
0100
,
0100
0000
0000
0000
0010
0000
0000
0000
1000
0100
0010
0000
0001
0000
0000
0000
,
1000
0000
0000
0000
1000
0000
0010
0000
0000
0010
0000
0000
0001
0000
0100
0000
,
0000
0100
0000
0000
0010
0000
0001
0000
0000
0000
0100
0000
0100
0000
0100
0000
,
0010
0000
0000
0000
0100
0000
0010
0000
0000
0100
0000
0000
0010
0000
1000
0000
,
0000
0010
0000
0000
0001
0000
0010
0000
0000
0000
1000
0000
1000
0000
0000
0000
,
0110
0000
0001
0010
0100
0100
0010
0001
,
0010
0001
0010
0100
0010
0000
1001
0000
,
0110
0000
0010
0100
0010
0000
0110
0000
,
1001
0000
0100
0010
0100
0000
0010
0000
,
1001
0000
0000
0000
0100
0000
0010
0000
0000
0010
0000
0000
0100
0000
0010
0000
,
0000
0100
0000
0000
0010
0000
0000
0000
0010
0000
0100
0000
1000
0000
0000
0000
,
0010
0000
0000
0000
0001
0000
0010
0000
0000
0000
0000
0100
0000
0000
0010
0000
,
0001
0010
0000
0000
0100
0010
0100
0000
,
0100
0000
0010
0001
0000
0010
0100
0000
,
1000
0100
0010
0000
0100
0010
0100
0000
,
0110
0000
0000
0000
0001
0000
0010
0000
0000
0000
0000
0100
0000
0000
0010
0000
,
0000
0000
0100
0000
1000
0000
0000
0100
0000
0000
0100
0000
0000
0000
0000
0000
,
1001
0000
0000
0000
0010
0000
0000
0100
0000
0000
0010
0000
0000
0100
0000
0000
,
1000
0000
0010
0000
0002
0000
0000
0003
0000
0000
0010
0000
0000
0000
0000
0000
,
0110
0000
0002
0003
0000
2000
3000
0000
,
0010
0000
2000
3000
0000
0020
0030
0000
,
0100
0000
0000
0000
0100
0000
0000
0010
0000
0000
0100
0000
0000
0010
0000
0000
,
0010
0010
0010
0000
0000
0100
0000
0000
,
0110
0000
0000
0000
0001
0000
0000
0010
0000
0000
0100
0000
0000
1000
0000
0000
,
0100
0100
0100
0010
0100
0000
1001
0100
,
1000
1000
0001
0001
0010
0010
0100
0100
,
0001
0000
1000
0010
0001
0100
1000
0000
,
0010
1000
0010
0000
0010
0000
0100
0000
,
0110
0000
0010
0001
0010
0100
0010
0000
,
1100
0000
0001
0100
0010
1000
0100
1000
,
0100
0000
0010
0010
0100
0000
0100
0010
,
0100
0100
0010
0010
,
0110
0000
0001
0100
0010
0000
0100
0000
,
0011
0000
0000
0000
;

//---------------dance-single - ----------------
#NOTEDATA:;
#CHARTNAME:;
#STEPSTYPE:dance-single;
#DESCRIPTION:;
#CHARTSTYLE:;
#DIFFICULTY:Easy;
#METER:6;
#RADARVALUES:0.271448,0.315023,0.090916,0.127282,0.090916,209.000000,199.000000,10.000000,14.000000,0.000000,0.000000,0.000000,0.000000,0.000000,0.271448,0.315023,0.090916,0.127282,0.090916,209.000000,199.000000,10.000000,14.000000,0.000000,0.000000,0.000000,0.000000,0.000000;
#CREDIT:;
#NOTES:
0000
0000
0000
0000
,
0000
1000
0100
0001
,
0100
0001
0010
0000
,
0100
0000
0001
0100
,
0010
1000
0010
0100
,
0010
0010
1000
0100
,
0000
0100
0000
0010
,
0000
0000
0000
0200
0000
0000
0300
0000
,
0001
1000
0000
1000
,
0100
0000
0100
0000
,
0010
0000
0100
0000
,
0010
0100
0100
0001
,
0010
0000
0010
0100
,
0010
0100
0000
0010
,
0010
0000
0100
0000
,
0100
0000
0010
0100
,
0010
0100
0010
1000
,
0000
0001
0000
0100
,
0000
0010
0000
0100
,
0010
0010
0000
1000
,
0000
0100
0000
0000
0001
0000
0000
0000
0000
1000
0000
0000
0100
0000
0000
0000
,
0100
0000
0000
0000
0010
0000
0000
0000
0000
0001
0000
0000
0010
0000
0000
0000
,
0000
0100
0000
0000
0010
0000
0000
0000
0000
0100
0000
0000
1000
0000
0000
0000
,
0001
0000
2000
0000
0000
3000
0100
0000
,
0001
0000
0020
0000
0000
0030
0001
0000
,
1000
0000
0200
0000
0000
0300
0010
0000
,
0100
0000
2000
0000
0000
3000
0001
0000
,
0100
0000
0020
0000
0000
0030
0200
0000
,
0000
0300
0020
0000
0000
0030
0002
0000
,
0000
0003
1000
0000
0000
0000
0001
0000
,
0100
0000
1000
0001
,
1000
0000
0000
0000
1000
0000
0000
0000
0000
0010
0000
0000
0001
0000
0000
0000
,
0000
0100
0000
0000
0010
0000
0000
0000
0000
0000
0000
0000
0100
0000
0000
0000
,
0010
0000
0000
0000
0100
0000
0000
0000
0000
0100
0000
0000
0010
0000
0000
0000
,
0000
0010
0000
0000
0001
0000
0000
0000
0000
0000
0000
0000
1000
0000
0000
0000
,
0110
0001
0100
0000
,
0010
0000
0010
1000
,
0100
0010
0000
0000
,
1001
0100
0100
0000
,
1001
0000
0000
0000
0100
0000
0000
0000
0000
0010
0000
0000
0100
0000
0000
0000
,
0000
0100
0000
0000
0010
0000
0000
0000
0010
0000
0000
0000
1000
0000
0000
0000
,
0010
0000
0000
0000
0001
0000
0000
0000
0000
0000
0000
0100
0000
0000
0000
0000
,
0001
0000
0100
0100
,
0100
0010
0000
0100
,
1000
0010
0100
0000
,
0110
0000
0000
0000
0000
0000
0010
0000
0000
0000
0000
0100
0000
0000
0010
0000
,
0000
0000
0000
0000
1000
0000
0000
0100
0000
0000
0000
0000
0000
0000
0000
0000
,
1000
0000
0000
0000
0010
0000
0000
0100
0000
0000
0000
0000
0000
0100
0000
0000
,
1000
0000
0000
0000
0002
0000
0000
0003
0000
0000
0000
0000
0000
0000
0000
0000
,
0110
0000
0002
0003
0000
2000
3000
0000
,
0010
0000
2000
3000
0000
0020
0030
0000
,
0100
0000
0000
0000
0100
0000
0000
0010
0000
0000
0000
0000
0000
0010
0000
0000
,
0010
0000
0010
0000
0000
0100
0000
0000
,
0100
0000
0000
0000
0001
0000
0000
0010
0000
0000
0100
0000
0000
1000
0000
0000
,
0100
0100
0100
1001
,
1000
0001
0010
0100
,
0001
1000
0001
1000
,
0010
0010
0010
0100
,
0110
0010
0010
0010
,
1100
0001
0010
0100
,
0100
0010
0100
0100
,
0100
0100
0010
0010
,
0110
0001
0010
0100
,
0011
0000
0000
0000
;

//---------------dance-single - ----------------
#NOTEDATA:;
#CHARTNAME:;
#STEPSTYPE:dance-single;
#DESCRIPTION:;
#CHARTSTYLE:;
#DIFFICULTY:Beginner;
#METER:3;
#RADARVALUES:0.153258,0.200469,0.072733,0.000000,0.000000,118.000000,110.000000,8.000000,0.000000,0.000000,0.000000,0.000000,0.000000,0.000000,0.153258,0.200469,0.072733,0.000000,0.000000,118.000000,110.000000,8.000000,0.000000,0.000000,0.000000,0.000000,0.000000,0.000000;
#CREDIT:;
#NOTES:
// measure 0
0000
0000
0000
0000
,  // measure 1
0000
1000
0000
0001
,  // measure 2
0000
0001
0000
0000
,  // measure 3
0100
0000
0000
0100
,  // measure 4
0000
1000
0000
0100
,  // measure 5
0000
0000
1000
0000
,  // measure 6
0000
0100
0000
0010
,  // measure 7
0000
0000
0000
0100
0000
0000
0000
0000
,  // measure 8
0001
0000
0000
1000
,  // measure 9
0000
0000
0100
0000
,  // measure 10
0010
0000
0100
0000
,  // measure 11
0010
0000
0100
0000
,  // measure 12
0010
0000
0010
0000
,  // measure 13
0010
0000
0000
0000
,  // measure 14
0010
0000
0100
0000
,  // measure 15
0100
0000
0000
0001
,  // measure 16
0000
0000
0000
1000
,  // measure 17
0000
0001
0000
0100
,  // measure 18
0000
0010
0000
0100
,  // measure 19
0000
0010
0000
1000
,  // measure 20
0000
0001
0000
0000
,  // measure 21
0100
0010
0000
0010
,  // measure 22
0000
0010
0000
1000
,  // measure 23
0000
1000
0000
0100
,  // measure 24
0000
0010
0000
0001
,  // measure 25
0000
0100
0000
0000
,  // measure 26
0000
1000
0000
0001
,  // measure 27
0100
0010
0000
0100
,  // measure 28
0000
0010
0000
0001
,  // measure 29
0000
1000
0000
0001
,  // measure 30
0000
0000
1000
0000
,  // measure 31
1000
0000
0000
0001
,  // measure 32
0000
0010
0000
0100
,  // measure 33
0010
0100
0000
0010
,  // measure 34
0000
0001
0000
0000
,  // measure 35
0110
0000
0100
0000
,  // measure 36
0010
0000
0000
1000
,  // measure 37
0000
0010
0000
0000
,  // measure 38
1001
0000
0100
0000
,  // measure 39
1001
0100
0000
0100
,  // measure 40
0000
0010
0000
1000
,  // measure 41
0000
0001
0000
0000
,  // measure 42
0001
0000
0000
0100
,  // measure 43
0000
0010
0000
0000
,  // measure 44
1000
0000
0100
0000
,  // measure 45
0110
0000
0000
0000
,  // measure 46
0000
1000
0000
0000
,  // measure 47
1000
0000
0000
0000
,  // measure 48
1000
0000
0000
0000
,  // measure 49
0110
0000
0000
0000
,  // measure 50
0010
1000
0000
0000
,  // measure 51
0100
0100
0000
0000
,  // measure 52
0010
0000
0000
0000
,  // measure 53
0100
0000
0001
0000
0000
0100
0000
0000
,  // measure 54
0100
0000
0000
1001
,  // measure 55
0000
0001
0000
0100
,  // measure 56
0000
1000
0000
1000
,  // measure 57
0000
0010
0000
0000
,  // measure 58
0110
0000
0010
0000
,  // measure 59
1000
0000
0000
0100
,  // measure 60
0000
0000
0100
0000
,  // measure 61
0100
0000
0010
0000
,  // measure 62
0110
0000
0010
0100
,  // measure 63
0001
0000
0000
0000
;
