#TITLE:I'm Good (Blue);
#SUBTITLE:;
#ARTIST:David Guetta & Bebe Rexha;
#TITLETRANSLIT:;
#SUBTITLETRANSLIT:;
#ARTISTTRANSLIT:;
#GENRE:;
#CREDIT:SoulEdge5000;
#BANNER:banner.png;
#BACKGROUND:background.png;
#LYRICSPATH:;
#CDTITLE:;
#MUSIC:I'm Good (Blue).ogg;
#OFFSET:-0.123000;
#SAMPLESTART:46.997997;
#SAMPLELENGTH:12.000000;
#SELECTABLE:YES;
#BPMS:0.000000=64.000000
,32.000000=128.000000
,64.000000=256.000000
,128.000000=128.000000
,192.000000=64.000000
,208.000000=256.000000
;
#STOPS:
;
#BGCHANGES:;
#KEYSOUNDS:;
#ATTACKS:;

//---------------dance-single - ----------------
#NOTES:
     dance-single:
     :
     Hard:
     15:
     0.635432,0.991104,0.164189,0.119410,0.354499,596.000000,574.000000,22.000000,16.000000,0.000000,0.000000,0.635432,0.991104,0.164189,0.119410,0.354499,596.000000,574.000000,22.000000,16.000000,0.000000,0.000000:
1000
0100
0010
0001
0010
0100
1000
0100
0000
0000
0010
0001
0010
0000
0110
0000
,
1001
0000
0100
0010
0100
0000
0010
0100
0010
0100
0010
0001
0010
0000
0100
0000
,
1000
0000
0100
0010
0001
0010
0100
1000
0000
0100
0010
0100
0010
0000
0001
0010
,
0100
0000
0010
0100
1000
0010
0100
1000
0000
0010
0100
0010
0100
0000
0110
0000
,
0110
0000
0010
0001
0010
0100
1000
0100
0000
0000
0010
0001
0010
0100
0010
0100
,
1001
0010
0001
0010
0100
0010
0100
0010
0000
0100
1000
0100
0010
0001
0010
0001
,
0110
0000
0100
1000
0100
1000
0100
1000
0000
0010
0001
0010
0001
0010
0100
0010
,
0100
0000
1000
0100
0010
0100
0010
0100
0220
0000
0000
0000
0330
0000
0000
0000
,
1000
0000
0010
0000
0100
0010
0001
0000
0001
0000
0010
0000
0100
0000
0010
0000
,
0000
0000
0100
0000
0010
0001
0100
0000
0010
1000
0100
0000
0001
0000
0010
0000
,
0100
0010
0100
0010
0100
1000
0100
0010
,
0000
0000
0010
0000
0001
0010
0100
0000
0001
0010
0100
0000
0010
0000
0100
0000
,
1000
0100
0001
0010
0100
0010
0001
0010
,
0000
0100
1000
0100
0010
0001
0010
0001
,
1100
0000
0010
0001
0010
0001
0100
0010
,
0000
0100
0010
0000
0100
0000
0010
0000
,
1000
0010
0100
0000
1000
0100
0010
0000
,
0001
1000
0010
0000
0001
1000
0010
0000
,
0100
0010
1000
0000
0100
0000
0010
0100
,
0010
0100
0010
0100
,
0010
0000
0001
0100
0010
0000
0001
0100
,
0010
0000
0100
0001
0010
0000
0100
0010
,
1000
0000
0100
0010
0100
0000
1000
0001
,
1000
0000
0100
0010
0100
0000
0110
0000
,
1001
0000
0001
1000
0010
0000
0100
0010
,
1000
0000
0001
0100
0010
0000
0100
0010
,
1000
0000
0100
0010
1000
0000
0100
0000
,
0010
0001
0010
0000
0100
1000
0100
0000
,
0010
0001
0001
0010
,
0100
1000
0100
1000
,
1000
0100
1000
0100
0001
0010
0001
0010
,
1000
0000
0100
0000
0010
0000
0001
0000
0010
0000
0001
0000
0010
0001
0010
0001
,
0020
0000
0000
0030
,
0100
0000
0000
0010
0100
0000
0000
0010
0100
0000
0000
0001
1000
0000
0000
0001
,
2000
0100
3100
0110
,
1000
0000
0000
0100
0010
0000
0000
0001
1000
0000
0000
0100
0010
0000
0000
0010
,
0200
0010
0010
0310
,
0010
0000
0000
0001
0010
0000
0000
0001
0010
0000
0000
0010
0100
0000
0000
0100
,
2000
0100
0001
3100
,
0022
0000
0000
0033
,
1000
0100
1000
0100
0010
0001
0010
0001
,
0000
0000
0010
0000
0100
0000
0010
0000
0100
1000
0100
0000
0010
0001
0010
0000
,
1100
0000
0010
0001
0010
0001
0010
0100
,
0000
0000
0100
0000
0010
0000
0100
0000
0001
0010
0100
0000
0010
0100
1000
0000
,
0011
0000
0100
1000
0100
0010
0001
0010
,
0000
0000
0100
0000
1000
0000
0100
0000
0010
0100
0010
0000
0100
0010
0100
0000
,
1001
0000
0100
0010
0001
0100
0010
0001
,
0000
0100
1000
0100
0000
0100
0011
0000
,
1000
0000
0100
0010
0100
0010
0100
0010
0000
0100
1000
0100
0010
0001
0010
0100
,
0010
0000
0100
1000
0100
1000
0100
1000
0000
0001
0010
0100
0010
0000
0100
0010
,
0100
0000
0010
0001
0010
0100
1000
0100
0000
0000
0010
0010
0010
0010
0010
0010
,
1100
0000
0010
0100
0010
0100
0001
1000
0110
0000
1001
0000
0110
0000
1001
0000
,
0100
1000
0010
0000
0100
0001
0010
0000
,
0001
0100
1000
0000
0001
0010
1000
0000
,
0010
0000
0100
1000
0100
0000
0010
0001
,
0010
0000
0100
1000
0100
0000
0010
0100
,
0001
0000
0010
1000
0001
0000
0100
0010
,
1000
0000
0100
0001
1000
0000
0010
0100
,
0001
0000
0010
0100
0001
0000
0100
1000
,
0100
0000
0010
1000
0010
0000
0100
0001
,
0100
0010
0100
0010
,
0100
0000
0010
0001
0010
0000
0100
1000
,
0100
0000
0010
0100
0001
0000
0010
0001
,
0100
0100
0010
0001
,
1000
0100
1000
0000
0001
0010
0001
0000
,
1000
0100
1000
0000
0001
0010
0001
0000
,
1000
0100
1000
0100
0010
0001
0010
0001
,
0010
0001
0010
0001
0010
0000
0000
0000
0110
0000
0000
0000
1000
0000
0000
0000
,
2000
0100
0100
3100
,
0200
0010
0010
0310
,
0010
0100
0010
0100
,
0010
0100
0010
0000
1000
0001
1000
0000
,
0200
0001
0001
0301
,
0020
1000
1000
1030
,
0200
0010
0010
0310
,
1000
0100
0010
0000
0100
0010
0001
0000
,
0002
1000
0010
1003
,
2000
0001
0100
3001
,
1000
0000
0100
0000
0001
0010
0100
0000
,
0001
0000
0010
0000
0100
1000
0100
0000
,
0010
0010
0100
0100
,
0010
0001
0010
0001
0100
1000
0100
1000
,
0010
0000
0001
0000
0010
0000
0001
0000
0010
0001
0010
0001
0020
0000
0000
0000
,
0030
0000
0000
0000
;

//---------------dance-single - ----------------
#NOTES:
     dance-single:
     :
     Challenge:
     16:
     0.766570,1.424712,0.156726,0.111947,0.675413,719.000000,698.000000,21.000000,15.000000,0.000000,0.000000,0.766570,1.424712,0.156726,0.111947,0.675413,719.000000,698.000000,21.000000,15.000000,0.000000,0.000000:
1000
0000
0100
0010
0001
0000
0001
0000
0010
0000
0100
0000
1000
0000
0100
0000
0010
0000
0100
0000
0010
0001
0010
0000
0010
0100
0010
0000
0110
0000
1001
0000
,
0100
0010
0100
0000
0100
0010
0100
0001
1000
0001
0010
0100
0010
0000
0100
0000
0010
0000
0100
0000
0010
0001
0010
0100
0010
0100
1000
0000
0100
0000
0010
0000
,
1000
0000
0000
0000
0100
0010
0001
0000
0010
0100
0010
0000
0100
0000
1000
0000
0000
0000
0100
0000
0010
0100
0010
0100
1000
0001
1000
0000
0001
0000
0010
0000
,
0100
0000
0010
0100
1000
0010
0100
1000
0000
0010
0100
0010
0100
0000
0110
0000
,
0010
0100
0010
0000
0010
0100
0010
0000
0010
0000
0100
0000
1000
0000
0100
0000
0010
0000
0001
0000
0010
0001
0010
0000
0100
0010
0100
0000
0010
0000
0100
0000
,
0001
0010
0100
0000
0010
0100
1000
0000
0100
0010
0001
0000
0010
0100
1000
0100
0010
0000
0100
0000
1000
0000
0100
0000
0010
0001
0010
0000
0010
0100
1000
0000
,
0100
0010
0100
0000
0100
0010
0100
0000
0100
0000
1000
0000
0100
0000
1000
0000
0100
0000
0010
0000
0001
0000
0010
0000
0001
0000
0010
0000
0100
0000
0010
0000
,
0100
0010
0100
0000
0010
0001
0010
0000
0010
0100
1000
0000
0010
0000
0100
0000
0020
0000
0100
0000
0100
0000
0100
0000
0130
0000
0000
0000
0100
0000
0010
0000
,
1000
0000
0010
0000
0100
0010
0001
0000
0001
0000
0010
0000
0100
0000
0010
0000
,
0100
0000
1000
0000
0010
0001
0100
0000
0010
1000
0100
0000
0001
0000
0010
0000
,
0100
0010
0001
0000
0010
0100
1000
0000
0100
0010
0100
0000
0100
0010
0100
0000
,
1001
0000
0010
0000
0001
0010
0100
0000
0001
0010
0100
0000
0010
0000
0100
0000
,
1000
0100
0010
0000
0001
0010
0100
0000
0100
1000
0010
0000
0001
0100
0010
0000
,
0001
0100
1000
0100
0010
0001
0010
0001
,
1000
0100
1000
0100
0010
0001
0010
0001
,
0010
0100
0010
0100
0010
0100
0010
0100
1000
0001
1000
0001
1000
0001
0000
0000
,
1000
0100
1000
0100
1000
0100
1100
0000
,
0001
0010
0001
0010
0001
0010
0011
0000
,
0100
0010
0100
0000
1000
0001
1000
0000
,
0010
0100
0010
0100
,
0010
0001
0010
0001
0010
0001
1001
0000
,
0010
0100
0010
0100
0010
0100
1001
0000
,
1000
0100
0010
0000
0001
0010
1000
0000
,
1000
0010
0100
0000
0100
0010
0100
0000
,
1000
0100
0010
0001
0010
0100
1001
0000
,
1000
0010
0001
0010
1000
0010
1001
0000
,
1000
0000
0100
0010
1000
0000
0100
0000
,
0010
0001
0010
0000
0100
1000
0100
0000
,
0010
0001
0001
0010
,
0100
1000
0100
1000
,
1000
0100
1000
0100
0001
0010
0001
0010
,
1000
0000
0100
0000
0010
0000
0001
0000
0010
0000
0001
0000
0010
0001
0010
0001
,
0020
0000
0000
0030
,
0100
0000
0000
0010
0100
1000
0000
0010
0100
1000
0000
0001
1000
0100
0000
0001
,
2000
0100
0000
0000
0100
0000
0010
0000
3100
0000
0000
0000
0110
0000
0000
0000
,
1000
0000
0000
0100
0010
0001
0000
0001
1000
0010
0000
0100
0010
0001
0000
0010
,
0200
0001
0000
0000
0010
0000
0001
0000
0010
0000
0001
0000
0310
0000
0000
0000
,
0010
0000
0000
0001
0010
0000
0000
0001
0010
0000
0000
0010
0100
0000
0000
0100
,
2000
0100
0001
3100
,
2002
0000
0000
3003
,
1000
0100
1000
0100
0010
0001
0010
0001
,
0000
0000
0010
0000
0100
0000
0010
0000
0100
1000
0100
0000
0010
0001
0010
0000
,
1100
0000
0010
0001
0010
0001
0010
0100
,
0000
0000
0100
0000
0010
0000
0100
0000
0001
0010
0100
0000
0010
0100
1000
0000
,
0011
0000
0100
1000
0100
0010
0001
0010
,
0000
0000
0100
0000
1000
0000
0100
0000
0010
0100
0010
0000
0100
0010
0100
0000
,
1001
0000
0100
0010
0001
0100
0010
0001
,
0000
0100
1000
0100
0000
0100
0011
0000
,
1000
0100
0010
0000
0001
0010
0100
0000
0001
0000
0010
0000
0100
0000
0010
0000
0100
0000
0100
0000
1000
0000
0100
0000
0010
0001
0010
0100
1000
0100
0001
0000
,
0010
0100
0000
0000
0100
0000
1000
0000
0100
0000
1000
0000
0100
0000
1000
0000
0010
0000
0001
0000
0010
0000
0100
0000
0010
0100
0010
0000
0100
0001
0010
0000
,
0100
0000
0010
0001
0010
0100
1000
0100
0010
0001
0010
1000
0010
0001
0010
1000
,
0100
0000
0000
0000
0010
0000
0100
0000
0010
0000
0100
0000
0001
0000
1000
0000
0100
0000
0010
0000
0100
0000
0010
0000
0100
0000
0010
0000
0001
0000
0100
0010
,
0001
1000
0100
1000
0100
0010
0001
0010
,
0011
0000
0001
0010
0100
1000
0001
0010
,
0100
0000
1100
0000
0100
0000
0010
0001
,
0010
0000
0100
1000
0100
0000
0010
0100
,
0010
0100
0010
0100
1001
0000
0010
0001
,
0010
0001
0010
0001
0110
0000
0010
0100
,
0001
0000
0010
0100
0001
0000
0100
1000
,
0100
0000
0010
1000
0010
0000
0100
0001
,
0100
0010
1000
0100
0010
1000
0010
0000
,
0100
0000
0010
0001
0010
0000
0100
1000
,
0100
0000
0010
0100
0001
0000
0010
0001
,
0100
0100
0010
0001
,
1000
0100
1000
0100
0001
0010
0001
0010
,
1000
0100
1000
0100
0001
0010
0001
0010
,
1000
0100
1000
0100
0010
0001
0010
0001
,
0010
0001
0010
0001
0010
0000
0000
0000
0110
0000
0000
0000
1000
0000
0000
0000
,
2000
0100
0100
3100
,
0200
0010
0010
0310
,
0010
0100
0010
0100
,
0010
0100
0010
0000
1000
0001
1000
0000
,
0200
0001
0001
0301
,
0020
1000
1000
1030
,
0200
0010
0010
0310
,
1000
0100
0010
0000
0100
0010
0001
0000
,
0002
1000
0010
1003
,
2000
0001
0100
3001
,
1000
0000
0100
0000
0001
0010
0100
0000
,
0001
0000
0010
0000
0100
1000
0100
0000
,
0010
0010
0100
0100
,
0010
0001
0010
0001
0100
1000
0100
1000
,
0010
0000
0001
0000
0010
0000
0001
0000
0010
0001
0010
0001
0020
0000
0000
0000
,
0030
0000
0000
0000
;

//---------------dance-single - ----------------
#NOTES:
     dance-single:
     :
     Medium:
     9:
     0.381686,0.495552,0.029853,0.044779,0.022389,358.000000,354.000000,4.000000,6.000000,0.000000,0.000000,0.381686,0.495552,0.029853,0.044779,0.022389,358.000000,354.000000,4.000000,6.000000,0.000000,0.000000:
1000
0010
0010
1000
0000
0010
0010
0100
,
1000
0100
0100
0010
0010
0010
0010
0100
,
1000
0100
0001
0100
0000
0010
0010
0001
,
0100
0010
1000
0100
0000
0100
0100
0010
,
0010
0000
0010
1000
0000
0000
0010
0000
,
1001
0001
0100
0100
0000
1000
0010
0000
,
0110
0000
0100
0100
0000
0000
0001
0100
,
0100
1000
0010
0010
0200
0000
0300
0000
,
1000
0010
0100
0001
0000
0010
0100
0010
,
0000
0000
0100
0000
0010
0000
0000
0000
0010
1000
0100
0000
0001
0000
0010
0000
,
0100
0000
0100
0010
0100
0000
0100
0010
,
0000
0000
0010
0000
0001
0000
0100
0000
0001
0010
0100
0000
0000
0000
0000
0000
,
1000
0100
0001
0000
0100
0010
0001
0000
,
0000
0000
1000
0100
0010
0000
0010
0001
,
1000
0000
0010
0001
0010
0000
0100
0010
,
0000
0100
0010
0000
0100
0000
0010
0000
,
1000
0100
1000
0010
,
0001
0010
0001
0010
,
0100
1000
0100
0010
,
0010
0100
0010
0100
,
0010
0001
0010
0001
,
0010
0100
0010
0100
,
1000
0100
0100
1000
,
1000
0100
0000
0110
,
0000
0001
0010
0100
,
1000
0001
0010
0100
,
1000
0100
1000
0100
,
0010
0010
0100
0100
,
0010
0001
0001
0010
,
0100
1000
0100
1000
,
1000
1000
0001
0001
,
1000
0000
0010
0001
0010
0001
0010
0000
,
0010
0000
0000
0000
,
0100
0000
0000
0000
0100
0000
0000
0010
0100
0000
0000
0000
1000
0000
0000
0001
,
2000
0000
3000
0100
,
1000
0000
0000
0000
0010
0000
0000
0000
1000
0000
0000
0100
0010
0000
0000
0000
,
0200
0000
0000
0300
,
0010
0000
0000
0000
0010
0000
0000
0000
0010
0000
0000
0000
0100
0000
0000
0100
,
2000
0000
0000
3000
,
0002
0000
0000
0003
,
1000
0100
1000
0000
0010
0001
0010
0000
,
0000
0000
0100
0010
0100
0000
0010
0010
,
1000
0000
0010
0000
0010
0001
0000
0000
,
0000
0000
0010
0100
0001
0100
0010
1000
,
0001
0000
0100
1000
0100
0000
0001
0010
,
0000
0100
1000
0000
0010
0010
0100
0100
,
0001
0000
0100
0010
0001
0100
0010
0001
,
0000
0000
1000
0100
0000
0100
0010
0000
,
1000
0100
0100
0100
0000
1000
0010
0010
,
0010
0100
0100
0100
0000
0010
0010
0100
,
0100
0010
0010
1000
0000
0010
0010
0010
,
1000
0010
0010
0001
0100
1000
0100
1000
,
0100
0010
0100
0010
,
0001
1000
0001
1000
,
0010
0100
0100
0010
,
0010
0100
0100
0010
,
0001
0010
0001
0100
,
1000
0100
1000
0010
,
0001
0010
0001
0100
,
0100
0010
0010
0100
,
0100
0010
0100
0010
,
0100
0010
0010
0100
,
0100
0010
0001
0010
,
0100
0100
0010
0001
,
1000
1000
0001
0001
,
1000
1000
0001
0001
,
1000
1000
0010
0010
,
0010
0000
0110
0000
,
1000
0000
0000
0000
,
0100
0000
0000
0000
,
0000
0100
0010
0100
,
0010
0010
1000
1000
,
0100
0000
0000
0000
,
0010
0000
0000
0000
,
0100
0000
0000
0000
,
1000
0010
0100
0001
,
0000
1000
0010
1000
,
0000
0001
0100
0000
,
1000
0100
0001
0100
,
0001
0000
0100
0000
,
0010
0000
0100
0000
,
0010
0010
0100
0100
,
0010
0010
0010
0020
,
0030
0000
0000
0000
;

//---------------dance-single - ----------------
#NOTES:
     dance-single:
     :
     Easy:
     4:
     0.198306,0.247030,0.022389,0.007463,0.000000,186.000000,183.000000,3.000000,1.000000,0.000000,0.000000,0.198306,0.247030,0.022389,0.007463,0.000000,186.000000,183.000000,3.000000,1.000000,0.000000,0.000000:
1000
0010
0000
0010
,
1000
0100
0010
0010
,
1000
0001
0000
0010
,
0100
1000
0000
0100
,
0010
0010
0000
0010
,
1000
0100
0000
0000
,
0110
0000
0000
0001
,
0100
0010
0100
0000
,
1000
0100
0000
0100
,
0000
0010
0010
0001
,
0100
0100
0000
0100
,
0000
0001
0001
0000
,
1000
0001
0100
0001
,
0000
1000
0010
0000
,
1000
0000
0010
0000
,
0000
0010
0000
0000
,
1000
0000
0000
0000
,
0001
0000
0001
0000
,
0100
0000
0100
0000
,
0010
0000
0000
0000
,
0010
0000
0000
0001
,
0010
0000
0000
0100
,
1000
0000
0100
0000
,
1000
0000
0000
0110
,
0000
0001
0000
0000
,
1000
0000
0000
0100
,
1000
0000
0000
0100
,
0010
0000
0000
0100
,
0010
0000
0000
0000
,
0100
0000
0000
0000
,
1000
0000
0001
0000
,
1000
0020
0000
0000
,
0030
0000
0000
0000
,
0100
0100
0100
1000
,
1000
0000
0000
0100
,
1000
0010
1000
0010
,
0100
0000
0000
0000
,
0010
0010
0010
0100
,
1000
0000
0000
0000
,
0001
0000
0000
0000
,
1000
1000
0010
0010
,
0000
0100
0100
0010
,
1000
0010
0010
0000
,
0000
0010
0001
0010
,
0001
0100
0100
0001
,
0000
1000
0010
0100
,
0001
0100
0001
0010
,
0000
1000
0000
0010
,
1000
0100
0000
0010
,
0010
0100
0000
0010
,
0100
0010
0000
0010
,
1000
0010
0100
0100
,
0100
0000
0100
0000
,
0001
0000
0001
0000
,
0010
0000
0100
0000
,
0010
0000
0100
0000
,
0001
0000
0001
0000
,
1000
0000
1000
0000
,
0001
0000
0001
0000
,
0100
0000
0010
0000
,
0100
0000
0100
0000
,
0100
0000
0010
0000
,
0100
0000
0001
0000
,
0100
0000
0010
0000
,
1000
0000
0001
0000
,
1000
0000
0000
0001
,
1000
0000
0010
0000
,
0010
0000
0110
0000
,
1000
0000
0000
0000
,
0100
0000
0000
0000
,
0000
0100
0000
0100
,
0000
0010
0000
1000
,
0000
0000
0000
0000
,
0010
0000
0000
0000
,
0100
0000
0000
0000
,
1000
0000
0100
0001
,
0000
1000
0000
1000
,
0000
0001
0100
0000
,
1000
0000
0001
0100
,
0000
0000
0100
0000
,
0010
0000
0100
0000
,
0010
0000
0100
0000
,
0010
0000
0000
0010
;

//---------------dance-single - ----------------
#NOTES:
     dance-single:
     :
     Beginner:
     3:
     0.113013,0.185272,0.007463,0.000000,0.000000,106.000000,105.000000,1.000000,0.000000,0.000000,0.000000,0.113013,0.185272,0.007463,0.000000,0.000000,106.000000,105.000000,1.000000,0.000000,0.000000,0.000000:
// measure 0
1000
0000
0000
0000
,  // measure 1
1000
0000
0000
0000
,  // measure 2
1000
0000
0000
0000
,  // measure 3
0100
0000
0000
0100
,  // measure 4
0000
0010
0000
0010
,  // measure 5
1000
0000
0000
0000
,  // measure 6
0110
0000
0000
0001
,  // measure 7
0000
0000
0100
0000
,  // measure 8
1000
0000
0000
0100
,  // measure 9
0000
0000
0010
0000
,  // measure 10
0000
0100
0000
0100
,  // measure 11
0000
0000
0001
0000
,  // measure 12
1000
0000
0100
0000
,  // measure 13
0000
1000
0000
0000
,  // measure 14
1000
0000
0010
0000
,  // measure 15
0000
0010
0000
0000
,  // measure 16
1000
0000
0000
0000
,  // measure 17
0001
0000
0000
0000
,  // measure 18
0100
0000
0000
0000
,  // measure 19
0010
0000
0000
0000
,  // measure 20
0010
0000
0000
0000
,  // measure 21
0010
0000
0000
0000
,  // measure 22
1000
0000
0000
0000
,  // measure 23
1000
0000
0000
0000
,  // measure 24
0000
0001
0000
0000
,  // measure 25
1000
0000
0000
0000
,  // measure 26
1000
0000
0000
0000
,  // measure 27
0010
0000
0000
0000
,  // measure 28
0010
0000
0000
0000
,  // measure 29
0100
0000
0000
0000
,  // measure 30
1000
0000
0000
0000
,  // measure 31
0000
0010
0000
0000
,  // measure 32
0000
0000
0000
0000
,  // measure 33
0100
0000
0000
0000
,  // measure 34
1000
0000
0000
0000
,  // measure 35
1000
0000
1000
0000
,  // measure 36
0100
0000
0000
0000
,  // measure 37
0010
0000
0000
0000
,  // measure 38
1000
0000
0000
0000
,  // measure 39
0001
0000
0000
0000
,  // measure 40
1000
0000
0010
0000
,  // measure 41
0000
0100
0000
0000
,  // measure 42
1000
0000
0010
0000
,  // measure 43
0000
0010
0000
0010
,  // measure 44
0000
0000
0100
0000
,  // measure 45
0000
1000
0000
0100
,  // measure 46
0000
0100
0000
0010
,  // measure 47
0000
1000
0000
0010
,  // measure 48
1000
0100
0000
0010
,  // measure 49
0000
0100
0000
0010
,  // measure 50
0100
0010
0000
0010
,  // measure 51
0000
0010
0000
0000
,  // measure 52
0100
0000
0000
0000
,  // measure 53
0001
0000
0000
0000
,  // measure 54
0010
0000
0000
0000
,  // measure 55
0010
0000
0000
0000
,  // measure 56
0001
0000
0000
0000
,  // measure 57
1000
0000
0000
0000
,  // measure 58
0001
0000
0000
0000
,  // measure 59
0100
0000
0000
0000
,  // measure 60
0100
0000
0000
0000
,  // measure 61
0100
0000
0000
0000
,  // measure 62
0100
0000
0000
0000
,  // measure 63
0100
0000
0000
0000
,  // measure 64
1000
0000
0000
0000
,  // measure 65
1000
0000
0000
0000
,  // measure 66
1000
0000
0000
0000
,  // measure 67
0010
0000
0010
0000
,  // measure 68
1000
0000
0000
0000
,  // measure 69
0100
0000
0000
0000
,  // measure 70
0000
0100
0000
0000
,  // measure 71
0000
0010
0000
1000
,  // measure 72
0000
0000
0000
0000
,  // measure 73
0010
0000
0000
0000
,  // measure 74
0100
0000
0000
0000
,  // measure 75
1000
0000
0000
0001
,  // measure 76
0000
1000
0000
0000
,  // measure 77
0000
0000
0100
0000
,  // measure 78
1000
0000
0000
0100
,  // measure 79
0000
0000
0100
0000
,  // measure 80
0010
0000
0000
0000
,  // measure 81
0010
0000
0100
0000
,  // measure 82
0000
0000
0000
0010
;
