#TITLE:GIMME MORE (SLAYYYTER REMIX);
#SUBTITLE:;
#ARTIST:SLAYYYTER;
#TITLETRANSLIT:;
#SUBTITLETRANSLIT:;
#ARTISTTRANSLIT:;
#GENRE:;
#CREDIT:;
#BANNER:banner.png;
#BACKGROUND:background.png;
#LYRICSPATH:;
#CDTITLE:;
#MUSIC:GIMME MORE - SLAYYYTER REMIX.ogg;
#OFFSET:-0.298000;
#SAMPLESTART:53.241199;
#SAMPLELENGTH:12.000000;
#SELECTABLE:YES;
#BPMS:0.000000=113.329002
;
#STOPS:
;
#BGCHANGES:;
#KEYSOUNDS:;
#ATTACKS:;

//---------------dance-single - ----------------
#NOTES:
     dance-single:
     :
     Hard:
     13:
     0.552951,0.621921,0.388918,0.370398,0.337988,418.000000,376.000000,42.000000,40.000000,0.000000,0.000000,0.552951,0.621921,0.388918,0.370398,0.337988,418.000000,376.000000,42.000000,40.000000,0.000000,0.000000:
0000
0000
0000
0000
,
0000
0000
0000
0000
0000
0000
0000
0000
0000
0000
0000
0000
0000
0000
0000
0100
,
1000
0000
0100
0000
0010
0000
0001
0000
0010
0000
0100
0000
1000
0100
1000
0000
,
0100
0000
0010
0000
0001
0000
0010
0000
0100
0000
0010
0000
0100
0010
0100
0000
,
0001
0000
0010
0000
0001
0000
0010
0000
0100
0000
1000
0000
0100
0010
0100
0000
,
0010
0000
0100
0000
1000
0000
0100
0000
1000
0000
0100
0000
0010
0100
0010
0000
,
0100
0000
0001
0000
0010
0000
0100
0000
0010
0000
0001
0000
0010
0100
0010
0000
,
1000
0000
0100
0000
1000
0000
0100
0000
0010
0000
0100
0000
0010
0100
0010
0000
,
0001
0000
0010
0000
0001
0000
0010
0000
0001
0000
0010
0000
0001
0010
0001
0000
,
0010
0000
0100
0000
1000
0000
0100
0000
1000
0000
0100
0000
1000
0100
1000
0000
,
0000
0000
0001
0010
0001
0000
0010
0000
0220
0000
0000
0000
0000
0000
0000
0000
,
0330
0000
0000
0000
0000
0000
1000
0100
0010
0000
0001
0010
0100
0000
0000
0000
,
0000
0000
0110
0000
1001
0000
0110
0000
1001
0000
0000
0000
0000
0000
1000
0100
,
0010
0001
0110
0000
1001
0000
0110
0000
1001
0000
0000
0000
0100
0000
0000
0000
,
0010
0000
0001
0010
0001
0010
0001
0000
2002
0000
0000
0000
0000
0000
0000
0000
,
0000
0000
0000
0000
3003
0000
0100
1000
0100
0010
0100
0000
1001
0000
0000
0000
,
0110
0000
0001
0010
0001
0000
0100
0000
1000
0000
0000
0000
0000
0000
0100
0010
,
0100
0010
0100
0000
1001
0000
1000
0100
,
1000
0100
0010
0000
0001
0010
0001
0000
,
0100
0001
0100
1000
0100
0001
0220
0000
,
0330
0000
1000
0000
0100
0010
0100
0000
0001
1000
0001
0000
0100
0010
0100
0000
,
1000
0100
0001
0000
0100
0000
0100
0000
0100
0000
0000
0000
0010
0000
1000
0000
,
0001
0100
0010
0000
0100
1000
0100
0001
,
0010
0001
0100
1000
0100
1000
0200
0000
,
0300
0000
0001
0000
0010
0100
0010
0000
0100
1000
0100
0000
0010
0001
0010
0000
,
0100
1000
0100
0000
0010
0001
0010
0001
0010
0000
0000
0000
0110
0000
1001
0000
,
0110
1001
0110
0000
0100
0010
0220
0330
,
1000
0100
0001
0010
0220
0330
0010
0100
,
0010
0100
2002
3003
0100
0010
0220
0330
,
1000
0000
0100
0000
0001
0000
0010
0000
2002
0000
3003
0000
1000
0100
1000
0000
,
0001
0010
0001
0000
0220
0000
0330
0000
1000
0100
1000
0000
0220
0000
0330
0000
,
0001
0010
0001
0000
0010
0100
1000
0100
0022
0000
0033
0000
0100
0010
0001
0000
,
0010
0100
1000
0000
0220
0000
0330
0000
0001
0010
0100
0000
0022
0000
0033
0000
,
0010
0100
1000
0100
0010
0001
0010
0100
2002
0000
3003
0000
0000
0000
0100
0010
,
0100
0000
1000
0100
0010
0000
1001
0000
0110
0000
0000
0000
0001
0000
0010
0000
,
0100
1000
0100
0000
0011
0000
1100
0000
0022
0000
0033
0000
0000
0000
0100
1000
,
0100
0000
0010
0001
0010
0000
0100
0000
1000
0000
0100
0010
0100
0000
0010
0100
,
0010
0000
0100
0010
0100
0000
0010
0001
0010
0000
0000
0000
1000
0100
0000
0001
,
0010
0000
0100
0000
0010
0001
0000
0100
1000
0000
0010
0000
0100
1000
0000
0000
,
0010
0000
0000
0001
0000
0000
0100
0000
0000
0000
0000
0000
1000
0000
0000
0100
0000
0000
0000
0000
0000
0010
0000
0000
0100
0000
0000
0000
0000
0000
1001
0000
0000
0000
0000
0000
0100
0000
0000
0000
1000
0000
0000
0000
0100
0000
0000
0000
,
0010
0001
0010
0100
0010
0100
0010
0100
0000
1000
0100
0010
,
0001
0000
0000
0000
0000
0000
0001
0000
0010
0000
0100
0000
1000
0000
0000
0000
0000
0000
2200
0000
0000
3300
0000
0000
,
0022
0033
1000
0100
1000
0100
0001
0010
,
0001
0000
0100
0010
0100
0010
0200
0000
,
0300
0000
0010
0001
0010
0000
0100
0000
1000
0000
0100
0000
0010
0000
0000
0000
,
0000
0100
0000
0010
0000
0000
0100
0010
,
0001
0010
0010
0100
0100
0000
1000
1000
,
0100
0100
0010
0010
0001
0001
0220
0330
,
0000
0000
1000
0100
0010
0000
0001
0000
0010
0000
0100
0000
1000
0000
0110
0000
,
0000
1001
0000
0220
0000
0000
0330
0000
;

//---------------dance-single - ----------------
#NOTES:
     dance-single:
     :
     Medium:
     8:
     0.328067,0.391580,0.064820,0.129639,0.032410,248.000000,241.000000,7.000000,14.000000,0.000000,0.000000,0.328067,0.391580,0.064820,0.129639,0.032410,248.000000,241.000000,7.000000,14.000000,0.000000,0.000000:
0000
0000
0000
0000
,
0000
0000
0000
0000
,
1000
0000
0010
0000
0010
0100
1000
0000
,
0100
0000
0001
0000
0100
0010
0100
0000
,
0001
0000
0001
0000
0100
1000
0100
0000
,
0010
0000
1000
0000
1000
0100
0010
0000
,
0100
0000
0010
0000
0010
0001
0010
0000
,
1000
0000
1000
0000
0010
0100
0010
0000
,
0001
0000
0001
0000
0001
0010
0001
0000
,
0010
1000
1000
2000
,
3002
0003
2002
0000
,
3003
0000
0000
1000
0010
0001
0100
0000
,
0000
0000
1001
0000
1001
0000
0000
1000
,
0010
0100
1000
0010
0001
0000
0100
0000
,
0010
0001
0220
0000
,
0330
0000
0000
0100
0100
0100
0000
0000
,
0100
0001
0001
0000
1000
0000
0000
0100
,
0100
0010
0100
0000
0000
0000
1000
0100
,
1000
0000
0010
0000
0001
0010
0001
0000
,
0100
0010
0100
0020
,
0030
0000
0100
0100
0001
0001
0100
0100
,
1000
0000
0100
0100
0100
0000
0010
0000
,
0001
0000
0010
0000
0100
0000
0100
0001
,
0010
0001
0000
1000
0100
1000
0200
0000
,
0300
0001
0010
0010
0100
0100
0010
0010
,
0100
0100
0010
0010
0010
0000
0100
1000
,
0100
0000
0100
0000
0100
0010
0100
0000
,
1000
0100
0001
0010
0100
0000
0010
0100
,
0010
0000
1001
0000
0100
0010
0100
0000
,
1000
0001
1001
1000
,
0001
0110
1000
0010
,
0001
0000
0010
0000
0020
0030
0100
0001
,
0010
1000
0010
0000
0001
0100
0001
0000
,
0010
1000
0010
0010
1000
0000
0000
0100
,
0100
1000
0010
1000
0010
0000
0001
0010
,
0100
0000
0001
0000
0020
0030
0000
0100
,
0100
0010
0010
0000
1000
0000
0100
0000
,
0010
0000
0100
0010
0010
0000
1000
0000
,
0010
0100
0010
0000
1000
0010
0100
0000
,
0010
0000
0000
0100
0000
0000
1000
0000
0000
0000
0000
0000
0100
0000
0000
0001
0000
0000
0100
0000
0000
0000
0100
0000
,
0010
0000
0010
0100
0000
0000
0010
0100
0000
1000
0100
0010
,
0001
0000
0000
0000
0000
0000
0001
0000
0010
0000
0100
0000
1000
0000
0000
0000
0000
0000
2000
0000
0000
3000
0000
0000
,
0002
0003
1000
0100
1000
0000
0001
0010
,
0001
0000
0100
0010
0100
0000
0100
0000
,
0000
0010
0000
0100
1000
0100
0010
0000
,
0000
0100
0000
0010
0000
0000
0100
0010
,
0001
0010
0100
1000
,
0100
0000
0010
0000
0001
0000
0200
0300
,
0000
1000
0010
0000
0010
0100
1000
0010
,
0000
0001
0000
0200
0000
0000
0300
0000
;

//---------------dance-single - ----------------
#NOTES:
     dance-single:
     :
     Easy:
     4:
     0.183876,0.205744,0.055560,0.074080,0.000000,139.000000,133.000000,6.000000,8.000000,0.000000,0.000000,0.183876,0.205744,0.055560,0.074080,0.000000,139.000000,133.000000,6.000000,8.000000,0.000000,0.000000:
0000
0000
0000
0000
,
0000
0000
0000
0000
,
1000
0010
0010
1000
,
0100
0001
0100
0100
,
0001
0001
0100
0100
,
0010
1000
1000
0010
,
0100
0010
0010
0010
,
1000
1000
0010
0010
,
0001
0001
0001
0001
,
0010
1000
1000
2000
,
3002
0003
2002
0000
,
3003
0000
0010
0100
,
0000
1001
1001
0000
,
0010
1000
0001
0100
,
0000
0001
0220
0000
,
0330
0000
0100
0000
,
0100
0000
1000
0000
,
0100
0000
0000
1000
,
0000
0010
0000
0001
,
0100
0010
0100
0020
,
0030
0100
0000
0100
,
1000
0100
0000
0010
,
0001
0010
0000
0100
,
0010
0000
0000
0100
,
0000
0001
0000
0010
,
0000
0010
0000
0100
,
0000
0001
0000
0100
,
0000
0001
0100
0000
,
0000
1001
0000
0100
,
0000
0000
1001
0000
,
0001
0000
1000
0000
,
0001
0010
0000
0100
,
0010
0000
0001
0000
,
0010
0010
1000
0000
,
0100
0000
0010
0001
,
0100
0001
0010
0000
,
0100
0000
1000
0000
,
0010
0000
0010
1000
,
0000
0010
1000
0100
,
0010
1000
0100
0000
,
0010
0000
0010
1000
,
0001
0001
1000
1000
,
0001
1000
1000
0001
,
0001
0100
0100
0100
,
0000
0000
1000
0010
,
0000
0000
0000
0100
,
0001
0000
0100
1000
,
0100
0000
0000
0000
0001
0000
0200
0300
,
0000
0000
0010
0000
0010
0000
1000
0010
,
0000
0001
0000
0100
0000
0000
0000
0000
;

//---------------dance-single - ----------------
#NOTES:
     dance-single:
     :
     Beginner:
     2:
     0.112442,0.137510,0.046300,0.000000,0.000000,85.000000,80.000000,5.000000,0.000000,0.000000,0.000000,0.112442,0.137510,0.046300,0.000000,0.000000,85.000000,80.000000,5.000000,0.000000,0.000000,0.000000:
// measure 0
0000
0000
0000
0000
,  // measure 1
0000
0000
0000
0000
,  // measure 2
1000
0000
0000
1000
,  // measure 3
0000
0001
0000
0100
,  // measure 4
0000
0001
0000
0100
,  // measure 5
0000
0000
1000
0000
,  // measure 6
0100
0000
0010
0000
,  // measure 7
1000
0000
0010
0000
,  // measure 8
0001
0000
0001
0000
,  // measure 9
0010
0000
1000
1000
,  // measure 10
0000
0000
1001
0000
,  // measure 11
0000
0000
0010
0000
,  // measure 12
0000
0000
1001
0000
,  // measure 13
0010
0000
0000
0100
,  // measure 14
0000
0000
0110
0000
,  // measure 15
0000
0000
0100
0000
,  // measure 16
0100
0000
1000
0000
,  // measure 17
0100
0000
0000
1000
,  // measure 18
0000
0010
0000
0001
,  // measure 19
0000
0000
0100
0000
,  // measure 20
0000
0100
0000
0100
,  // measure 21
0000
0100
0000
0010
,  // measure 22
0000
0010
0000
0000
,  // measure 23
0010
0000
0000
0100
,  // measure 24
0000
0001
0000
0010
,  // measure 25
0000
0010
0000
0100
,  // measure 26
0000
0001
0000
0100
,  // measure 27
0000
0000
0100
0000
,  // measure 28
0000
1001
0000
0100
,  // measure 29
0000
0000
1001
0000
,  // measure 30
0001
0000
1000
0000
,  // measure 31
0001
0000
0000
0100
,  // measure 32
0000
0000
0001
0000
,  // measure 33
0010
0000
1000
0000
,  // measure 34
0100
0000
0010
0000
,  // measure 35
0100
0000
0010
0000
,  // measure 36
0100
0000
1000
0000
,  // measure 37
0010
0000
0010
0000
,  // measure 38
0000
0010
0000
0100
,  // measure 39
0000
0000
0100
0000
,  // measure 40
0010
0000
0000
1000
,  // measure 41
0000
0001
0000
1000
,  // measure 42
0000
0000
1000
0000
,  // measure 43
0001
0000
0100
0000
,  // measure 44
0000
0000
1000
0000
,  // measure 45
0010
0000
0000
0100
,  // measure 46
0000
0000
0000
1000
,  // measure 47
0000
0000
0001
0000
,  // measure 48
0000
0010
0000
1000
,  // measure 49
0000
0000
0100
0000
;
