#VERSION:0.83;
#TITLE:ALL SHE WANTS;
#SUBTITLE:;
#ARTIST:KIM PETRAS;
#TITLETRANSLIT:;
#SUBTITLETRANSLIT:;
#ARTISTTRANSLIT:;
#GENRE:;
#ORIGIN:;
#CREDIT:SoulEdge5000;
#BANNER:banner.png;
#BACKGROUND:;
#PREVIEWVID:;
#JACKET:jacket.png;
#CDIMAGE:;
#DISCIMAGE:;
#LYRICSPATH:;
#CDTITLE:;
#MUSIC:All She Wants.ogg;
#OFFSET:0.100000;
#SAMPLESTART:6.000000;
#SAMPLELENGTH:12.000000;
#SELECTABLE:YES;
#BPMS:0.000=130.000,
96.000=135.000,
102.000=129.500,
144.000=130.000,
160.000=130.500,
192.000=129.500;
#STOPS:;
#DELAYS:;
#WARPS:;
#TIMESIGNATURES:0.000=4=4;
#TICKCOUNTS:0.000=4;
#COMBOS:0.000=1;
#SPEEDS:0.000=1.000=0.000=0;
#SCROLLS:0.000=1.000;
#FAKES:;
#LABELS:0.000=Song Start;
#BGCHANGES:;
#KEYSOUNDS:;
#ATTACKS:
;

//---------------dance-single - ----------------
#NOTEDATA:;
#CHARTNAME:;
#STEPSTYPE:dance-single;
#DESCRIPTION:;
#CHARTSTYLE:;
#DIFFICULTY:Hard;
#METER:14;
#RADARVALUES:0.571202,0.660531,0.273020,0.176142,0.387512,454.000000,423.000000,31.000000,20.000000,0.000000,0.000000,0.000000,0.000000,0.000000,0.571202,0.660531,0.273020,0.176142,0.387512,454.000000,423.000000,31.000000,20.000000,0.000000,0.000000,0.000000,0.000000,0.000000;
#CREDIT:;
#NOTES:
0000
0000
0000
0000
,
0000
0000
0000
0000
,
0000
0000
0000
0000
,
0000
0000
0000
0000
,
0100
0010
0100
0000
0010
0001
0010
0000
0100
0001
1000
0000
0010
1000
0001
0000
,
0010
0100
1000
0100
0010
0001
0010
0001
,
0010
0100
0010
0000
0100
0010
0100
0000
0010
0001
0010
0000
0100
1000
0100
0000
,
0010
0001
0010
0100
1000
0100
0010
0100
,
0010
1000
0001
0000
0100
0000
0001
1000
0100
0000
0010
1000
0100
0000
0010
0001
,
0010
0100
1000
0100
0010
0001
0010
0001
,
0220
0330
1000
0100
1000
0100
1000
0100
,
0011
1100
0011
1100
0001
0010
0100
1000
,
0100
0010
0001
0000
0010
0100
1000
0000
0100
0010
0001
0000
0010
0100
1000
0000
,
0010
0001
0010
0100
0010
0001
0010
0100
,
1000
0100
1000
0000
0001
0010
0001
0000
0100
1000
0001
0000
0010
0000
1000
0001
,
0100
1000
0010
0000
0100
0000
0010
0000
0001
0000
0010
0000
0001
0000
0010
0000
,
0100
1000
0010
0000
0001
0010
0100
0000
0010
1000
0100
0000
0010
0001
0100
0000
,
1000
0100
0010
0000
0010
0100
1000
0000
0100
0000
0010
0000
0001
0000
0010
0000
,
1001
0000
0100
0010
0100
0000
0010
0000
1000
0000
0100
0000
0010
0000
0001
0000
,
1000
0100
0010
0000
0001
0010
0100
0000
1000
0000
0100
0000
0010
0000
0001
0000
,
0020
0200
0000
0030
0000
0000
0300
0000
,
0010
0001
0000
0100
0000
0000
1000
0000
,
0200
0020
0000
0330
0001
0000
0100
1000
,
0100
0000
0000
0000
0010
0000
0000
0000
0001
0001
0001
0000
1000
1000
1000
0000
,
0000
0000
0000
0000
0000
0000
0001
0010
0100
1000
0000
0110
,
0000
0000
0000
1001
0000
0000
1000
0100
0010
0001
0000
0110
,
0000
0000
0000
1001
0000
0000
0001
0010
0100
1000
0000
0110
,
0000
0000
0000
0000
1001
0000
0000
0000
1000
0100
1000
0000
0010
0001
0010
0000
,
0100
0000
0000
0110
0000
0000
1000
0100
0010
0001
0000
0110
,
0000
0000
0000
1001
0000
0000
1000
0100
0010
0001
0000
0110
,
0000
0000
0000
1001
0000
0000
0001
0010
0001
0010
0000
0001
,
0000
0000
0000
0000
0110
0000
0000
0000
1000
0100
1000
0000
0001
0010
0001
0000
,
0100
0010
0100
0010
,
0001
0010
0100
0000
1000
0100
0010
0000
1001
0000
0000
0000
0110
0000
0000
0000
,
1000
0100
0010
0001
,
0001
0010
0100
0000
1000
0100
0010
0000
0001
0000
0000
0000
1000
0000
0000
0000
,
0100
0010
0100
0010
,
0001
0010
0100
0000
0001
0010
0100
0000
1001
0000
0000
0000
0110
0000
0000
0000
,
2002
0000
0000
3003
,
0220
0000
0000
0330
,
1000
0100
0010
0000
0001
0010
0100
0000
1000
0100
0010
0000
0001
0010
0100
0000
,
1000
0100
0010
0001
0010
0001
0010
0100
,
1000
0001
0100
0000
0010
0001
0100
0000
1000
0100
0010
0000
0010
0100
0001
0000
,
0010
0100
1000
0100
0010
1000
0010
0001
,
0100
0010
0100
0000
0010
0100
0010
0000
0001
1000
0001
0000
1000
0001
1000
0000
,
0010
0001
0010
0001
0100
1000
0100
1000
,
0011
0000
0010
0100
0010
0100
1000
0100
,
0010
0001
0010
0000
0100
1000
0100
0000
0010
0000
0001
0000
0010
0000
0100
0000
,
0010
0100
0010
0000
0100
1000
0100
0000
0010
0001
0010
0000
0100
1000
0001
0000
,
0100
0010
1000
0001
0010
0100
0001
1000
,
0010
0001
0010
0000
0100
1000
0100
0000
0010
0100
0001
0000
0010
1000
0100
0000
,
0010
0001
0010
0100
0001
0010
0100
1000
,
0010
0100
0010
0000
1000
0100
0010
0000
0001
1000
0001
0000
1000
0001
1000
0000
,
0010
0100
1000
0001
1000
0001
1000
0001
,
0220
0330
0010
0100
0010
0100
0001
1000
,
0001
0010
0100
0000
0001
0010
0100
0000
0001
0000
0010
0000
0100
0000
1000
0000
,
0220
0000
0000
0330
,
2002
0000
0000
3003
,
0220
0000
0000
0330
,
2002
0000
0000
3003
,
0110
0000
0000
0000
;

//---------------dance-single - ----------------
#NOTEDATA:;
#CHARTNAME:;
#STEPSTYPE:dance-single;
#DESCRIPTION:;
#CHARTSTYLE:;
#DIFFICULTY:Medium;
#METER:8;
#RADARVALUES:0.327120,0.502004,0.158527,0.334669,0.008807,260.000000,242.000000,18.000000,38.000000,0.000000,0.000000,0.000000,0.000000,0.000000,0.327120,0.502004,0.158527,0.334669,0.008807,260.000000,242.000000,18.000000,38.000000,0.000000,0.000000,0.000000,0.000000,0.000000;
#CREDIT:;
#NOTES:
0000
0000
0000
0000
,
0000
0000
0000
0000
,
0000
0000
0000
0000
,
0000
0000
0000
0000
,
0100
0100
0010
0010
0200
0000
0000
0300
,
0000
0100
1000
0100
0000
0000
0010
0001
,
0010
0010
0100
0100
0020
0000
0000
0030
,
0010
0000
0010
0100
1000
0100
0010
0000
,
0010
0000
0100
0001
0200
0000
0000
0000
,
0300
0100
1000
0100
0010
0001
0010
0001
,
0220
0330
1000
0000
1000
0100
1000
0000
,
2002
0000
0000
0000
3003
0010
0100
1000
,
0100
0001
0010
1000
0200
0000
0000
0000
,
0300
0001
0010
0200
0000
0000
0300
0000
,
1000
1000
0001
0001
0200
0000
0000
0000
,
0300
0010
0100
0010
0001
0010
0001
0010
,
0100
0010
0001
0100
0020
0000
0000
0000
,
0000
0000
0030
0000
0100
0010
0001
0010
,
2000
0000
3000
0000
1000
0100
0010
0001
,
2002
0000
3003
0000
1000
0100
0010
0001
,
0010
0100
0000
0000
0100
0000
0010
0000
,
0010
0001
0000
0100
0000
0000
1000
0000
,
0100
0010
0000
0000
0001
0000
0100
1000
,
0100
0000
0010
0000
0002
0003
2000
3000
,
0000
0000
0001
1000
,
0000
1001
1000
0001
,
0000
1001
0001
1000
,
0000
0000
1001
0000
2000
3000
0020
0030
,
0100
0110
1000
0001
,
0000
1001
1000
0001
,
0000
1001
0001
0010
,
0000
0000
0110
0000
0200
0300
0020
0030
,
0100
0010
0100
0010
,
0001
0100
1000
0000
1001
0000
0110
0000
,
1000
0100
0010
0001
,
0001
0100
1000
0000
0001
0000
1000
0000
,
0100
0010
0100
0010
,
0001
0001
1001
0110
,
2002
0000
0000
3003
,
0220
0000
0000
0330
,
1000
0010
0001
0100
2000
0000
0000
0000
,
3000
0100
0010
0001
0000
0000
0010
0100
,
1000
0100
0010
0100
2000
0000
0000
0000
,
3000
0100
1000
0100
0000
0000
0010
0001
,
0100
0100
0010
0010
0002
0000
0000
0000
,
0003
0001
0010
0001
0000
0000
0100
1000
,
0010
0000
0010
0100
0010
0100
1000
0000
,
0220
0000
0000
0330
0000
0000
0010
0100
,
0010
0010
0100
0100
0020
0000
0000
0000
,
0030
0010
1000
0001
0000
0000
0001
1000
,
0010
0010
0100
0100
0020
0000
0000
0000
,
0030
0001
0010
0100
0000
0000
0100
1000
,
0010
0010
1000
0010
0002
0000
0000
0000
,
0003
0100
1000
0001
1000
0001
1000
0001
,
0220
0330
0010
0100
0010
0100
0001
1000
,
0001
0010
0100
0000
0001
0010
0100
0000
0001
0000
0010
0000
0100
0000
1000
0000
,
0020
0000
0000
0030
,
2000
0000
0000
3000
,
0020
0000
0000
0030
,
2000
0000
0000
3000
,
0010
0000
0000
0000
;

//---------------dance-single - ----------------
#NOTEDATA:;
#CHARTNAME:;
#STEPSTYPE:dance-single;
#DESCRIPTION:;
#CHARTSTYLE:;
#DIFFICULTY:Easy;
#METER:4;
#RADARVALUES:0.196272,0.264212,0.044035,0.193756,0.000000,156.000000,151.000000,5.000000,22.000000,0.000000,0.000000,0.000000,0.000000,0.000000,0.196272,0.264212,0.044035,0.193756,0.000000,156.000000,151.000000,5.000000,22.000000,0.000000,0.000000,0.000000,0.000000,0.000000;
#CREDIT:;
#NOTES:
0000
0000
0000
0000
,
0000
0000
0000
0000
,
0000
0000
0000
0000
,
0000
0000
0000
0000
,
0100
0000
0010
0000
0200
0000
0000
0300
,
0000
1000
0000
0010
,
0010
0000
0100
0000
0020
0000
0000
0030
,
0010
0010
1000
0010
,
0010
0100
0200
0000
,
0300
1000
0010
0010
,
0100
1000
0000
1000
,
0002
0000
0003
0100
,
0100
0010
0200
0000
,
0300
0000
0010
0100
0000
0000
0000
0000
,
1000
0001
0200
0000
,
0300
0100
0001
0001
,
0100
0001
0020
0000
,
0000
0030
0100
0001
,
2000
3000
1000
0010
,
2000
3000
1000
0010
,
0010
0000
0100
0010
,
0010
0000
0000
1000
,
0100
0000
0001
0100
,
0100
0000
0010
0000
0002
0003
2000
3000
,
0000
0000
0001
1000
,
0000
1001
1000
0001
,
0000
1001
0001
1000
,
0000
1001
0000
0010
,
0000
0100
1000
0001
,
0000
0001
1000
0001
,
0000
1000
0001
0010
,
0000
0110
0000
0010
,
0000
0010
0000
0010
,
0000
1000
0001
0100
,
1000
0100
0010
0001
,
0001
1000
0001
1000
,
0100
0010
0100
0010
,
0001
0001
1000
0100
,
0002
0000
0000
0003
,
0200
0000
0000
0300
,
1000
0001
2000
0000
,
3000
0010
0000
0010
,
1000
0010
2000
0000
,
3000
1000
0000
0010
,
0100
0010
0002
0000
,
0003
0010
0000
0100
,
0010
0010
0010
1000
,
0200
0000
0000
0300
0000
0000
0010
0000
,
0010
0100
0020
0000
,
0030
1000
0000
0001
,
0010
0100
0020
0000
,
0030
0010
0000
0100
,
0010
1000
0002
0000
,
0003
1000
1000
1000
,
0220
0330
0010
0000
0010
0000
0001
0000
,
0001
0001
0001
0100
,
0010
0000
0000
0000
,
1000
0000
0000
0000
,
0001
0000
0000
0000
,
1000
0000
0000
0000
,
0100
0000
0000
0000
;

//---------------dance-single - ----------------
#NOTEDATA:;
#CHARTNAME:;
#STEPSTYPE:dance-single;
#DESCRIPTION:;
#CHARTSTYLE:;
#DIFFICULTY:Beginner;
#METER:2;
#RADARVALUES:0.110718,0.158527,0.026421,0.000000,0.000000,88.000000,85.000000,3.000000,0.000000,0.000000,0.000000,0.000000,0.000000,0.000000,0.110718,0.158527,0.026421,0.000000,0.000000,88.000000,85.000000,3.000000,0.000000,0.000000,0.000000,0.000000,0.000000,0.000000;
#CREDIT:;
#NOTES:
// measure 0
0000
0000
0000
0000
,  // measure 1
0000
0000
0000
0000
,  // measure 2
0000
0000
0000
0000
,  // measure 3
0000
0000
0000
0000
,  // measure 4
0100
0000
0100
0000
,  // measure 5
0000
1000
0000
0010
,  // measure 6
0000
0000
0010
0000
,  // measure 7
0000
0010
0000
0000
,  // measure 8
0010
0000
0100
0000
,  // measure 9
0000
1000
0000
0010
,  // measure 10
0000
1000
0000
0000
,  // measure 11
0001
0000
0000
0000
,  // measure 12
0100
0000
0100
0000
,  // measure 13
0000
0010
0000
0000
,  // measure 14
1000
0000
0100
0000
,  // measure 15
0000
0100
0000
0000
,  // measure 16
0100
0000
0010
0000
,  // measure 17
0000
0000
0100
0000
,  // measure 18
1000
0000
1000
0000
,  // measure 19
1000
0000
1000
0000
,  // measure 20
0010
0000
0100
0000
,  // measure 21
0010
0000
0000
1000
,  // measure 22
0000
0100
0000
0000
,  // measure 23
0100
0000
0001
0000
,  // measure 24
0000
0000
0001
0000
,  // measure 25
0000
1000
0000
0000
,  // measure 26
0000
1001
0000
0000
,  // measure 27
0000
1001
0000
0010
,  // measure 28
0000
0100
0000
0001
,  // measure 29
0000
0000
1000
0000
,  // measure 30
0000
1000
0000
0010
,  // measure 31
0000
0000
0000
0100
,  // measure 32
0000
0010
0000
0010
,  // measure 33
0000
1000
0000
0000
,  // measure 34
1000
0000
0010
0000
,  // measure 35
0001
0000
0000
1000
,  // measure 36
0000
0010
0000
0010
,  // measure 37
0000
0001
1000
0000
,  // measure 38
0001
0000
0000
0000
,  // measure 39
0100
0000
0000
0000
,  // measure 40
1000
0000
1000
0000
,  // measure 41
0000
0010
0000
0010
,  // measure 42
0000
0000
1000
0000
,  // measure 43
0000
1000
0000
0010
,  // measure 44
0000
0000
0001
0000
,  // measure 45
0000
0010
0000
0100
,  // measure 46
0000
0010
0000
0000
,  // measure 47
0100
0000
0000
0000
,  // measure 48
0010
0000
0010
0000
,  // measure 49
0000
1000
0000
0000
,  // measure 50
0010
0000
0010
0000
,  // measure 51
0000
0010
0000
0100
,  // measure 52
0000
1000
0000
0000
,  // measure 53
0000
0000
1000
0000
,  // measure 54
0110
0000
0000
0000
,  // measure 55
0001
0000
0001
0000
,  // measure 56
0010
0000
0000
0000
,  // measure 57
1000
0000
0000
0000
,  // measure 58
0001
0000
0000
0000
,  // measure 59
1000
0000
0000
0000
,  // measure 60
0100
0000
0000
0000
;
