#TITLE:Welcome to the Club;
#SUBTITLE:Discotronic RMX;
#ARTIST:Manian;
#CREDIT:Rynker;
#BANNER:welcome to the club-bn.png;
#BACKGROUND:welcome to the club-bg.png;
#MUSIC:Manian - Welcome To The Club (discotronic remix).ogg;
#OFFSET:0.017;
#SAMPLESTART:28.62;
#SAMPLELENGTH:13.4;
#BPMS:0=152;

//---------------dance-single - Rynker----------------
#NOTES:
     dance-single:
     Rynker:
     Challenge:
     11:
     0.815,0.186,0.198,0.193,1:
0000
0000
0000
0000
,
0000
0000
0000
0000
,
0000
0000
0000
0000
0000
0000
0000
0000
0000
0000
0000
1000
,
0001
0000
0000
0001
0000
0000
0000
0000
0010
0100
0000
0010
,
0000
0000
0100
0000
0000
1000
0000
0000
0001
0000
0000
1000
,
0001
0100
0000
0110
,
0010
0000
1000
0000
0000
1000
0000
0000
0100
0000
0000
0000
,
0100
0000
0000
0010
0000
0000
0000
0000
0010
0001
0000
0001
,
0100
0000
0100
0000
0000
0010
0000
0000
001M
0100
M000
0001
,
0100
0000
M100
0010
0000
0010
1000
00M0
1000
0001
1M00
0001
,
0010
0000
0001
0000
0010
0000
M100
0000
0010
0000
0100
0000
1000
0100
100M
0100
1000
0001
1000
0000
0000
0000
1000
0000
,
0001
0000
0001
0100
0010
0100
0010
0000
0010
1000
0000
0010
,
1000
0000
1000
0001
0010
0001
0010
0000
0010
0100
0000
0100
,
1000
0000
1000
0010
0100
0010
0100
0000
0100
0001
0000
1000
,
0001
0000
0010
0001
0010
0100
MMMM
0000
0100
1000
0000
1000
,
0001
0000
0001
0100
0010
0100
0010
0000
1000
0001
0000
0001
,
0010
0000
0010
0001
1000
0100
1000
0000
0001
1000
0M00
10M0
,
0001
00M0
0001
0100
M001
0100
0010
000M
1000
0010
1000
0010
,
0100
0001
01M0
0001
M010
0001
0010
010M
1000
0100
0000
0000
,
1200
0000
0300
1000
0000
0001
1000
0000
0001
0100
0000
0000
,
0102
0000
0003
0100
0000
0100
0010
0000
0010
1000
0000
1000
,
0200
0000
0300
0100
0000
0100
0010
0000
0010
0001
0000
0001
,
1000
0000
0000
1000
0000
1000
0001
0000
0001
0100
0000
0000
,
0201
0000
0000
0010
0300
0010
1000
0000
1000
0100
0000
0000
,
0120
0000
0000
0001
0030
0001
1000
0000
1000
0002
0003
1000
,
0010
000M
M010
0100
00MM
0100
0010
0M00
0010
1000
0010
1000
,
00M1
0100
0001
M100
0001
0010
0M01
0000
0010
0100
00MM
1000
,
0100
0000
0000
1100
0000
1000
0001
0000
0001
0100
0000
0000
,
0102
0000
0000
0103
0000
0100
0010
0000
0010
1000
0000
1000
,
0200
0000
0000
1300
0000
1000
0001
0000
0001
0010
0000
0010
,
0002
0000
0000
0103
0000
0100
0010
0000
0010
1000
0000
0000
,
1020
0000
0000
1030
0000
1000
0100
0000
0100
0010
0000
0000
,
0021
0000
0000
0001
0030
0001
1000
0000
10M0
0001
M100
0010
,
1000
0000
001M
0000
0100
0000
0010
0000
M100
0000
0010
0000
1000
0000
0M10
0000
1000
0000
0001
0100
0001
0100
0001
0100
,
0001
0100
0001
1000
0001
1000
0001
1000
0001
1000
0001
1000
0100
1000
0100
1000
0100
1000
0100
0000
0000
0000
0000
0000
,
1000
0000
0001
0000
1000
0000
0010
0000
1000
0000
0010
0000
1000
0000
0001
0000
0010
0000
0002
0000
0010
0003
0001
0000
,
1000
0010
0100
0010
0100
0010
0100
0001
1000
0200
0310
0001
,
0010
0100
0010
0100
0010
0001
1000
0001
1000
0002
0000
0000
,
0103
0000
0100
0010
0000
1000
0001
0000
0001
1000
0010
0100
,
0010
0100
0001
0100
0010
1000
0001
0010
0100
0020
0031
0010
,
0100
1000
0100
0010
0100
0010
0001
1000
0001
2000
3010
0100
,
0010
0100
0010
1000
0001
1000
0010
0000
0010
0200
0000
0000
,
0301
0000
0010
0001
0010
0000
0001
0000
0000
0000
0100
0000
0001
0000
0000
0000
1000
0000
0001
0000
0000
0000
1000
0000
,
0010
0000
0010
0100
0000
0100
0001
0000
0001
0021
0000
0000
,
0100
0000
0000
0130
1000
0100
0100
1000
0001
0200
0000
0000
,
0010
0000
0300
0100
0010
0100
0100
0000
0010
2000
0000
0000
,
0001
0000
3001
0010
0000
0000
1100
0000
0000
0010
0001
0010
,
0001
0100
0010
0100
0010
1000
0010
0100
0010
1010
1000
0100
,
0010
0001
0010
0001
0000
0001
0100
0000
0100
0120
0000
0000
,
1000
0030
0000
1000
0000
0100
0010
0000
0010
0001
0000
1000
,
0100
0000
0010
0001
0000
0000
1001
0000
0000
1000
0001
0100
,
0010
0000
1000
0010
0000
0010
1000
0000
0001
0100
0001
0010
,
0001
0000
0010
0100
0000
0100
0120
0000
0030
0010
0100
0010
,
0100
0000
1000
0001
0000
0001
1000
0000
1000
0001
0100
0010
,
0100
0000
0100
0010
0000
0010
1010
0000
0000
0101
0100
0001
,
1000
0010
1000
0010
1000
0100
1000
0100
0010
0100
0010
0001
,
1000
0010
0100
0001
0100
0010
1000
0100
0010
0001
1000
0100
,
0010
0001
1000
0010
0100
0001
1000
0010
0100
0001
0000
0000
,
0001
0000
0010
0100
0000
0000
1200
0000
0300
1000
0001
1000
,
0001
0000
0100
0001
0000
0001
0100
0000
0100
0010
0100
0010
,
1000
0000
0010
1000
0000
1000
1200
0000
0000
0310
0001
1000
,
0001
0000
1000
0001
0000
0001
0100
0000
0100
0001
1000
0010
,
1000
0000
0010
0100
0000
0001
0201
0000
0000
0301
0010
0100
,
0010
0000
0100
1000
0000
1000
0001
0000
0001
0100
0010
1000
,
0001
0000
0001
0010
0000
0010
0210
0000
0000
M310
0001
0M10
,
0001
0000
1M00
0010
000M
1000
0M10
0000
M100
0001
01M0
0001
,
M010
0001
M100
0010
010M
0010
1000
0000
0000
1000
0001
1000
,
0001
0100
0010
0100
0010
0100
0010
1000
0001
1000
0001
0010
,
0100
0010
0001
0100
0010
0100
0002
0000
0003
0001
0010
0001
,
1000
0010
1000
0100
0010
0001
1000
0010
0100
0001
0100
0010
,
1000
0100
0010
0001
0010
0100
2000
0000
0000
3010
1000
0001
,
0010
0001
1000
0010
0100
0001
0100
0000
0100
0010
1000
0001
,
0010
0100
0010
0001
1000
0010
0200
0000
0000
0301
1000
0100
,
0010
0000
0001
0000
0100
0000
0010
0000
0100
0000
0010
0000
1000
0000
0001
0000
0010
0000
0001
0010
0001
0010
0001
0010
,
0001
1000
0001
1000
0001
1000
0010
1000
0010
1000
0010
1000
0010
0000
0000
0000
0000
0000
1000
0000
0000
0000
0000
0000
,
0001
0100
0010
0100
0000
0000
0010
0000
0100
0010
0000
0000
,
1000
0010
1000
0010
0010
1000
0001
0000
0000
0001
1000
0100
,
0010
0100
0010
0100
1000
0100
1000
0001
0100
0001
0100
0010
,
1000
0010
1000
0010
0100
0010
0100
0001
0100
1001
0000
0000
,
0010
0000
0000
0001
0000
0000
1000
0000
0100
1000
0000
0100
,
0000
0000
0010
0000
0000
0001
0000
0000
0100
0000
0000
0000
,
0100
0000
0000
0110
0000
0010
1000
0000
1000
0100
0000
0000
,
0100
0000
0100
1000
0000
0001
MM00
0000
0001
0100
0000
0000
,
0010
0000
0000
1010
0000
0000
1000
0000
0100
0010
0000
0010
,
0001
0000
0100
0000
0000
0001
0000
0000
0010
0001
0000
0000
,
1000
0001
1000
2020
,
0000
0000
0000
0000
3030
0000
0000
0000
0000
1000
0000
0000
,
0000
0000
0000
1001
0000
1000
0100
0000
0100
1000
0000
0000
,
1100
0000
0000
0010
0001
0010
0001
1000
0010
0100
0000
0000
,
1001
0000
0000
1000
0001
1000
0010
0000
1000
0010
0000
0010
,
0100
0000
0000
0100
0001
0100
0001
0000
1000
0001
0000
0001
,
0010
0000
0000
0010
0100
0010
0100
0000
0100
1000
0000
0000
,
1001
0000
0000
1000
0001
1000
0001
0000
0100
0010
0000
0000
,
0110
0000
0000
0100
0000
0001
0010
0000
0010
0100
000M
01M0
,
1000
0000
M010
0100
00M0
M001
0010
0000
00M1
1000
0M01
1000
,
00M1
0000
1000
0000
0001
0000
M100
0000
0010
0000
010M
0000
0010
1000
0001
1000
0001
1000
0001
0000
0000
0000
0010
0000
,
0100
0000
0000
0100
0000
0100
1000
0000
1000
0001
0100
0001
,
0102
0000
0000
0103
0000
0100
0010
0000
0010
1000
0010
0100
,
0001
0000
0000
0001
0010
0001
0010
0000
0100
1000
0000
1000
,
0001
0000
1000
0001
0100
0010
MM00
0000
1000
0001
0000
0001
,
0010
0000
0010
0100
0010
0001
1000
0000
1000
0001
0000
0001
,
0100
0000
0100
0010
0100
0010
1000
0000
1000
0010
0000
0M10
,
1000
000M
1000
0100
001M
M100
0010
0M00
0001
0M10
0001
1000
,
00M1
1000
0001
M100
0010
1000
001M
1000
0010
0100
0000
0100
,
0001
0000
0001
0010
0000
0010
0100
0000
0100
0020
0000
0031
,
0010
0000
0010
0001
0000
0001
1000
0000
1000
0020
0000
0130
,
0001
0000
0001
0010
0000
0010
0100
0000
0100
0100
0000
0100
,
1000
0000
1000
0010
0000
0010
0100
0000
0100
0001
0000
0000
,
0101
0011
1010
2100
,
3100
0000
0100
1000
0000
0001
0010
0000
0001
M100
00M0
010M
,
M010
0000
01M0
M001
0000
0M01
0010
M000
0010
010M
1000
01M0
,
1000
00M1
M100
0010
100M
0M10
1000
0010
M100
0001
0100
0010
,
1000
0100
0010
0001
0100
0010
1000
0000
0000
1000
0010
0100
,
0001
0010
0100
1000
0010
0100
0010
0000
0010
0100
0000
0100
,
0002
0003
0001
1000
0000
1000
0200
0300
0000
1000
0001
0100
,
0010
1000
0001
0010
0100
0010
0100
0000
0010
0001
0000
0001
,
1000
0000
1000
0001
0000
0001
0100
0000
0100
0010
0000
0010
,
1000
0000
1000
0100
0000
0100
0010
0000
0010
M100
0010
0100
,
1000
0M01
1000
00M1
0100
001M
1000
0M10
1000
0001
0100
0001
,
0100
0000
0000
0010
1000
0010
1000
0000
0000
0011
0000
0000
,
1100
1001
1010
0210
,
0301
0000
0000
0011
0000
0001
1000
0000
1000
0200
0000
0000
,
1300
0000
0000
1000
0000
1000
0010
0000
0010
0200
0000
0000
,
0301
0000
0001
0010
0000
0000
1100
0000
0000
1000
0001
1000
,
0001
0100
0010
0100
0010
1000
0001
0010
0001
0010
0100
0010
,
0001
1000
0001
0100
0010
1000
0001
0000
1000
0001
1000
0001
,
0010
0001
0010
0100
1000
0001
1000
0001
0100
0001
0000
0001
,
1000
0000
1000
0001
1000
1000
1001
0000
0000
1000
0001
1000
,
0001
0000
0010
0001
0000
0001
0100
0000
0100
0010
1000
0001
,
0100
0000
0100
0010
0000
0010
2010
0000
3000
1000
0100
1000
,
0100
0000
0100
0010
0000
0010
0001
0000
0001
1000
0001
1000
,
0010
0000
0010
0100
0000
0100
0102
0000
0003
0001
0010
0001
,
0010
0000
0100
1000
0000
1000
0001
0000
1000
0001
0100
0010
,
1000
0000
0010
1000
0000
0010
2010
0000
0000
3001
0100
0001
,
0100
0000
0001
0010
0000
M010
0100
000M
0100
M010
0001
1000
,
00M1
1000
0001
0100
M010
0100
001M
0000
0000
0010
1000
0010
,
0100
0001
0100
0010
1000
0010
0100
0001
1000
0100
0010
0001
,
1000
0010
0100
0010
0100
0001
1000
0100
0010
0001
0010
0100
,
1000
0001
0100
0010
0100
0001
0010
0100
0010
0001
0010
0001
,
1000
0001
1000
0001
0100
0001
0100
0010
1000
0010
0100
0001
,
1000
0100
0010
0001
0010
0100
0010
0001
0100
0010
1000
0100
,
0010
0100
0010
0001
1000
0001
0100
0010
0100
0010
1000
0100
,
0010
0001
0100
0001
1000
0100
0010
0001
0010
0100
0010
0001
,
1000
0000
0001
0000
0100
0000
0010
0100
0010
0100
0010
0100
0001
0100
0001
1000
0001
2000
0002
0000
0000
0000
0000
0000
,
0000
0000
3003
0000
0000
0000
0000
0000
0000
0000
0000
0000
;

//---------------dance-single - Rynker----------------
#NOTES:
     dance-single:
     Rynker:
     Hard:
     8:
     0.685,0.186,0.193,0.249,1:
0000
0000
0000
0000
,
0000
0000
0000
0000
,
0000
0000
0000
0000
0000
0000
0000
0000
0000
0000
0000
0001
,
1000
0000
0000
1000
0000
0000
0000
0000
0100
0010
0000
0100
,
0000
0000
0100
0000
0000
0100
0000
0000
1000
0000
0000
0001
,
0100
0001
0000
0001
,
1000
0000
0100
0000
0000
0100
0000
0000
0100
0000
0000
0000
,
0010
0000
0000
0001
0000
0000
0000
0000
0001
1000
0000
0001
,
1000
0000
0001
0000
0000
1000
0000
0000
1000
0001
0000
0001
,
0100
0000
0100
0010
0000
0010
1000
0000
1000
0002
0000
0000
,
0010
0000
0000
0100
0000
0000
1000
0000
0000
1000
0000
0003
,
0100
0000
0001
0100
0000
0001
1000
0000
0001
0010
0000
0100
,
1000
0000
0001
0010
0000
0001
0100
0000
0100
0010
0000
1000
,
0001
0000
0010
0001
0000
0100
0001
0000
1000
0001
0000
0010
,
0100
0000
0010
0100
0010
0100
0000
0000
1000
0001
0000
1000
,
0001
0000
0001
0100
0000
0001
0100
0000
0001
0010
0000
0100
,
0010
0000
0100
1000
0000
0100
1000
0000
0001
1000
0000
1000
,
0001
0000
0001
0100
0000
0010
1000
0000
1000
0010
1000
0010
,
0100
0001
0100
0001
1000
0001
1000
0001
1000
0001
0000
0000
,
1200
0000
0300
1000
0000
0001
1000
0000
0001
0100
0000
0000
,
0102
0000
0003
0100
0000
0100
0010
0000
0010
1000
0000
1000
,
0200
0000
0300
0100
0000
0100
0010
0000
0010
0001
0000
0001
,
2000
0000
3000
1000
0000
1000
0001
0000
0001
0100
0000
0000
,
0201
0000
0000
0010
0300
0010
1000
0000
1000
0100
0000
0000
,
0120
0000
0000
0001
0030
0001
1000
0000
1000
0002
0003
1000
,
0010
0000
0010
1000
0000
1000
0001
0000
0001
1000
0001
1000
,
0001
1000
0001
1000
0010
1000
0010
0000
1000
0001
0000
0000
,
1002
0000
0000
1003
0000
1000
0001
0000
0001
0100
0000
0000
,
0102
0000
0000
0103
0000
0100
0010
0000
0010
1000
0000
1000
,
0200
0000
0000
1300
0000
1000
0001
0000
0001
0010
0000
0010
,
0002
0000
0000
0103
0000
0100
0010
0000
0010
1000
0000
0000
,
1020
0000
0000
1030
0000
1000
0100
0000
0100
0010
0000
0000
,
0021
0000
0000
0001
0030
0001
1000
0000
1000
0001
1000
0001
,
1000
0001
1000
0001
1000
0010
1000
0010
1000
0010
0100
0010
,
0100
0001
0100
0001
1000
0001
1000
0001
1000
0001
0000
0000
,
1000
0010
1000
0200
,
0300
0000
0000
0010
0000
0010
0001
0000
0001
0200
0000
0000
,
0300
0000
0100
0010
0000
0010
1000
0000
1000
0200
0000
0000
,
0300
0000
1000
0100
0000
1000
0001
0000
1000
0010
0000
0000
,
1010
1001
0101
1200
,
0300
0000
0000
0010
0000
0010
0001
0000
0001
0200
0000
0000
,
0300
0000
0010
1000
0000
1000
0010
0000
0010
0200
0000
0000
,
0301
0000
0010
0001
0010
0000
0001
0000
0000
0000
0100
0000
0001
0000
0000
0000
1000
0000
0010
0000
0000
0000
0000
0000
,
1001
0011
0101
0102
,
1003
0000
0000
1100
0000
0100
1000
0000
1000
0002
0000
0000
,
0013
0000
0000
0110
0000
0010
0100
0000
0100
2000
0000
0000
,
0001
0000
3001
0010
0000
0000
1100
0000
0000
0011
0000
0000
,
0101
0011
0101
0012
,
1003
0000
0000
1010
0000
1000
0100
0000
1000
0020
0000
0000
,
1030
0000
0000
0001
0000
0010
0001
0000
0100
0002
0000
0000
,
0013
0000
0010
0001
0000
0000
1001
0000
0000
1000
0001
1000
,
0001
0000
0001
1000
0000
0010
1000
0000
1000
0100
1000
0100
,
0010
0000
0010
0001
0000
0010
0002
0000
0000
0103
0010
0100
,
0010
0000
0010
1000
0000
1000
0100
0000
1000
0100
0010
0100
,
0010
0000
0100
0010
0000
0010
0002
0000
0003
0001
0100
0001
,
0100
0010
1000
0010
1000
0100
1000
0100
0010
0100
0010
0001
,
1000
0010
0100
0010
0100
0010
1000
0100
1000
0100
0010
0001
,
0010
0001
1000
0001
1000
0001
1000
0001
1000
0001
0000
0000
,
0001
0000
1000
0001
0000
0000
1000
0000
0000
0100
0000
0000
,
1000
0000
0000
0010
0000
0000
0100
0000
0000
0001
0010
0001
,
0010
0000
0000
0001
0000
0000
0200
0000
0000
0310
1000
0010
,
1000
0000
0000
0010
0000
0000
1000
0000
0000
0100
1000
0100
,
1000
0000
0000
0001
0000
0000
0200
0000
0000
0301
1000
0001
,
1000
0000
0000
0001
0000
0000
0100
0000
0000
0010
0100
0010
,
0100
0000
0000
0001
0000
0000
0010
0000
0000
0010
0001
0010
,
0001
0000
1000
0010
0000
1000
0010
0000
1000
0001
1000
0001
,
1000
0010
0100
0010
0100
0010
0100
0000
0000
0001
0000
0000
,
0010
0000
0000
0001
0000
0000
0100
0000
0000
0010
0100
0010
,
0100
0000
0000
0001
0000
0000
2000
0000
0000
3100
1000
0100
,
1000
0000
0000
0100
0000
0000
0010
0000
0000
0001
0010
0001
,
0010
0000
0000
0001
0000
0000
0200
0000
0000
0310
0100
0010
,
0100
0000
0000
0010
0000
0000
1000
0000
0000
0001
1000
0001
,
1000
0000
0000
0001
0000
0000
0020
0000
0000
0031
0010
0001
,
0010
0000
0000
0001
0000
0000
0100
0000
0000
0010
0100
0010
,
0100
0001
0001
1000
,
0001
0100
0001
0100
0000
0000
0100
0000
0001
1000
0000
0000
,
0010
1000
0100
0010
0100
1000
0010
0000
0000
0001
1000
0001
,
1000
0001
1000
0010
1000
0010
1000
0010
1000
0010
1000
0010
,
0100
0010
0100
0010
0100
0010
1000
0001
1000
0001
0000
0000
,
0010
0000
0000
0001
0000
0000
1000
0000
0100
1000
0000
0100
,
0000
0000
0010
0000
0000
0001
0000
0000
0100
0000
0000
0000
,
0100
0000
0000
0110
0000
0010
1000
0000
1000
0100
0000
0000
,
0100
0000
0100
1000
0000
0001
0000
0000
0001
0100
0000
0000
,
0010
0000
0000
1010
0000
0000
1000
0000
0100
0010
0000
0000
,
0001
0000
0100
0000
0000
0001
0000
0000
0000
0001
0000
0000
,
1000
0001
1000
2020
,
0000
0000
0000
0000
3030
0000
0000
0000
0000
0000
0000
0000
,
0000
0000
0000
0001
0000
1000
0100
0000
0100
1000
0000
0000
,
2000
0000
0000
3100
0000
0100
0010
0000
0010
0001
0000
0000
,
0002
0000
0000
0103
0000
0100
0010
0000
0010
1000
0000
1000
,
0100
0000
0000
0100
0000
1000
0001
0000
0100
0001
0000
0010
,
0002
0000
0000
1003
0000
1000
0010
0000
0010
1000
0000
0000
,
2000
0000
0000
3100
0000
0100
0010
0000
0010
0001
0000
0000
,
0002
0000
0000
0103
0000
0001
0010
0000
0010
0100
0000
0100
,
1000
0000
0010
0100
0000
0100
0001
0000
1000
0001
1000
0001
,
1000
0001
1000
0001
1000
0001
1000
0001
1000
0001
0000
0010
,
0100
0000
0000
0100
0000
0100
1000
0000
1000
0001
0000
0000
,
0102
0000
0000
0103
0000
0100
0010
0000
0010
1000
0000
1000
,
0200
0000
0000
0310
0000
0001
0100
0000
0100
0010
0000
0010
,
1000
0000
0100
1000
0100
1000
0000
0000
0001
0010
0000
0000
,
0002
0000
0000
0103
0000
0100
0010
0000
0010
1000
0000
0000
,
2000
0000
0000
3100
0000
0100
0010
0000
0001
0010
0000
0010
,
0001
0000
0001
0100
0000
0100
0001
0000
0004
4000
0000
0000
,
0000
0000
0000
3003
,
0001
0010
0100
0200
,
1300
0000
0000
1000
0000
0001
1000
0000
0001
0200
0000
0000
,
0310
0000
0000
0010
0000
0010
0100
0000
0100
0002
0000
0000
,
0003
0000
0010
0100
0000
0100
1000
0000
1000
0001
0000
0000
,
0101
0011
1010
2100
,
3100
0000
0000
0100
0000
1000
0001
0000
0100
0001
0000
0100
,
0001
0000
1000
0100
0000
1000
0100
0000
0040
0004
0000
0000
,
0000
0000
0000
0033
,
0000
0000
0000
0000
0000
0000
1000
0000
0000
1000
0010
0100
,
0001
0010
0100
1000
0010
0100
0010
0000
0010
0100
0000
0100
,
0002
0003
0001
1000
0000
1000
0200
0300
0000
1000
0001
0100
,
0010
1000
0001
0010
0100
0010
0100
0000
0010
0001
0000
0001
,
1000
0000
1000
0001
0000
0001
0100
0000
0100
0010
0000
0010
,
1000
0000
1000
0100
0000
0100
0010
0000
0010
M100
0010
0100
,
1000
0M01
1000
00M1
0100
001M
1000
0M10
1000
0001
0100
0001
,
0100
0000
0000
0010
1000
0010
1000
0000
0000
0011
0000
0000
,
1100
1001
1010
0210
,
0301
0000
0000
0011
0000
0001
1000
0000
1000
0200
0000
0000
,
1300
0000
0000
1000
0000
1000
0010
0000
0010
0200
0000
0000
,
0301
0000
0001
0010
0000
0000
1100
0000
0000
1000
0001
1000
,
0001
0100
0010
0100
0010
1000
0001
0010
0001
0010
0100
0010
,
0001
1000
0001
0100
0010
1000
0001
0000
1000
0001
1000
0001
,
0010
0001
0010
0100
1000
0001
1000
0001
0100
0001
0000
0001
,
1000
0000
1000
0001
1000
1000
1001
0000
0000
1000
0001
1000
,
0001
0000
0010
0001
0000
0001
0100
0000
0100
0010
1000
0001
,
0100
0000
0100
0010
0000
0010
2010
0000
3000
1000
0100
1000
,
0100
0000
0100
0010
0000
0010
0001
0000
0001
1000
0001
1000
,
0010
0000
0010
0100
0000
0100
0102
0000
0003
0001
0010
0001
,
0010
0000
0100
1000
0000
1000
0001
0000
1000
0001
0100
0010
,
1000
0000
0010
1000
0000
0010
2010
0000
0000
3001
0100
0001
,
0100
0000
0001
0010
0000
M010
0100
000M
0100
M010
0001
1000
,
00M1
1000
0001
0100
M010
0100
001M
0000
0000
0010
1000
0010
,
0100
0001
0100
0010
1000
0010
0100
0001
1000
0100
0010
0001
,
1000
0010
0100
0010
0100
0001
1000
0100
0010
0001
0010
0100
,
1000
0001
0100
0010
0100
0001
0010
0100
0010
0001
0010
0001
,
1000
0001
1000
0001
0100
0001
0100
0010
1000
0010
0100
0001
,
1000
0100
0010
0001
0010
0100
0010
0001
0100
0010
1000
0100
,
0010
0100
0010
0001
1000
0001
0100
0010
0100
0010
1000
0100
,
0010
0001
0100
0001
1000
0100
0010
0001
0010
0100
0010
0001
,
1000
0000
0001
0000
0100
0000
0010
0100
0010
0100
0010
0100
0001
0100
0001
1000
0001
2000
0002
0000
0000
0000
0000
0000
,
0000
0000
3003
0000
0000
0000
0000
0000
0000
0000
0000
0000
;

//---------------dance-single - Rynker----------------
#NOTES:
     dance-single:
     Rynker:
     Medium:
     5:
     0.318,0,0.129,0.099,0.103:
0000
0000
0000
0000
,
0000
0000
0000
0000
,
0000
0000
0000
0000
,
0000
0000
0000
0000
,
0000
0000
0000
1000
,
0000
0000
0000
0001
,
0000
0000
0000
0000
,
0010
0010
0000
0000
,
0000
0000
0000
0001
,
0001
1000
1000
0010
,
0000
1000
0200
1300
,
0001
1000
0000
0001
,
0100
0010
0000
0100
,
0000
0100
0000
0001
,
1000
0000
0000
0200
0000
0000
0000
0000
0300
1000
0000
0000
,
0010
0100
0000
0010
,
1000
0100
0010
0011
,
0011
1001
1001
1000
,
0010
0100
0001
0010
,
0001
0100
0010
1000
,
0100
1000
0001
0100
,
0101
0100
0010
1000
,
1010
0010
1000
0002
,
0023
0031
0100
0010
,
0010
1000
1000
0001
,
0000
1000
0100
0010
,
0100
0100
1000
1001
,
1001
0000
1000
1000
,
0010
0000
0010
0100
,
0010
0100
0100
0001
,
0001
0000
1000
1000
,
1100
0000
0100
0010
,
0110
0000
0100
1000
,
0001
0100
0010
2000
,
0000
0000
0000
0000
0000
0000
0000
3000
0000
0001
0000
0000
,
0001
0001
0001
0001
,
0000
0000
0000
0010
0000
0010
0001
0000
0001
0010
0000
0000
,
0000
0010
0100
1000
,
0000
0001
0100
0010
,
0100
0001
0100
0020
,
0030
0000
0000
1000
0000
0010
1000
0000
0010
1000
0000
0000
,
0000
0000
0000
1000
0000
0100
1000
0000
0100
1000
0000
0000
,
0000
1000
0000
1000
,
0001
0100
0010
0200
,
0000
0300
0000
0010
0000
0100
0010
0000
0100
0020
0000
0000
,
0000
0000
0030
1000
0000
0001
1000
0000
0001
2000
0000
0000
,
0000
0000
0000
0000
0000
0000
0000
3000
0000
0001
0000
0000
,
0010
0001
0100
0020
,
0000
0000
0000
0130
0000
0001
0100
0000
0001
2000
0000
0000
,
0000
0000
0000
3100
0000
1000
0001
0000
1000
0002
0000
0000
,
0000
0000
0003
0100
,
0010
0100
0001
1000
,
1000
0100
1000
1000
,
0001
0100
0001
0010
,
0001
0000
0000
0100
0000
0000
0020
0000
0000
0100
0030
0000
,
0000
0100
0000
0001
,
0000
1000
0000
1000
,
0100
0010
0001
0020
,
0000
0000
0000
0000
0000
0000
0000
0030
0000
0001
0000
0000
,
0001
1000
0000
1001
,
1000
0010
0100
0000
,
0110
0000
0001
0000
,
1001
0000
1000
0000
,
1100
0000
0100
0000
,
0110
0000
0100
0000
,
1001
0000
1000
0000
,
0000
0000
0000
0101
,
0100
0010
1000
0100
,
0010
0100
0010
0100
,
1000
0000
0001
0100
,
0010
0000
0100
0001
,
1000
0000
0100
0010
,
0110
0000
0100
1000
,
0001
0100
0001
0010
,
0001
1000
0010
2000
,
0000
0000
0000
0000
,
0000
0000
0000
3001
,
0000
0001
0000
0010
,
0000
0000
0000
0010
0000
0000
0001
0000
1000
0001
0000
0000
,
0000
1000
1000
1000
,
0000
0001
0001
0001
,
0000
0100
0000
0010
,
1000
0000
0000
0200
0000
0000
0000
0000
0300
1000
0000
0000
,
0001
0100
0000
0001
,
0010
0001
1000
0001
,
0000
1000
0010
0200
,
0000
0000
0000
0000
,
0000
0000
0000
0000
0000
0000
0000
0000
0300
0001
0000
0000
,
0001
0000
0000
1000
,
1000
0000
0000
0100
,
0100
0000
0000
0010
,
0010
0000
0000
0001
,
0001
0000
0000
1000
,
1000
0000
0000
0010
,
0010
0010
0000
0100
,
0100
0000
0000
0002
0000
0000
0000
0000
0003
1000
0000
0000
,
1010
0000
0010
0100
,
0110
0000
0001
1000
,
1001
0000
0001
0011
,
0011
0010
0100
1000
,
1001
0000
1000
0001
,
0110
0000
0100
0001
,
1000
0100
0010
0100
,
1000
0001
0100
0010
,
0010
0010
0010
0200
,
0000
0000
0300
0001
0000
0100
0001
0000
0100
0002
0000
0000
,
0000
0003
0000
1000
0000
0100
1000
0000
0100
1000
0000
0000
,
0000
0001
0010
0001
,
1000
0010
0100
0020
,
0000
0000
0030
0100
0000
0001
1000
0000
0001
1000
0000
0000
,
0000
0001
0010
0001
,
0000
0000
0000
1000
,
0010
0000
0000
1000
0000
0010
1000
0000
0000
0010
0000
0000
,
0100
0000
0000
0001
0000
0010
0001
0000
0000
0010
0000
0000
,
0001
1000
1000
0001
,
0000
0000
0000
0100
0000
0000
0010
0000
0000
0100
0000
0010
,
0100
0000
0000
0000
0000
0000
0000
0000
0000
0001
0000
1000
,
0001
0000
0000
1000
,
0100
0000
0000
0010
0000
0000
0100
0000
0000
1000
0000
0100
,
1000
0000
0000
0100
0000
1000
0100
0000
0000
1000
0000
0000
,
0001
0100
0010
0120
,
0000
0000
0030
1000
0000
0001
1000
0000
0001
1000
0000
0000
,
0000
0000
0000
0001
0000
0010
0100
0000
0010
0100
0000
0000
,
0000
0000
0000
1000
,
0001
0100
0010
1001
,
0000
0000
0000
1000
0000
0100
0010
0000
0100
1000
0000
0000
,
0000
0000
0000
1000
0000
0001
0100
0000
0010
0100
0000
0000
,
0001
1000
1001
1000
,
0100
0000
0000
0010
0000
0000
0100
0000
0000
1000
0000
0001
,
1000
0000
0000
0001
0000
0000
0100
0000
0000
0010
0000
0100
,
0010
0000
0000
0100
0000
0000
0001
0000
0000
0010
0000
0001
,
0010
0000
0000
0100
0000
0000
1000
0000
0000
0001
0000
0100
,
0010
0000
0000
0100
0000
0000
0001
0000
0000
0010
0000
0100
,
0010
0000
0000
0100
0000
0000
1000
0000
0000
0001
0000
1000
,
0010
1000
0001
0100
,
0000
0100
0100
0001
,
0010
0000
0000
0001
0000
1000
0010
0000
1000
0001
0000
0000
,
1000
0000
0000
0001
0000
0010
0001
0000
0010
0001
0000
0100
,
0001
0100
0000
0100
,
0010
1000
0100
1000
,
1001
0000
1000
0001
,
0101
0000
0100
0010
,
0000
0000
0000
1000
0000
0100
1000
0000
0100
1000
0000
0000
,
0000
0001
0010
0002
,
0000
0003
0000
0000
0000
0000
0000
0000
0000
0000
0000
0000
;

//---------------dance-single - Rynker----------------
#NOTES:
     dance-single:
     Rynker:
     Easy:
     3:
     0.218,0,0.142,0.047,0:
0000
0000
0000
0000
,
0000
0000
0000
0000
,
0000
0000
0000
0000
,
0000
0000
0000
0000
,
0000
0000
1000
0000
,
0000
0000
0000
1000
,
0000
0000
0000
0000
,
0000
0001
0000
0000
,
0000
0000
0000
0010
,
0000
0000
0000
0010
,
0010
0010
0000
0001
,
0000
1000
0000
0001
,
0100
0001
0000
0100
,
0000
0100
0000
0010
,
0100
0010
0010
0010
,
0000
1000
0000
0100
,
1000
0100
0000
1000
,
0000
1000
0000
1001
,
0000
0001
0000
0101
,
0100
0100
0100
0010
,
0000
0100
0001
1000
,
0001
0000
1000
0100
,
0010
0000
0010
0100
,
1001
0000
1000
0001
,
0101
0000
0100
0002
,
0003
0100
0010
2000
,
3000
0100
0000
0100
,
1000
0010
0100
0010
,
0100
0000
0001
0100
,
0001
0000
1000
0100
,
1000
0000
0000
0001
,
0001
0000
0000
0010
,
0010
0000
0000
0001
,
0000
1000
1000
0002
,
0000
0000
0000
1003
,
1000
1000
1000
1000
,
0000
0001
0000
0100
,
0000
0000
0000
0000
,
0000
0000
0000
0001
,
0010
0001
1000
0001
,
0000
1000
0010
1000
,
0000
0100
0000
2000
,
0000
0000
3000
0001
,
0001
0001
0001
0001
,
0000
1000
1000
1000
,
0000
0010
0010
0010
,
0000
0000
0000
0100
,
0100
0100
0100
0100
,
0000
0001
0001
0001
,
0000
1000
1000
1000
,
0000
0000
0000
1001
,
0000
1000
0000
1010
,
0000
0010
0000
0110
,
0000
0100
0000
0101
,
0000
0001
0000
2000
,
0000
0001
0000
3002
,
0000
0010
0000
0023
,
0000
0100
0000
0230
,
0000
0000
0300
1000
,
0001
1000
0000
0001
,
0000
0100
0000
0001
,
0100
0010
0000
0100
,
0000
0010
0000
1000
,
0100
0010
0100
1000
,
0000
0001
0000
0100
,
0000
0001
0000
0010
,
0000
0002
0000
1003
,
0000
1000
0000
0010
,
0000
0100
0000
0010
,
0000
1000
0000
0100
,
0000
0010
0000
0100
,
0000
1000
0010
0100
,
0010
0100
0000
0001
,
0000
0010
0000
0002
,
0000
0000
0003
1000
,
0000
0000
0000
1000
,
0000
0000
0000
1000
,
0000
0001
0000
1000
,
0000
0000
0000
0001
,
0100
0010
0000
0100
,
0000
0110
0000
0010
,
0000
0100
0100
0100
,
0000
0001
0000
1000
,
1000
0100
0000
1000
,
0000
0001
0000
0100
,
0000
0010
0000
0200
,
0000
0000
0000
0000
,
0000
0000
0300
0001
,
0001
0000
0000
1000
,
1000
0000
0000
0100
,
0100
0000
0000
0010
,
0010
0000
0000
0100
,
0100
0000
0000
1000
,
1000
0000
0000
0001
,
0001
0000
0000
0100
,
0000
0000
0000
1001
,
0000
1000
0100
1000
,
1100
0000
0000
0011
,
0000
0000
0000
1001
,
0000
0000
0000
0101
,
0000
0000
0000
0110
,
0000
0000
0000
1010
,
0000
1000
0100
1000
,
0000
0000
0000
0001
,
0010
0001
0100
0001
,
0000
1000
1000
1000
,
0000
0100
0100
0100
,
0000
0010
0010
0010
,
0010
0001
0001
0001
,
0000
1000
1000
1000
,
0000
0000
0000
1001
,
0000
0000
0000
1001
,
0000
0000
0000
0101
,
0000
0000
0000
1010
,
0000
1001
0000
0011
,
0000
0000
0000
0001
,
0100
0010
0010
1000
,
0100
0010
0010
0100
,
1000
0001
0100
0001
,
0000
0001
0000
0100
,
0001
0100
0001
0100
,
0000
0001
0001
0001
,
0000
1000
0000
0000
,
0000
0000
0000
1001
,
0000
1000
0100
1100
,
0000
0100
0010
0110
,
0000
0000
0000
0110
,
0000
0000
0000
1001
,
1001
1001
0000
1000
,
0010
1000
0000
0010
,
0100
0010
0000
0101
,
0000
0100
0000
0001
,
0010
0001
0000
1001
,
0000
1000
0000
0010
,
0000
0010
0000
0010
,
0000
0000
0000
1001
,
0000
1000
0100
1000
,
0000
0001
0010
0001
,
0000
0100
0000
0010
,
0000
0100
0000
0110
,
0000
0010
0000
1000
,
0100
1000
0000
0001
,
0010
0001
0100
0001
,
0000
0100
0000
0010
;

//---------------dance-single - Rynker----------------
#NOTES:
     dance-single:
     Rynker:
     Beginner:
     1:
     0.105,0.031,0.026,0.004,0:
0000
0000
0000
0000
,
0000
0000
0000
0000
,
0000
0000
0000
0000
,
0000
0000
1000
0000
,
0000
0000
0001
0000
,
0000
0000
0000
0000
,
0010
0000
0000
0000
,
0100
0000
0000
1000
,
0000
0000
0000
0001
,
0000
0000
0000
0000
,
1000
0000
0000
0000
,
0001
0000
0000
1000
,
0000
0000
0000
0010
,
0000
0000
0100
0000
,
0000
0100
0000
0000
,
0000
0000
0001
0001
,
0001
0000
0000
0000
,
1000
0000
0000
0000
,
0001
0000
0000
0000
,
1001
0000
0000
0000
,
1001
0000
0000
0000
,
1000
0000
0000
0000
,
0010
0000
0000
0000
,
0100
0000
0000
0000
,
0100
0000
0000
0001
,
0000
0000
0001
0000
,
0001
0000
0000
0000
,
1000
0000
0000
0000
,
1000
0000
0000
0100
,
0000
0000
0000
0010
,
0000
0000
0100
0000
,
0000
1000
0000
0000
,
0000
0001
0000
1001
,
0000
0000
0000
1000
,
2000
3000
0000
0000
,
0000
0000
1000
0000
,
0000
1000
0000
0000
,
0000
0000
0000
0010
,
0000
0000
0000
0000
,
0000
0010
0000
0000
,
0100
0000
0000
0001
,
0000
0000
0000
0000
,
1000
0000
0000
0001
,
0000
0000
0010
0000
,
0001
0000
0000
0000
,
0000
1000
1000
1000
,
0000
0000
0000
0001
,
0000
0100
0000
0001
,
0000
0010
0000
0010
,
0000
0001
0000
1000
,
0000
0000
0000
1000
,
0000
0000
0000
1000
,
0000
0000
0000
0001
,
0000
0000
0000
0100
,
0000
0000
0000
0010
,
0000
0000
0000
0010
,
0000
0000
0000
1000
,
0000
0000
0001
0000
,
0000
0000
0000
1000
,
0000
1000
0000
0001
,
0000
0000
0000
0010
,
0000
0000
0000
0001
,
0000
0000
0000
1000
,
0000
0000
0000
0010
,
0000
0000
0000
1000
,
0000
0000
0000
0001
,
0000
0000
0000
0010
,
0000
0000
0000
0001
,
0000
0000
0000
0100
,
0000
0000
0000
0010
,
0000
0000
0000
0100
,
0000
0000
0000
0001
,
0000
0000
0000
0100
,
0000
0000
0000
0001
,
0000
0000
0000
1000
,
0000
0000
0000
0000
,
0000
0100
0000
1000
,
0000
0000
0000
1000
,
0000
0000
0000
1000
,
0000
0000
0000
0100
,
0000
0010
0000
0100
,
0000
0000
0000
0010
,
0000
0000
0000
0010
,
0000
0010
0000
0001
,
0000
0000
0000
1000
,
1000
1000
0000
0000
,
0000
0000
0000
0001
,
0000
0000
0000
0000
,
1000
0000
0000
0000
,
0010
0000
0000
0000
,
0100
0000
0000
0000
,
0001
0000
0000
0000
,
1000
0000
0000
0000
,
0100
0000
0000
0000
,
0010
0000
0000
0000
,
0001
0000
0000
0000
,
1000
0000
0000
0000
,
0001
0000
0000
0000
,
1000
0000
0000
0000
,
0100
0000
0000
0000
,
0010
0000
0000
0000
,
0001
0000
0000
0000
,
1000
0000
0000
0000
,
0010
0000
0000
0100
,
0000
0100
0000
0100
,
0000
0000
0000
0001
,
0000
0000
0000
1000
,
0000
0000
0000
1000
,
0000
1000
0000
1000
,
0000
0000
0000
0100
,
0000
0000
0000
0010
,
0010
0010
0000
0010
,
0000
0000
0000
0001
,
0000
0000
0000
1000
,
0000
0001
0000
1000
,
0000
0000
0000
0000
,
0000
1001
0000
0000
,
0000
0000
0000
0110
,
0000
0000
0000
0000
,
0000
0001
0000
0001
,
0000
1000
0000
1000
,
0000
0000
0000
0001
,
0000
0000
0000
0010
,
0000
0000
0000
0001
,
0000
0000
0000
0100
,
0000
0000
0000
0100
,
0000
0000
0000
0010
,
0000
0000
0000
1000
,
0000
0000
0000
1000
,
0000
0000
0000
0100
,
0000
0000
0000
1000
,
0000
0000
0000
0001
,
0000
0000
0000
0100
,
0000
0000
0000
0100
,
0000
0000
0000
0001
,
0000
0000
0000
1000
,
0000
1000
0000
0000
,
0000
0001
0000
0001
,
0000
0000
0000
1001
,
0000
0000
0000
1000
,
1000
1000
0000
0001
,
0000
0000
0000
0100
,
0100
0100
0000
0010
,
0000
0000
0000
0010
;
