#TITLE:VerTex^3;
#ARTIST:ZiGZaG;
#GENRE:Hardcore;
#CDTITLE:.\CDTITLES\ITG3.png;
#BANNER:V^3.png;
#BACKGROUND:V^3bg.png;
#MUSIC:VerTex^3.ogg;
#OFFSET:-0.010;
#SAMPLESTART:60.06;
#SAMPLELENGTH:18.0;
#BPMS:0=78.5,14=314,79=144.84,87=72.42,91=157,123=340,189=98.85,193=135,225=67.5,228=340,245.02=370,261=388,277=400,285=200,289=562.5,329=602.525,369=154.76;
#STOPS:14=1.335,123=2.696,228=0.706;
#BGCHANGES:-0.55=introvideo=1=0=0=1=====,
15.5=763_JumpBack.mpg=1.100=0=0=1=====,
47=098_JumpBack_NTSC_DV.avi=1=0=0=1===FadeLeft==,
79=052_JumpBack_NTSC_DV.avi=1=0=0=1=====,
87.25=purplevidbg=0.900=1=0=1===CrossFade==,
89.5=cyanvid=0.600=1=0=1===CrossFade==,
91=319_JumpBack_NTSC_DV.avi=1=0=0=1=====,
107=1028_JumpBack.avi=1=0=0=1===SlideUp==,
123=bg=1=0=0=1=====,
125=701_JumpBack.avi=1.400=0=0=1=====,
141=701_JumpBack.avi=0.350=1=0=1=Kaleidoscope2x2==CrossFade==,
156.9=701_JumpBack.avi=1=1=0=1=Kaleidoscope2x2==CrossFade==,
157=640_JumpBack.avi=1=0=0=1===FadeUp==,
181=640_JumpBack.avi=1=0=0=1====0^1^0^1=,
181.500=640_JumpBack.avi=1=0=0=1=====,
182=640_JumpBack.avi=1=0=0=1====0^0^1^1=,
182.500=640_JumpBack.avi=1=0=0=1=====,
183=640_JumpBack.avi=1=0=0=1====1^0^0^1=,
185=640_JumpBack.avi=1=0=0=1=====,
185.500=640_JumpBack.avi=1=0=0=1====1^1^0^1=,
186=640_JumpBack.avi=1=0=0=1=====,
186.5=640_JumpBack.avi=1=0=0=1====1^0^1^1=,
187=640_JumpBack.avi=1=1=0=1===CrossFade==,
189=cubething=0.6=1=0=1===CrossFade==,
192.833=bg=1=0=0=1=====,
193=973_JumpBack.mpg=0.7=0=0=1====1^0^1^1=,
209=955_JumpBack.mpg=0.2=1=0=1=Kaleidoscope2x2==CrossFade==,
225=955_JumpBack.mpg=0.120=0=0=1=Kaleidoscope2x2====,
226=955_JumpBack.mpg=0.050=0=0=1=Kaleidoscope2x2====,
227=bg=1=0=0=1=====,
227.396=1028_JumpBack.avi=1=0=0=1=====,
227.729=bg=1=0=0=1====1^1^0^1=,
227.958=bg=2=1=0=1===CrossFade=0^0^0^1=,
227.979=bg=1=0=0=1====0^0^0^1=,
228=logonotcentered=0.800=0=0=1====0^0^0^1=,
229=982_JumpBack.mpg=1=0=0=1=====,
245=982_JumpBack.mpg=1.2=1=0=1===CrossFade==,
261=956_JumpBack.mpg=1.2=1=0=1===CrossFade==,
277=956_JumpBack.mpg=1.6=1=0=1===CrossFade==,
285=bluetunnel=0.7=1=0=1===CrossFade==,
289=763_JumpBack.mpg=1.2=0=0=1=====,
329=707_JumpBack.avi=1.4=1=0=1===CrossFade==,
370=bg=0.8=0=0=1=====,
392=V^3bg.png.png=0.1=1=0=1===CrossFade=0^0^0^1=,
999=-=1=0=0=0; //#BGCHANGES2:15=flash=1=0=0=1=====,
79=flash=1=0=0=1====1^0^1^1=,
91=flash=1=0=0=1=====,
123=flash=1=0=0=1====1^0^1^1=,
125=flash=1=0=0=1====1^0^0^1=,
155=quicklogo=1=0=0=1=====,
155.333=off=1=0=0=1=====,
155.667=quicklogo=1=0=0=1=====,
156=off=1=0=0=1=====,
156.333=quicklogo=1=0=0=1=====,
156.667=off=1=0=0=1=====,
157=flash=1=0=0=1=====,
193=flash=1=0=0=1====1^0^0^1=,
197=flash=1=0=0=1====1^0^0^1=,
198.5=logoflashred=1=0=0=1=====,
205=flash=1=0=0=1=====,
206.5=logoflashwhite=1=0=0=1=====,
213=flash=1=0=0=1====1^0^1^1=,
214.5=logoflashpurple=1=0=0=1=====,
221=flash=1=0=0=1====0^1^1^1=,
222.5=logoflashcyan=1=0=0=1=====,
227=flash=1.500=0=0=1====0^1^1^1=,
228=flash=2.800=0=0=1====0^1^1^1=,
229=flash=2.800=0=0=1====1^1^0^1=,
289=flash=1=0=0=1====1^1^1^1=,
354.833=whitein=1=0=0=1=====;

//---------------dance-single - ----------------
#NOTES:
     dance-single:
     :
     Hard:
     11:
     0.724,0.857,0.129,0.175,0.441:
0000
0000
0000
0000
,
0000
0000
0000
0000
,
2000
0000
3100
0010
0001
0000
1000
0000
0001
0010
0100
1000
0100
0000
0010
0100
,
2002
0000
0000
0000
3003
0000
1000
01M0
,
1000
0001
0100
0010
,
1000
0000
0010
0000
0100
0000
0010
0100
,
00M1
1000
0100
0010
,
0100
0000
1000
0000
0010
1M00
0001
0000
,
1000
0100
0010
0100
,
1000
0000
0001
0000
0100
0000
0010
1000
,
001M
0100
0001
1100
,
1000
0100
10M0
010M
1000
0100
0010
0000
,
0001
0100
0010
1000
,
0100
0000
0010
0000
0100
0000
1000
001M
,
0100
0001
0100
0010
,
1000
0000
0001
0000
1000
0100
10M0
0000
,
0010
0100
0001
1000
,
0010
0100
0010
1000
,
0010
0000
0100
0000
0001
0100
0001
0100
,
0010
1000
0010
1000
0001
0100
2002
0000
,
00M0
0000
0M00
00M0
,
0000
0000
0000
0000
0M00
0000
0000
0000
3003
0000
0000
0000
2000
0100
0100
0001
,
3100
0000
M012
0003
0000
0000
0100
1000
0001
0100
0010
0000
1000
0100
100M
0100
,
1000
0001
0100
0010
1000
0001
0010
0100
,
1000
0000
0001
0000
0100
0000
0100
0000
0100
0000
0100
0000
0010
1000
0M10
1000
,
0010
0000
0100
0000
0001
0000
0010
0000
0100
0000
1000
0000
1100
0000
0000
1000
,
0100
0000
0010
0000
0001
0000
0001
0000
1000
0000
0100
0000
0010
0001
0010
0001
,
M010
0001
1000
0010
0100
0010
1000
0100
,
0010
0000
0001
0000
1000
0000
0001
0000
0010
0000
0100
0000
1000
0001
1M00
0001
,
1000
0100
0010
0001
1000
0010
0100
0100
,
0010
0000
0000
0000
1000
0000
0000
0000
0001
0000
0000
0000
0010
0000
0000
0000
0100
0000
0000
0000
1000
0000
0000
0000
0102
0003
MMM0
0000
0000
0000
0000
0000
,
0000
0000
1000
01M0
1000
0000
0002
0000
,
1003
0000
001M
1000
010M
0000
0010
0000
,
0001
0000
0010
0001
10M0
0000
0110
0000
,
0010
1000
0100
0010
,
0001
0010
010M
0000
1000
0000
0100
0000
,
0010
0001
1000
0010
,
1000
0000
0010
M100
0001
0000
0100
001M
,
1000
0000
0000
0000
0000
0000
0010
0000
0000
0000
0000
0000
0100
0000
0010
0000
0100
0000
0010
0000
0000
M10M
0000
0000
,
0010
0100
0010
0000
1000
001M
1000
0000
,
0001
0010
0001
1000
,
0100
0000
0010
0001
M010
0M01
0010
0000
,
0001
0010
0100
1000
,
0100
1000
00M1
0000
0010
0000
0100
0000
,
0010
0001
1000
0010
,
0100
0000
0010
1000
0010
0100
0001
0100
,
0010
1000
0100
0010
0001
1000
0010
1000
,
0001
0010
0200
000M
00M0
M000
00M0
000M
,
00M0
0000
0300
0000
1000
0100
100M
0100
1000
0000
0001
0000
0100
0000
0010
0000
,
1000
0000
0010
0000
0100
0010
0000
0010
1000
0000
0001
0000
0010
0000
0010
0000
,
0010
0000
0010
0000
0100
1000
010M
1000
0100
0000
0010
0000
0001
0000
1000
0000
,
0010
0100
0110
0000
0100
0010
0M10
0100
,
0010
0000
0000
0000
1000
0001
10M0
0001
1000
0000
0010
0000
0100
0000
0001
0000
,
1000
0010
0100
0010
1000
0100
0010
0001
,
0010
0000
0000
0000
0000
0000
0001
0000
0000
0000
0000
0000
1000
0000
0000
0010
0000
0000
1000
0000
0M00
0010
0000
0000
1000
0000
0000
0000
0000
0000
0001
0000
0000
0000
0000
0000
0010
0000
0000
0000
0000
0000
0001
0000
0000
0000
0000
0000
,
1000
0100
0010
0001
1000
001M
0100
001M
,
1000
0000
0000
0000
0000
0000
0000
0000
0004
4000
0000
0000
0000
0000
0000
0000
0MM0
0000
0000
0000
0000
0000
0000
0000
3003
0000
0000
0000
0000
0000
1000
0000
,
0001
0000
1000
0001
1000
0000
0001
0000
,
0100
0000
0010
1000
0010
0000
0100
0000
,
0001
0000
0010
0100
0000
0100
1000
0000
,
0001
2001
0001
3001
,
MMM0
0000
1000
0010
1000
0000
0001
0000
,
0100
0000
0001
0010
0001
0000
1000
0000
,
0100
0000
1000
0001
0000
0001
1000
0000
,
0010
0000
0210
030M
0010
1000
0100
1000
,
01MM
1000
0100
0000
1000
0000
0100
0000
,
1000
0000
0001
0100
0001
0000
0100
0000
,
0001
0000
1000
0010
0000
0010
0100
0000
,
0001
0000
2100
0000
0100
0000
3100
00MM
,
1000
0M01
1000
0000
0001
0000
1000
0000
,
0100
0000
1000
0100
1000
0000
0001
0000
,
1000
0000
2002
0000
00M0
0M00
00M0
0000
,
3003
0000
0000
0000
1000
0000
0000
0000
0000
0100
0000
0000
0000
0000
0010
0000
,
0000
0000
0000
0100
0000
0000
0000
0000
1000
0000
0000
0000
0000
0001
0000
0000
,
0000
0000
0100
0000
0000
0000
0000
0010
0000
0000
0000
0000
1000
0000
0000
0000
,
0000
0001
0000
0000
0000
0000
0010
0000
0000
0000
0000
0100
0000
0000
0000
0000
,
1000
0000
0000
0000
0000
0001
0000
0000
0000
0000
0100
0000
0000
0000
0000
0010
,
0000
0000
0000
0000
1000
0000
0000
0000
0000
0001
0000
0000
0000
0000
0100
0000
,
0000
0000
0000
0010
0000
0000
0000
0000
1000
0000
0000
0000
0000
0001
0000
0000
,
0000
0000
0010
0000
0000
0000
0000
0100
0000
0000
0000
0000
1000
0000
0000
0000
,
0000
0010
0000
0000
0000
0000
0100
0000
0000
0000
0000
0010
0000
0000
0000
0000
,
1000
0000
0000
0000
0000
0001
0000
0000
0000
0000
0010
0000
0000
0000
0000
0100
,
0000
0000
0000
0000
100M
0000
0000
0000
0000
0001
0000
0000
0000
0000
1000
0000
,
0M00
0000
0000
0001
0000
0000
0000
0000
0100
0000
0000
0000
0000
0010
0000
0000
,
000M
0000
0100
0000
0000
0000
0000
0010
0000
0000
0000
0000
1000
0000
0000
0000
,
0000
0100
0000
0000
0000
0000
1000
0000
000M
0000
0000
0100
0000
0000
0000
0000
,
0010
0000
0000
0000
0000
0001
0000
0000
M000
0000
0010
0000
0000
0000
0000
0001
,
0000
0000
0000
0000
0100
0000
0000
0000
00M0
0001
0000
0000
0000
0000
0100
0000
,
0000
0000
0000
0001
0000
0000
0000
0000
1000
0000
0000
0000
0000
0001
0000
0000
,
M000
0000
0010
0000
0000
0000
0000
0100
0000
0000
0000
0000
100M
0000
0000
0000
,
0000
0010
0000
0000
0000
0000
0100
0000
0000
0000
0000
0001
M000
0000
0000
0000
,
0010
0000
0000
0000
0000
0100
0000
0000
0000
0000
1000
0000
000M
0000
0000
0100
,
0000
2002
0000
0000
,
0000
3003
0000
1000
0100
1000
0100
0010
0001
1000
0010
1000
,
0001
0010
0001
0100
0010
1000
0010
1000
0001
0010
0100
0010
,
0001
1000
0010
0100
0001
0010
0100
0010
0001
1000
0010
1000
,
0001
0010
0100
1000
0001
0100
0010
0100
0001
0010
0100
0010
,
0001
1000
0000
2002
0000
0000
0000
0000
0000
0000
0000
0000
,
0000
3003
0000
MMMM
0000
0000
0000
0000
0000
0000
0000
0000
;

//---------------dance-single - ----------------
#NOTES:
     dance-single:
     :
     Medium:
     9:
     0.471,0.497,0.138,0.101,0.018:
0000
0000
0000
0000
,
0000
0000
0000
0000
,
1000
0001
1000
0001
1000
0000
0000
0001
,
2002
0000
3003
1000
,
0100
0010
0001
0010
,
0100
1000
0001
0100
,
0100
0010
0000
1000
,
0010
0100
0000
0001
,
0001
0010
0100
1000
,
0001
0100
0010
1000
,
1000
0010
0000
0100
,
0001
0010
0100
1000
,
0001
0100
0001
0010
,
0100
1000
0000
0001
,
0001
0100
0010
1000
,
0010
0100
0000
0001
,
0010
0100
0010
0001
,
1000
0010
0100
0001
,
0001
1000
1000
0010
,
0100
0010
0000
0220
,
0000
0000
0000
0000
,
0330
0000
0000
0000
0000
0000
0000
0000
0000
0000
0000
0000
1000
1000
0000
0000
,
0000
0001
0000
0000
0000
0000
0010
0100
0010
0100
0010
0000
0100
0000
1000
0000
,
0100
0000
0010
0001
0010
0000
0001
0000
,
1000
0000
0010
0100
0001
1000
0010
0000
,
0010
0000
0100
0000
0100
0000
0001
0010
,
0100
1000
0001
0000
1100
0000
0010
0000
,
1000
0000
0010
0000
0100
0000
0001
0100
,
0001
0100
0010
1000
0010
0000
1000
0000
,
1000
0001
0001
0100
,
0110
0000
0010
1000
0100
0000
0011
0000
,
0000
0010
0001
1000
,
0000
0100
1000
0001
,
0000
0100
0100
0010
,
1000
0100
0010
0001
,
1000
1000
0000
0010
,
0000
0100
0001
0010
,
0000
0100
0100
1000
,
0001
0100
0010
1000
,
0010
1000
0010
0000
0100
0000
0001
0000
,
0010
0010
0100
1000
,
0000
0001
0100
0010
,
1000
0010
0100
0001
,
0000
0010
0010
0100
,
0000
1000
1000
0001
,
0000
0100
0010
1000
,
0010
0100
0001
0010
,
0100
2000
0000
0000
,
3000
0000
1000
0100
0010
0001
0010
0100
,
1000
0000
0001
0100
0010
1000
0010
0100
,
0001
0001
1000
1000
0001
0001
1000
0001
,
0100
0000
0001
0001
1000
1000
0001
1000
,
0100
0000
1000
0100
0010
0001
1000
0100
,
0010
0000
0001
0010
0100
1000
0001
0010
,
0100
0000
1000
1000
0001
0001
1000
1000
,
0001
0000
0001
0001
1000
1000
0001
0001
,
1000
0110
1001
0110
,
1001
1000
0100
1000
,
0000
0001
0100
0001
,
0000
1000
0000
0010
,
0000
0100
0000
0101
,
0000
0010
1000
0100
,
0000
0010
0001
0100
,
0000
0010
0000
1000
,
0000
0001
0000
0110
,
0000
0001
0000
1000
,
0000
0010
0000
0100
,
0000
0001
0000
0010
,
0000
0100
0000
1100
,
0000
0001
0000
0100
,
0000
0001
0000
0100
,
0000
0000
2002
0000
0000
0000
0000
3003
,
0000
0000
1000
0000
0000
0000
0000
1000
,
0000
0000
0001
0000
,
0000
0001
0000
0000
0000
0000
1000
0000
,
0000
0000
0000
1000
0000
0000
0000
0000
,
0001
0000
0000
0000
0000
0001
0000
0000
,
0000
0000
0100
0000
0000
0000
0000
0100
,
0000
0000
0010
0000
,
0000
0010
0000
0000
0000
0000
1000
0000
,
0000
0000
0000
1000
0000
0000
0000
0000
,
0010
0000
0000
0000
0000
0010
0000
0000
,
0000
0000
0100
0000
0000
0000
0000
0100
,
0000
0000
0001
0000
,
0000
0001
0000
0000
0000
0000
0010
0000
,
0000
0000
0000
0010
0000
0000
0000
0000
,
0100
0000
0000
0000
0000
0100
0000
0000
,
0000
0000
1000
0000
0000
0000
0000
1000
,
0000
0000
0001
0000
,
0000
0001
0000
0000
0000
0000
0100
0000
,
0000
0000
0000
0100
0000
0000
0000
0000
,
0010
0000
0000
0000
0000
0010
0000
0000
,
0000
2002
0000
0000
,
3003
0000
1000
0100
1000
0010
0100
0010
,
0100
0001
0100
0001
0100
0001
1000
0001
,
1000
0001
0010
0100
0010
0100
1000
0010
,
1000
0010
0100
0001
0100
0001
0010
0001
,
0010
2002
0000
0000
,
0000
3003
0000
M00M
0000
0000
0000
0000
;

//---------------dance-single - ----------------
#NOTES:
     dance-single:
     :
     Easy:
     7:
     0.370,0.406,0.248,0.138,0: // measure 1
0000
0000
0000
0000
,  // measure 2
0000
0000
0000
0000
,  // measure 3
1000
0001
1000
0001
,  // measure 4
2002
0000
3003
1000
,  // measure 5
0100
1000
0000
0001
,  // measure 6
0000
0001
0000
0100
,  // measure 7
0010
1000
0000
0100
,  // measure 8
0000
0100
0000
0011
,  // measure 9
0000
0100
0000
1000
,  // measure 10
0001
0100
0000
0010
,  // measure 11
0000
0010
0000
1000
,  // measure 12
0100
0010
0001
0100
,  // measure 13
0000
0001
0000
0100
,  // measure 14
0000
0100
0000
0010
,  // measure 15
0000
1000
0000
0010
,  // measure 16
1000
0001
0000
0010
,  // measure 17
0000
0010
0000
0100
,  // measure 18
0000
0100
0000
1001
,  // measure 19
0000
0001
0000
1000
,  // measure 20
0000
1001
0000
2002
,  // measure 21
0000
0000
3003
2002
,  // measure 22
0000
0000
0003
3001
,  // measure 23
1000
0001
0001
1000
,  // measure 24
1000
0010
0100
0001
,  // measure 25
0011
0100
0100
1000
,  // measure 26
1000
0001
0100
1010
,  // measure 27
0100
0010
1001
0001
,  // measure 28
0001
0100
0100
0010
,  // measure 29
1000
0100
0010
0001
,  // measure 30
1000
0001
0100
0010
,  // measure 31
0010
0000
0000
0000
0000
0000
1000
0000
0000
0000
0000
0000
0010
0000
0000
0000
0000
0000
0210
0300
0000
0000
0000
0000
,  // measure 32
0000
0001
0100
0001
,  // measure 33
0000
1000
0000
1000
,  // measure 34
0000
0010
0100
0001
,  // measure 35
0000
0010
0000
0010
,  // measure 36
0000
0110
0000
1100
,  // measure 37
0000
0001
0000
0001
,  // measure 38
0000
0100
0010
1000
,  // measure 39
0000
0100
0000
0100
,  // measure 40
0000
0010
0000
0010
,  // measure 41
0000
0001
1000
0100
,  // measure 42
0000
0010
0000
0010
,  // measure 43
0000
0011
0000
1100
,  // measure 44
0000
0001
0000
0100
,  // measure 45
0000
0010
0000
1000
,  // measure 46
0000
0010
0000
0100
,  // measure 47
0000
0001
1000
0010
,  // measure 48
0000
0202
0000
0000
,  // measure 49
0303
1000
1001
0001
,  // measure 50
1000
0010
0100
0001
,  // measure 51
0001
0010
0110
0100
,  // measure 52
1100
0001
1010
0001
,  // measure 53
0001
1000
0010
0100
,  // measure 54
0001
0010
0100
1100
,  // measure 55
0001
0100
0100
0010
,  // measure 56
0100
0001
0010
0100
,  // measure 57
0100
1100
0011
1100
,  // measure 58
0011
1000
0100
1000
,  // measure 59
0000
0001
0000
0001
,  // measure 60
0000
0100
0000
0100
,  // measure 61
0000
0010
1000
0100
,  // measure 62
0000
0010
0001
0010
,  // measure 63
0000
0100
0000
0100
,  // measure 64
0000
1000
0000
1000
,  // measure 65
0000
0001
0100
0001
,  // measure 66
0000
1000
0000
1000
,  // measure 67
0000
0010
0000
0100
,  // measure 68
0000
0010
1000
0100
,  // measure 69
0000
0010
0000
0010
,  // measure 70
0000
0001
0000
1000
,  // measure 71
0000
0001
0000
0100
,  // measure 72
0000
2002
0000
0000
,  // measure 73
3003
0000
1000
0000
0000
0000
0000
0100
,  // measure 74
0000
0000
1000
0000
,  // measure 75
0000
0001
0000
0000
0000
0000
0100
0000
,  // measure 76
0000
0000
0000
0010
0000
0000
0000
0000
,  // measure 77
1000
0000
0000
0000
0000
0100
0000
0000
,  // measure 78
0000
0000
0010
0000
0000
0000
0000
0001
,  // measure 79
0000
0000
0100
0000
,  // measure 80
0000
0010
0000
0000
0000
0000
1000
0000
,  // measure 81
0000
0000
0000
0100
0000
0000
0000
0000
,  // measure 82
0010
0000
0000
0000
0000
0001
0000
0000
,  // measure 83
0000
0000
0100
0000
0000
0000
0000
0010
,  // measure 84
0000
0000
1000
0000
,  // measure 85
0000
0010
0000
0000
0000
0000
0100
0000
,  // measure 86
0000
0000
0000
0001
0000
0000
0000
0000
,  // measure 87
0010
0000
0000
0000
0000
0100
0000
0000
,  // measure 88
0000
0000
1000
0000
0000
0000
0000
0001
,  // measure 89
0000
0000
0100
0000
,  // measure 90
0000
0010
0000
0000
0000
0000
1000
0000
,  // measure 91
0000
0000
0000
0010
0000
0000
0000
0000
,  // measure 92
0100
0000
0000
0000
0000
0010
0000
0000
,  // measure 93
0000
2002
0000
0000
,  // measure 94
3003
1000
0100
0010
,  // measure 95
0001
0010
0100
1000
,  // measure 96
0100
0010
0001
0010
,  // measure 97
0100
1000
0100
0010
,  // measure 98
0001
2002
0000
0000
,  // measure 99
0000
3003
0000
0000
0000
0000
0000
0000
;

//---------------dance-single - ----------------
#NOTES:
     dance-single:
     :
     Beginner:
     4:
     0.273,0.268,0.037,0,0: // measure 1
0000
0000
0000
0000
,  // measure 2
0000
0000
0000
0000
,  // measure 3
0001
1000
0001
1000
,  // measure 4
0001
0000
0000
0001
,  // measure 5
0000
0001
0000
1000
,  // measure 6
0000
1000
0000
0010
,  // measure 7
0000
0001
0000
0010
,  // measure 8
0000
0010
0000
0100
,  // measure 9
0000
0010
0000
0001
,  // measure 10
1000
0010
0000
0100
,  // measure 11
0000
0100
0000
0001
,  // measure 12
0000
0000
1000
0010
,  // measure 13
0000
1000
0000
0010
,  // measure 14
0000
0010
0000
0100
,  // measure 15
0000
0001
0000
0100
,  // measure 16
0000
1000
0000
0100
,  // measure 17
0000
0100
0000
0010
,  // measure 18
0000
0010
0000
0001
,  // measure 19
0000
1000
0000
0001
,  // measure 20
0000
0001
0000
0001
,  // measure 21
0000
0000
0000
0001
,  // measure 22
0000
0000
0000
1000
,  // measure 23
0001
1000
1000
0001
,  // measure 24
0001
0100
0010
1000
,  // measure 25
0100
0010
0010
0001
,  // measure 26
0001
1000
0010
0001
,  // measure 27
0010
0100
0001
1000
,  // measure 28
1000
0010
0010
0100
,  // measure 29
0001
0010
0100
1000
,  // measure 30
0001
1000
0010
0100
,  // measure 31
0100
0001
0100
0010
,  // measure 32
0000
1000
0000
1000
,  // measure 33
0000
0001
0000
0001
,  // measure 34
0000
0100
0000
1000
,  // measure 35
0000
0100
0000
0100
,  // measure 36
0000
0010
0000
0001
,  // measure 37
0000
1000
0000
1000
,  // measure 38
0000
0010
0100
0001
,  // measure 39
0000
0010
0000
0010
,  // measure 40
0000
0100
0000
0100
,  // measure 41
0000
1000
0001
0010
,  // measure 42
0000
0100
0000
0100
,  // measure 43
0000
0100
0000
0001
,  // measure 44
0000
1000
0000
0010
,  // measure 45
0000
0100
0000
0001
,  // measure 46
0000
0100
0000
0010
,  // measure 47
0000
1000
0000
0100
,  // measure 48
0000
0010
0000
0000
,  // measure 49
0000
0001
0001
1000
,  // measure 50
0001
0100
0010
1000
,  // measure 51
1000
0100
0010
0010
,  // measure 52
0001
1000
0001
1000
,  // measure 53
1000
0001
0100
0010
,  // measure 54
1000
0100
0010
0001
,  // measure 55
1000
0010
0010
0100
,  // measure 56
0010
1000
0100
0010
,  // measure 57
0010
1001
0110
0000
,  // measure 58
0100
0001
0000
0001
,  // measure 59
0000
1000
0000
1000
,  // measure 60
0000
0010
0000
0010
,  // measure 61
0000
0100
0000
0010
,  // measure 62
0000
0100
0000
0100
,  // measure 63
0000
0010
0000
0010
,  // measure 64
0000
0001
0000
0001
,  // measure 65
0000
1000
0000
1000
,  // measure 66
0000
0001
0000
0001
,  // measure 67
0000
0100
0000
0010
,  // measure 68
0000
0100
0000
0010
,  // measure 69
0000
0100
0000
0100
,  // measure 70
0000
1000
0000
0001
,  // measure 71
0000
1000
0000
0010
,  // measure 72
0000
0001
0000
0000
,  // measure 73
0000
0001
0000
0000
,  // measure 74
0000
0000
0001
0000
,  // measure 75
0000
0000
0000
0010
,  // measure 76
0000
0000
0000
0000
,  // measure 77
0001
0000
0000
0000
,  // measure 78
0000
0100
0000
0000
,  // measure 79
0000
0000
0010
0000
,  // measure 80
0000
0000
0000
0001
,  // measure 81
0000
0000
0000
0000
,  // measure 82
0100
0000
0000
0000
,  // measure 83
0000
0010
0000
0000
,  // measure 84
0000
0000
0001
0000
,  // measure 85
0000
0000
0000
0010
,  // measure 86
0000
0000
0000
0000
,  // measure 87
0100
0000
0000
0000
,  // measure 88
0000
0001
0000
0000
,  // measure 89
0000
0000
0010
0000
,  // measure 90
0000
0000
0000
0001
,  // measure 91
0000
0000
0000
0000
,  // measure 92
0010
0000
0000
0000
,  // measure 93
0000
1001
0000
0000
,  // measure 94
0000
0001
0000
0100
,  // measure 95
1000
0000
0010
0001
,  // measure 96
0000
0100
1000
0000
,  // measure 97
0010
0000
0010
0100
,  // measure 98
0000
1001
0000
0000
;

//---------------dance-single - ----------------
#NOTES:
     dance-single:
     :
     Challenge:
     13:
     0.907,1,0.377,0.110,0.909: // measure 1
0000
0000
0000
0000
,  // measure 2
0000
0000
0000
0000
,  // measure 3
1000
0000
0001
0100
0001
0000
1000
0000
1010
0000
0000
0000
0110
0000
0100
0000
0001
0000
1000
0010
1000
0000
0010
0000
1010
0000
0000
0000
0000
0000
0100
0000
,  // measure 4
2002
0000
0000
0000
0000
0000
0000
0000
0000
0000
0000
0000
0000
0000
0000
0000
0000
0000
0000
0000
0000
0000
0000
0000
0MM0
3003
0000
0000
0000
0000
0000
0000
0000
0000
0000
0000
1000
0000
0000
0000
0000
0000
0001
0000
0000
0000
0000
0000
,  // measure 5
0100
0000
0010
0000
0100
0000
0010
1000
,  // measure 6
0010
0000
0100
0000
0100
0000
0010
1000
,  // measure 7
00M1
0000
0010
0000
0100
0000
1000
0M01
,  // measure 8
1000
0000
101M
0000
0010
M100
0001
0000
,  // measure 9
1000
0000
0100
0000
1001
0000
0100
000M
,  // measure 10
1100
0000
0010
0000
0001
0000
0010
M001
,  // measure 11
0100
0010
101M
0100
,  // measure 12
0010
0000
1000
0M00
0010
0000
1000
0000
0000
0010
0000
0000
100M
0000
0000
0010
0000
0000
0100
0000
0000
0000
0000
0000
,  // measure 13
0110
0000
0001
0000
1000
00M0
0001
0000
,  // measure 14
1100
0000
0001
0000
0010
0000
0100
10M0
,  // measure 15
0001
0000
0100
0000
0010
000M
1M10
0000
,  // measure 16
0010
0000
0100
0000
0001
10M0
0100
0000
,  // measure 17
0010
0000
0M01
0000
1000
0000
1010
0M00
,  // measure 18
001M
0000
0110
0000
0001
0000
1000
0100
,  // measure 19
1000
0000
0101
0000
1000
01MM
1000
0001
,  // measure 20
0100
0010
1000
0M01
0010
0001
2002
0000
,  // measure 21
00M0
0M00
00M0
0M00
,  // measure 22
00M0
0000
0000
0000
0000
0000
0000
0000
0M00
0000
0000
0000
0000
0000
0000
0000
3003
0000
0000
0000
0000
0000
0000
0000
100M
0000
0100
1000
0100
0000
1000
0000
,  // measure 23
0001
0010
0M11
0000
1M01
0000
0001
1000
0100
0010
1001
0000
1000
0100
100M
0100
,  // measure 24
0010
0001
0010
0001
1M00
0010
1000
0010
0100
0001
0100
0001
1000
0000
0100
0000
,  // measure 25
0010
0000
0001
0000
1000
0M00
10M0
000M
1000
0000
1000
0000
0010
1000
0010
1000
,  // measure 26
0001
0100
0001
0100
M001
0010
0001
0010
0100
1000
0100
0000
100M
0000
0100
0000
,  // measure 27
0010
0000
0001
0000
1000
0000
0010
0000
M10M
0000
0000
0000
0001
1000
0001
1000
,  // measure 28
0010
0100
0010
0100
0001
1000
0M01
1000
0010
0100
0010
0100
0001
0000
1000
0000
,  // measure 29
0100
0000
M010
0000
0M01
0000
10M0
0000
010M
0000
0010
0000
M001
0010
0001
0010
,  // measure 30
0100
1000
0100
1000
0001
0100
0001
0100
1000
0100
1000
0100
0001
0000
1000
0000
,  // measure 31
0100
0000
0000
0000
0000
0000
0010
0000
0000
0000
0000
0000
0001
0000
0000
0000
0000
0000
1000
0000
0000
0000
0000
0000
0010
0000
0000
0000
0000
0000
0100
0000
0000
0000
0000
0000
2001
3000
0MMM
0000
0000
0000
0000
0000
0000
0000
0000
0000
,  // measure 32
0MM0
0000
1000
0001
0100
001M
1000
0000
,  // measure 33
0010
0000
0100
00M1
0100
0000
0010
0000
,  // measure 34
1000
0000
0010
1M00
0001
0010
010M
0000
,  // measure 35
1000
0000
0001
M100
0010
0000
1MMM
0000
,  // measure 36
0010
M100
0001
0000
1000
010M
0010
0000
,  // measure 37
0001
0000
1000
00M1
1000
0000
0010
0000
,  // measure 38
1000
0000
0010
M100
0001
0000
0010
0000
,  // measure 39
0100
0000
0000
0000
0000
0000
1000
0000
0000
0000
0000
0000
0001
0000
1000
0M00
0001
0000
1000
0000
0000
0001
0000
0000
,  // measure 40
0100
00M1
0100
0000
0010
100M
0010
0000
,  // measure 41
0100
0000
0001
10M0
0100
0000
0010
0000
,  // measure 42
0001
0000
1000
0MM1
1000
0010
0100
0000
,  // measure 43
0010
0000
0100
0000
0001
1M00
00M1
0100
,  // measure 44
0010
1000
0001
0000
1000
010M
1000
0000
,  // measure 45
0001
M010
010M
1000
,  // measure 46
0001
0000
0100
001M
1000
0000
0001
0000
,  // measure 47
11MM
0000
0001
M100
0010
100M
0010
0100
,  // measure 48
0001
0000
1000
0000
0200
M0MM
0000
000M
0000
000M
0000
M0MM
0000
000M
0000
000M
,  // measure 49
0000
M0MM
0300
0000
1000
0100
0010
0100
0010
0001
1000
0010
0100
0010
0001
0010
,  // measure 50
0100
0010
1000
0000
0001
0000
M011
0000
0010
0000
0110
0000
100M
00M0
1000
00M0
,  // measure 51
100M
00M0
1000
0000
0001
0100
M010
0100
0001
1000
0010
0100
0001
0010
0100
1000
,  // measure 52
0001
0100
0010
0000
100M
0000
0100
0000
M001
0000
0100
0000
0010
0000
1M00
0000
,  // measure 53
0010
0000
0001
0000
1000
0100
0010
0100
1000
0001
0100
0010
100M
0010
0100
0001
,  // measure 54
0010
0100
1000
0001
0100
0000
0010
0000
1000
0000
0001
0000
1MM1
0000
0001
0000
,  // measure 55
0101
0000
M010
0000
0100
0010
1000
0001
0010
0100
1000
0001
0100
0010
1000
0001
,  // measure 56
0100
0010
1000
0001
0010
0000
0100
0000
10MM
0000
0100
0000
110M
0000
0110
0000
,  // measure 57
M011
0000
0000
0000
1001
0000
0000
0000
4000
0400
00MM
0000
0000
0000
3300
0000
0040
0004
0000
0000
MM00
0000
0033
0000
1000
0100
0000
0000
0000
0000
0010
0000
,  // measure 58
1M01
0000
1000
0100
001M
0100
1000
0001
,  // measure 59
0100
0000
0001
0100
M010
0100
0001
1000
,  // measure 60
0100
0000
0100
0010
0M0M
0010
0001
0000
,  // measure 61
1000
1001
11M0
1001
,  // measure 62
0000
0000
1M0M
0010
0100
001M
1000
0010
,  // measure 63
0100
M000
0001
0010
010M
0010
M001
0010
,  // measure 64
010M
0000
1M00
0001
00M0
0001
1M00
0000
,  // measure 65
0001
1001
M1M1
1001
,  // measure 66
0000
0000
1MM0
0001
M100
0001
1000
00M1
,  // measure 67
0100
0000
M001
1000
01M0
1000
0M01
1000
,  // measure 68
010M
0000
10M0
0100
M000
010M
0010
0000
,  // measure 69
0001
M011
011M
M011
,  // measure 70
0000
0000
1M00
001M
M100
00M1
1M00
0010
,  // measure 71
M10M
00M0
0M01
M010
010M
10M0
0M01
M010
,  // measure 72
010M
0000
0000
2002
0M00
00M0
0M00
00M0
0M00
00M0
0M00
00M0
,  // measure 73
3M03
0000
0000
0000
0000
0000
0000
0000
1000
0000
0000
0000
0000
0100
0000
0000
0000
0000
1000
0000
0000
0000
0000
0000
0000
0000
0000
0000
0010
0000
0000
0000
,  // measure 74
0000
0000
0000
0000
0000
0000
1000
0000
0000
0000
0000
0000
0000
0000
0000
0000
0001
0000
0000
0000
0000
0100
0000
0000
0000
0000
0001
0000
0000
0000
0000
0000
,  // measure 75
0000
0000
0000
0000
0010
0000
0000
0000
0000
0000
0000
0000
0000
0000
0100
0000
0000
0000
0000
0000
0000
0000
0000
0000
1000
0000
0000
0000
0000
0100
0000
0000
,  // measure 76
0000
1000
0000
0000
0000
0000
0001
0000
0000
0000
0000
0100
0000
0000
0000
0000
,  // measure 77
0010
0000
0000
0000
0000
1000
0000
0000
0000
0000
0010
0000
0000
0000
0000
0000
0000
0000
0000
0000
0100
0000
0000
0000
0000
0000
0000
0000
0000
0000
0001
0000
,  // measure 78
0000
0000
0000
0000
0000
0000
0000
0000
1000
0000
0000
0000
0000
0010
0000
0000
0000
0000
1000
0000
0000
0000
0000
0000
0000
0000
0000
0000
0001
0000
0000
0000
,  // measure 79
0000
0000
0000
0000
0000
0000
0010
0000
0000
0000
0000
0000
0000
0000
0000
0000
0100
0000
0000
0000
0000
1000
0000
0000
0000
0000
0001
0000
0000
0000
0000
0000
,  // measure 80
0000
0000
0000
0000
0100
0000
0000
0000
0000
0000
0000
0000
0000
0000
0010
0000
0000
0000
0000
0000
0000
0000
0000
0000
1000
0000
0000
0000
0000
0010
0000
0000
,  // measure 81
0000
0100
0000
0000
0000
0000
0001
0000
0000
0000
0000
1000
0000
0000
0000
0000
,  // measure 82
0100
0000
0000
0000
0000
0010
0000
0000
0000
0000
0001
0000
0000
0000
0000
0000
0000
0000
0000
0000
1000
0000
0000
0000
0000
0000
0000
0000
0000
0000
0001
0000
,  // measure 83
0000
0000
0000
0000
0000
0000
0000
0000
1000
0000
0000
0000
0000
0100
0000
0000
000M
0000
1000
0000
0000
0000
0000
0100
0000
0000
0000
0000
1000
0000
0000
0000
,  // measure 84
0000
0000
0000
0000
0000
0000
0100
0000
0000
0000
0000
0000
0000
0000
0000
0000
0010
0000
0000
0000
0000
0001
0000
0000
0000
0000
0010
0000
0000
0000
0000
0001
,  // measure 85
M000
0000
0000
0000
0010
0000
0000
0000
0000
0000
0000
0000
0000
0000
0001
0000
0000
0000
0000
0000
0000
0000
0000
0000
1000
0000
0000
0000
0000
0010
0000
0000
,  // measure 86
000M
0000
1000
0000
0000
0000
0000
0010
0000
0000
0000
0000
1000
0000
0000
0000
0000
0000
0000
0000
0000
0000
0010
0000
0000
0000
0000
0000
0000
0000
0000
0000
,  // measure 87
0100
0000
0000
0000
0000
0001
0000
0000
M000
0000
0100
0000
0000
0000
0000
0001
0000
0000
0000
0000
0100
0000
0000
0000
0000
0000
0000
0000
0000
0000
0010
0000
,  // measure 88
0000
0000
0000
0000
0000
0000
0000
0000
1000
0000
0000
0000
0000
0010
0000
0000
0000
0000
1000
0000
000M
0000
0000
0010
0000
0000
0000
0000
1000
0000
0000
0000
,  // measure 89
0000
0000
0000
0000
0000
0000
0001
0000
0000
0000
0000
0000
0000
0000
0000
0000
0001
0000
0000
0000
0000
0010
0000
0000
0000
0000
0001
0000
M000
0000
0000
0010
,  // measure 90
0000
0000
0000
0000
0001
0000
0000
0000
0000
0000
0000
0000
0000
0000
1000
0000
0000
0000
0000
0000
0000
0000
0000
0000
1000
0000
0000
0000
0000
0100
0000
0000
,  // measure 91
0000
0000
1000
0000
000M
0000
0000
0100
0000
0000
0000
0000
1000
0000
0000
0000
0000
0000
0000
0000
0000
0000
0001
0000
0000
0000
0000
0000
0000
0000
0000
0000
,  // measure 92
0001
0000
0000
0000
0000
0100
0000
0000
0000
0000
0001
0000
M000
0000
0000
0100
0000
0000
0000
0000
0001
0000
0000
0000
0000
0000
0000
0000
0000
0000
1000
0000
,  // measure 93
0000
2MM2
0000
0000
,  // measure 94
3MM3
0000
0000
0000
0000
0000
0000
0000
0000
0000
0000
0000
1000
0000
0000
0000
0100
0000
0000
0000
0000
0010
0000
0000
0001
0000
0010
0000
0100
0000
1000
0000
0000
0100
0000
0000
0010
0000
0000
0100
0000
0000
1000
0000
0100
0000
0000
0000
,  // measure 95
0010
0000
0000
0000
0000
0000
0000
0000
0001
0000
0000
0000
0000
0000
0000
0000
0010
0000
0000
0000
0000
0000
0000
0000
0000
0000
0000
0000
0000
0000
0100
0000
0000
0000
0000
0000
0000
0000
0000
0000
1000
0000
0000
0000
0000
0000
0000
0000
0100
0000
0000
0000
0000
0000
0000
0000
0000
0000
0000
0000
0010
0000
0000
0000
0000
0000
0000
0000
0000
0000
0000
0000
0001
0000
0000
0000
0000
0000
0000
0000
0010
0000
0000
0000
0000
0000
0000
0000
0000
0000
0000
0000
0000
0000
0000
0000
0100
0000
0000
0000
0000
0000
0000
0000
0000
0000
0000
0000
1000
0000
0000
0000
0000
0000
0000
0000
0000
0000
0000
0000
0100
0000
0000
0000
0000
0000
0000
0000
0000
0000
0000
0000
0010
0000
0000
0000
0000
0000
0000
0000
0000
0000
0000
0000
0001
0000
0000
0000
0000
0000
0000
0000
0010
0000
0000
0000
0000
0000
0000
0000
0000
0000
0000
0000
0000
0000
0000
0000
0001
0000
0000
0000
0000
0000
0000
0000
0000
0000
0000
0000
1000
0000
0000
0000
0000
0000
0000
0000
0000
0000
0000
0000
,  // measure 96
0010
0000
1000
0000
0000
0000
0001
0000
0000
0100
0000
0000
0001
0000
0000
0000
0010
0000
0001
0000
0000
1000
0000
0000
0001
0000
0000
0100
0000
0000
0001
0000
0000
0000
0010
0000
0001
0000
1000
0000
0000
0000
0010
0000
0000
0000
1000
0000
,  // measure 97
0001
0000
0000
0000
0000
0000
0000
0000
0000
0000
0000
0000
0010
0000
0000
0000
0000
0000
0000
0000
0000
0000
0000
0000
0001
0000
0000
0000
0000
0000
0000
0000
1000
0000
0000
0000
0000
0000
0000
0000
0010
0000
0000
0000
0000
0000
0000
0000
0000
0000
0000
0000
0000
0000
0100
0000
0000
0000
0000
0000
0000
0000
0000
0000
0000
0000
0001
0000
0000
0000
0000
0000
0000
0000
0000
0000
0000
0000
0000
0000
0000
0000
0000
0000
0100
0000
0000
0000
0000
0000
0000
0000
0000
0000
0000
0000
0001
0000
0000
0000
0000
0000
0000
0000
0000
0000
0000
0000
1000
0000
0000
0000
0000
0000
0000
0000
0000
0000
0000
0000
0010
0000
0000
0000
0000
0000
0000
0000
0100
0000
0000
0000
0000
0000
0000
0000
0000
0000
0001
0000
0000
0000
0000
0000
0000
0000
0000
0000
0000
0000
0100
0000
0000
0000
0000
0000
0000
0000
0000
0000
0010
0000
0000
0000
0000
0000
0000
0000
0000
0000
0000
0000
0000
0000
0000
0000
0100
0000
0000
0000
0000
0000
0000
0000
0000
0000
0000
0000
0000
0000
0000
0000
,  // measure 98
0010
0000
1000
0001
0010
0000
0000
0000
2002
0000
0000
0000
0000
0000
0000
0000
0MM0
0000
0000
0000
0000
0000
0000
0000
0000
0000
0000
0000
0000
0000
0000
0000
,  // measure 99
0000
3MM3
M00M
000M
000M
0MM0
000M
000M
,  // measure 100
M00M
0MM0
0000
0000
0000
0000
0000
0000
;

//---------------dance-double - ----------------
#NOTES:
     dance-double:
     :
     Hard:
     11:
     0.664,0.722,0.092,0.101,0.363: // measure 1
00000000
00000000
00000000
00000000
,  // measure 2
00000000
00000000
00000000
00000000
,  // measure 3
10000000
01000000
00100000
00000000
00010000
00000000
00100000
00000000
00001000
00010000
00001000
00000000
00010000
00000000
00000000
00000100
,  // measure 4
00022000
00000000
00000000
00000000
00000000
00000000
00000000
00000000
00000000
00033000
00000000
00000000
00001000
00000000
00010000
00000000
,  // measure 5
00001000
00100000
00010000
10000000
,  // measure 6
00100000
00000000
01000000
00000000
00010000
00000000
00100000
00001000
,  // measure 7
00010000
00000100
00010000
00000100
,  // measure 8
00001000
00000000
00000010
00000000
00000100
00000001
00000100
00000000
,  // measure 9
00000001
00001000
00000100
00010000
,  // measure 10
00001000
00000000
00100000
00000000
00010000
00000000
10000000
00100000
,  // measure 11
10000000
00100000
01000000
00010000
,  // measure 12
00100000
00001000
001M0000
00001000
001M0000
00001000
00100000
00000000
,  // measure 13
00000100
00010000
00000010
00001000
,  // measure 14
00000001
00000000
00000100
00000000
00000001
00000000
00001000
00000100
,  // measure 15
00001000
00000100
00010000
00001000
,  // measure 16
00100000
00000000
00010000
00000000
10000000
00100000
10000000
00000000
,  // measure 17
00100000
01000000
00010000
00100000
,  // measure 18
00001000
00000000
00010000
00000000
00000100
00000000
00001000
00000010
,  // measure 19
00001000
00000010
00000100
00000001
,  // measure 20
00000010
00000001
00001000
00000010
00000100
00000010
0000200M
000000M0
,  // measure 21
00000M00
000M0000
00M00000
0M000000
M0000000
0M000000
00M00000
000M0000
,  // measure 22
00000M00
00000000
000000M0
00000000
0000000M
00000000
000000M0
00000000
00003M00
00000000
00000000
00000000
00000100
00001000
00000100
00001000
,  // measure 23
00000100
00000000
00001100
00000000
00000000
00000000
00010000
00001000
00010000
00001000
00010000
00000000
00001000
00100000
00001000
00100000
,  // measure 24
00001000
00100000
00010000
10000000
00100000
01000000
00010000
00100000
,  // measure 25
00001000
00000000
00010000
00000000
00001000
00000000
00001000
00000000
00001000
00000000
00001000
00000000
00010000
00001000
00010000
00001000
,  // measure 26
00010000
00000100
00001000
00000010
00000100
00000001
00000010
00000100
,  // measure 27
00001000
00000000
00000100
00000000
00010000
00000000
00010000
00000000
00010000
00000000
00000000
00000000
00001000
00010000
00001000
00010000
,  // measure 28
00001000
00010000
00000100
00001000
00000010
00000100
00000001
00001000
,  // measure 29
00000100
00000000
00010000
00000000
00001000
00000000
00100000
00000000
00010000
00000000
00000000
00000000
10000000
00100000
10000000
00100000
,  // measure 30
10000000
00010000
01000000
00010000
00100000
00001000
00010000
00000100
,  // measure 31
00001000
00000010
00000100
00000001
00000010
00000000
00001001
00000000
,  // measure 32
0000MMMM
00000000
1000MMMM
00100000
0100MMMM
00000000
00010000
00000000
,  // measure 33
00100000
01000000
10000000
00100000
,  // measure 34
01000000
00000000
00010000
01000000
00010000
00000000
10000000
00000000
,  // measure 35
00100000
01000000
00010000
00100000
,  // measure 36
00001000
00010000
00001000
00000000
00010000
00000000
00000100
00000000
,  // measure 37
00001000
00000010
00000100
00000001
,  // measure 38
00000010
00000000
00000100
00001000
00000100
00000000
00010000
00000000
,  // measure 39
00001000
00000000
00100000
00000000
00010000
00100000
M0010000
00100000
,  // measure 40
M0010000
00100000
00010000
00000000
10000000
00000000
01000000
00000000
,  // measure 41
10000000
00100000
01000000
00010000
,  // measure 42
00100000
00000000
01000000
10000000
00010000
00000000
01000000
00000000
,  // measure 43
00100000
10000000
01000000
00100000
,  // measure 44
00010000
00100000
00010000
00000000
00100000
00000000
00001000
00000000
,  // measure 45
00010000
00000100
00001000
00000010
,  // measure 46
00000100
00000000
00000001
00001000
00000100
00000000
00010000
00001000
,  // measure 47
00100000
00000000
00010000
00000000
10000000
00100000
01000000
00001000
,  // measure 48
00100000
00002000
00020000
00000000
00000000
MMM00MMM
00000000
00000000
,  // measure 49
00000000
00000000
00033000
00000000
00001000
00010000
00001000
00010000
00001000
00000000
00100000
00000000
00010000
00000000
10000000
00000000
,  // measure 50
00100000
01000000
00010000
00100000
01000000
10000000
00100000
00100000
,  // measure 51
00100000
00000000
00100000
00000000
01000000
00010000
01000000
00010000
01000000
00000000
00010000
00000000
00100000
00000000
00001000
00000000
,  // measure 52
00010000
00000100
00001100
00000000
00000011
00000000
00000101
00000000
,  // measure 53
00001010
00000000
00000000
00000000
00001000
00000100
00001000
00000100
00001000
00000000
00000100
00000000
00010000
00000000
00001000
00000000
,  // measure 54
00100000
00010000
10000000
00100000
01000000
00010000
00100000
01000000
,  // measure 55
10000000
00000000
00010000
00000000
01000000
00100000
01000000
00100000
01000000
00000000
00100000
00000000
10000000
00000000
00010000
00000000
,  // measure 56
00100000
00001000
00010000
00000100
00001000
00000010
00000100
00000001
,  // measure 57
00001000
00000000
00000000
00000000
000M0400
00000000
00000000
00000000
00040300
00000000
00000000
00000000
00030M00
00000000
00000000
00010000
,  // measure 58
00010100
00000100
00010000
00001000
,  // measure 59
00100000
00010000
10000000
00100000
,  // measure 60
01000000
00000000
00010000
00100000
00000000
00100000
00010000
00000000
,  // measure 61
00100000
00001000
00010000
00000100
,  // measure 62
00001000
00000010
00000100
00000001
,  // measure 63
00001000
00000100
00010000
00001000
,  // measure 64
00100000
00000000
00010000
00100000
00000000
00100000
00010000
00000000
,  // measure 65
10000000
00100000
01000000
00010000
,  // measure 66
00100000
00001000
00010000
00000100
,  // measure 67
00001000
00000010
00000100
00000001
,  // measure 68
00001000
00000000
00000100
00001000
00000000
00001000
00000100
00000000
,  // measure 69
00010000
00001000
00100000
00010000
,  // measure 70
10000000
00100000
01000000
00100000
,  // measure 71
10000000
01000000
00100000
00010000
,  // measure 72
10000000
2MM2MMMM
00000000
00000000
,  // measure 73
30030000
00000000
00000000
00000000
10000000
00000000
00000000
00000000
00000000
01000000
00000000
00000000
00000000
00000000
00100000
00000000
,  // measure 74
00000000
00000000
00000000
00000000
00000000
00000000
00000000
00000000
00001000
00000000
00000000
00000000
00000000
00010000
00000000
00000000
,  // measure 75
00000000
00001000
00000000
00000000
00000000
00000000
00000010
00000000
,  // measure 76
00000000
00000001
00000000
00000000
00000000
00000000
00000100
00000000
00000000
00000000
00000000
00000000
00000000
00000000
00000000
00000000
,  // measure 77
00000010
00000000
00000000
00000000
00000000
00010000
00000000
00000000
00000000
00000000
00001000
00000000
00000000
00000000
00000000
00000000
,  // measure 78
00000000
00000000
00000000
00000000
00100000
00000000
00000000
00000000
00000000
00010000
00000000
00000000
00000000
00000000
10000000
00000000
,  // measure 79
00000000
00000000
00000000
00000000
00000000
00000000
00000000
00000000
00010000
00000000
00000000
00000000
00000000
01000000
00000000
00000000
,  // measure 80
00000000
00001000
00000000
00000000
00000000
00000000
00010000
00000000
,  // measure 81
00000000
00000100
00000000
00000000
00000000
00000000
00000010
00000000
00000000
00000000
00000000
00000000
00000000
00000000
00000000
00000000
,  // measure 82
00000001
00000000
00000000
00000000
00000000
00001000
00000000
00000000
00000000
00000000
00000100
00000000
00000000
00000000
00000000
00000000
,  // measure 83
00000000
00000000
00000000
00000000
00010000
00000000
00000000
00000000
00000000
00001000
00000000
00000000
00000000
00000000
00010000
00000000
,  // measure 84
00000000
00000000
00000000
00001000
00000000
00000000
00000000
00000000
00100000
00000000
00000000
00000000
00000000
00001000
00000000
00000000
,  // measure 85
00000000
00000000
00100000
00000000
00000000
00000000
00000000
00001000
00000000
00000000
00000000
00000000
00100000
00000000
00000000
00000000
,  // measure 86
00000000
01000000
00000000
00000000
00000000
00000000
00100000
00000000
00000000
00000000
00000000
01000000
00000000
00000000
00000000
00000000
,  // measure 87
10000000
00000000
00000000
00000000
00000000
01000000
00000000
00000000
00000000
00000000
00100000
00000000
00000000
00000000
00000000
00010000
,  // measure 88
00000000
00000000
00000000
00000000
00100000
00000000
00000000
00000000
00000000
00001000
00000000
00000000
00000000
00000000
00100000
00000000
,  // measure 89
00000000
00000000
00000000
00001000
00000000
00000000
00000000
00000000
00010000
00000000
00000000
00000000
00000000
00000100
00000000
00000000
,  // measure 90
00000000
00000000
00000010
00000000
00000000
00000000
00000000
00000001
00000000
00000000
00000000
00000000
00001000
00000000
00000000
00000000
,  // measure 91
00000000
00000100
00000000
00000000
00000000
00000000
00010000
00000000
00000000
00000000
00000000
00000100
00000000
00000000
00000000
00000000
,  // measure 92
00010000
00000000
00000000
00000000
00000000
00000010
00000000
00000000
00000000
00000000
00010000
00000000
00000000
00000000
00000000
00000200
,  // measure 93
00000000
00020000
00000000
00000000
,  // measure 94
00030300
00000000
00000000
00010000
00001000
00010000
00001000
00100000
000M1000
00100000
00001000
00010000
,  // measure 95
00001000
00010000
00001000
00010000
00000100
0001M000
00000100
00010000
00000100
00000010
00000001
00001M00
,  // measure 96
00000010
00010000
00001000
00100000
000M1000
01000000
00100000
10000000
01000000
00100000
00001000
00010000
,  // measure 97
00000100
00000010
000M0001
00001000
00000010
00000100
00000001
000010M0
00000100
00M10000
M0001000
00100000
,  // measure 98
00010000
10000000
00000000
20020000
00000000
00000000
00000000
00000000
00000000
00000000
00000000
00000000
,  // measure 99
30030000
M00M0000
00000000
00000000
;

//---------------dance-double - ----------------
#NOTES:
     dance-double:
     :
     Medium:
     6:
     0.442,0.495,0.092,0.129,0: // measure 1
00000000
00000000
00000000
00000000
,  // measure 2
00000000
00000000
00000000
00000000
,  // measure 3
10000000
01000000
00100000
00010000
00100000
00001000
00010000
00000100
,  // measure 4
00002000
00000000
00003000
00001000
,  // measure 5
00100000
00001000
00000000
00010000
,  // measure 6
00000100
00001000
00000000
00000010
,  // measure 7
00000100
00000001
00000000
00001000
,  // measure 8
00000100
00010000
00000000
00001000
,  // measure 9
00100000
00010000
00000000
10000000
,  // measure 10
00100000
01000000
00000000
00010000
,  // measure 11
00100000
00001000
00000000
00010000
,  // measure 12
00000100
00001000
00000000
00000100
,  // measure 13
00001000
00000100
00000000
00010000
,  // measure 14
00001000
00010000
00000000
00001000
,  // measure 15
00100000
00001000
00100000
00010000
,  // measure 16
10000000
00100000
00000000
01000000
,  // measure 17
00010000
00100000
00000000
00001000
,  // measure 18
00010000
00000100
00000000
00001000
,  // measure 19
00000100
00010000
00001000
00100000
,  // measure 20
00001000
00010000
00000000
00022000
,  // measure 21
00000000
00000000
00000000
00000000
,  // measure 22
00000000
00000000
00033000
00011000
,  // measure 23
00011000
00000000
00011000
00000000
00011000
00000000
00000100
00001000
,  // measure 24
00000100
00000010
00000010
00000001
,  // measure 25
00000100
00000000
00000010
00000010
00000010
00000010
00001000
00000000
,  // measure 26
00000100
00010000
00001000
00100000
,  // measure 27
00010000
00000000
10000000
00100000
10000000
00000000
00010000
01000000
,  // measure 28
00010000
00100000
00100000
00001000
,  // measure 29
00001000
00000000
00010000
00001000
00010000
00000000
00000100
00000000
,  // measure 30
00000100
00001000
00001000
00000010
,  // measure 31
00000010
00000000
00000100
00000001
00000100
00000000
00001001
00000000
,  // measure 32
00000000
00000100
00010000
00000100
,  // measure 33
00100000
00001000
00010000
00001000
,  // measure 34
00000000
00100000
00010000
10000000
,  // measure 35
00100000
01000000
00010000
00100000
,  // measure 36
00000000
00001000
00010000
00000100
,  // measure 37
00000000
00001000
00000100
00001000
,  // measure 38
00000000
00000100
00010000
00001000
,  // measure 39
00100000
00010000
00000000
10000000
,  // measure 40
00000000
00100000
01000000
00010000
,  // measure 41
00000000
00100000
00001000
00010000
,  // measure 42
00000000
00000100
00001000
00000010
,  // measure 43
00000000
00000100
00000001
00001000
,  // measure 44
00000000
00000100
00010000
00001000
,  // measure 45
00000000
00100000
00010000
10000000
,  // measure 46
00000000
00010000
10000000
00010000
,  // measure 47
01000000
00100000
10000000
01000000
,  // measure 48
00000000
00202000
00000000
00303000
,  // measure 49
00000000
00000000
00100000
00010000
00100000
00001000
00010000
00000100
,  // measure 50
00001000
00000010
00000100
00000001
00001000
00000000
00000100
00000100
,  // measure 51
00000100
00000000
00010000
00001000
00100000
00010000
10000000
00100000
,  // measure 52
01000000
00010000
00100000
00001000
00010000
00000100
00001000
00001000
,  // measure 53
00001000
00000000
00000001
00000100
00000010
00001000
00000100
00010000
,  // measure 54
00001000
00100000
00010000
10000000
00100000
01000000
00100000
00100000
,  // measure 55
00100000
00000000
10000000
00100000
01000000
00010000
00100000
00001000
,  // measure 56
00010000
00000100
00001000
00000010
00000100
00000001
00001000
00001000
,  // measure 57
00000100
00020000
00032000
00023000
,  // measure 58
00031000
00010000
00001000
00010000
,  // measure 59
00000000
00000100
00000000
00000100
,  // measure 60
00000000
00010000
00000000
00001000
,  // measure 61
00000000
00100000
00000000
00010000
,  // measure 62
00000000
10000000
00100000
10000000
,  // measure 63
00000000
00010000
01000000
00010000
,  // measure 64
00000000
00100000
00000000
00100000
,  // measure 65
00000000
00001000
00000000
00001000
,  // measure 66
00000000
00010000
00000100
00010000
,  // measure 67
00000000
00000010
00001000
00000010
,  // measure 68
00000000
00000100
00000000
00000100
,  // measure 69
00000000
00000001
00000000
00000001
,  // measure 70
00000000
00001000
00000100
00001000
,  // measure 71
00000000
00000100
00010000
00000100
,  // measure 72
00000000
00022000
00000000
00000000
,  // measure 73
00033000
00000000
00010000
00000000
00000000
00000000
00000000
00010000
,  // measure 74
00000000
00000000
00001000
00000000
,  // measure 75
00000000
00001000
00000000
00000000
00000000
00000000
00010000
00000000
,  // measure 76
00000000
00000000
00000000
00010000
00000000
00000000
00000000
00000000
,  // measure 77
00000100
00000000
00000000
00000000
00000000
00000100
00000000
00000000
,  // measure 78
00000000
00000000
00001000
00000000
00000000
00000000
00000000
00001000
,  // measure 79
00000000
00000000
00000001
00000000
,  // measure 80
00000000
00000001
00000000
00000000
00000000
00000000
00001000
00000000
,  // measure 81
00000000
00000000
00000000
00001000
00000000
00000000
00000000
00000000
,  // measure 82
00000100
00000000
00000000
00000000
00000000
00000100
00000000
00000000
,  // measure 83
00000000
00000000
00010000
00000000
00000000
00000000
00000000
00010000
,  // measure 84
00000000
00000000
00001000
00000000
,  // measure 85
00000000
00010000
00000000
00000000
00000000
00000000
00000100
00000000
,  // measure 86
00000000
00000000
00000000
00000100
00000000
00000000
00000000
00000000
,  // measure 87
00010000
00000000
00000000
00000000
00000000
00010000
00000000
00000000
,  // measure 88
00000000
00000000
00001000
00000000
00000000
00000000
00000000
00001000
,  // measure 89
00000000
00000000
00100000
00000000
,  // measure 90
00000000
00100000
00000000
00000000
00000000
00000000
00010000
00000000
,  // measure 91
00000000
00000000
00000000
00010000
00000000
00000000
00000000
00000000
,  // measure 92
10000000
00000000
00000000
00000000
00000000
10000000
00000000
00000000
,  // measure 93
00000000
20020000
00000000
00000000
,  // measure 94
30030000
00000000
10000000
00010000
10000000
00000000
00010000
01000000
,  // measure 95
00010000
00000000
01000000
00001000
01000000
00000000
00001000
00010000
,  // measure 96
00001000
00000000
00010000
00000100
00010000
00000000
00000100
00000010
,  // measure 97
00000100
00000000
00000010
00000001
00000100
00000000
00000010
00010000
,  // measure 98
00001000
00022000
00000000
00000000
,  // measure 99
00033000
00000000
00000000
00000000
;

//---------------dance-double - ----------------
#NOTES:
     dance-double:
     :
     Easy:
     4:
     0.358,0.315,0.073,0.129,0: // measure 1
00000000
00000000
00000000
00000000
,  // measure 2
00000000
00000000
00000000
00000000
,  // measure 3
00000001
00000100
00000100
00001000
,  // measure 4
00020000
00000000
00030000
00010000
,  // measure 5
00000100
00010000
00000000
00001000
,  // measure 6
00100000
00010000
00000000
01000000
,  // measure 7
00100000
10000000
00000000
00010000
,  // measure 8
00100000
00001000
00000000
00010000
,  // measure 9
00000100
00001000
00000000
00000001
,  // measure 10
00000100
00000010
00000000
00001000
,  // measure 11
00000100
00010000
00000000
00001000
,  // measure 12
00100000
00010000
00000000
00100000
,  // measure 13
00010000
00100000
00000000
00001000
,  // measure 14
00010000
00001000
00000000
00010000
,  // measure 15
00000100
00010000
00000100
00001000
,  // measure 16
00000001
00000100
00000000
00000010
,  // measure 17
00001000
00000100
00000000
00010000
,  // measure 18
00001000
00100000
00000000
00010000
,  // measure 19
00100000
00001000
00010000
00000100
,  // measure 20
00010000
00001000
00000000
00022000
,  // measure 21
00000000
00000000
00000000
00000000
,  // measure 22
00000000
00000000
00033000
00011000
,  // measure 23
00010000
00001000
00011000
00100000
,  // measure 24
00100000
01000000
01000000
10000000
,  // measure 25
00100000
01000000
01000000
00010000
,  // measure 26
00100000
00001000
00010000
00000100
,  // measure 27
00001000
00000001
00000001
00001000
,  // measure 28
00001000
00000100
00000100
00010000
,  // measure 29
00010000
00001000
00001000
00100000
,  // measure 30
00100000
00010000
00010000
01000000
,  // measure 31
01000000
00100000
00100000
10010000
,  // measure 32
00000000
00100000
00001000
00100000
,  // measure 33
00000100
00010000
00001000
00010000
,  // measure 34
00000000
00000100
00001000
00000001
,  // measure 35
00000100
00000010
00001000
00000100
,  // measure 36
00000000
00010000
00001000
00100000
,  // measure 37
00000000
00010000
00100000
00010000
,  // measure 38
00000000
00100000
00001000
00010000
,  // measure 39
00000100
00001000
00000000
00000001
,  // measure 40
00000000
00000100
00000010
00001000
,  // measure 41
00000000
00000100
00010000
00001000
,  // measure 42
00000000
00100000
00010000
01000000
,  // measure 43
00000000
00100000
10000000
00010000
,  // measure 44
00000000
00100000
00001000
00010000
,  // measure 45
00000000
00000100
00001000
00000001
,  // measure 46
00000000
00001000
00000001
00001000
,  // measure 47
00000010
00000100
00000001
00000010
,  // measure 48
00000000
00020200
00000000
00030300
,  // measure 49
00000000
00000100
00000100
00001000
,  // measure 50
00010000
00100000
00010000
00100000
,  // measure 51
00100000
00001000
00000100
00000001
,  // measure 52
00000010
00000100
00001000
00010000
,  // measure 53
00010000
10000000
01000000
00100000
,  // measure 54
00010000
00001000
00000100
00000100
,  // measure 55
00000100
00000001
00000010
00000100
,  // measure 56
00001000
00010000
00100000
00010000
,  // measure 57
00100000
00002000
00023000
00032000
,  // measure 58
00013000
00001000
00010000
00001000
,  // measure 59
00000000
00100000
00000000
00100000
,  // measure 60
00000000
00001000
00000000
00010000
,  // measure 61
00000000
00000100
00000000
00001000
,  // measure 62
00000000
00000001
00000100
00000001
,  // measure 63
00000000
00001000
00000010
00001000
,  // measure 64
00000000
00000100
00000000
00000100
,  // measure 65
00000000
00010000
00000000
00010000
,  // measure 66
00000000
00001000
00100000
00001000
,  // measure 67
00000000
01000000
00010000
01000000
,  // measure 68
00000000
00100000
00000000
00100000
,  // measure 69
00000000
10000000
00000000
10000000
,  // measure 70
00000000
00010000
00100000
00010000
,  // measure 71
00000000
00100000
00001000
00100000
,  // measure 72
00000000
00022000
00000000
00000000
,  // measure 73
00033000
00001000
00000000
00000000
,  // measure 74
00000000
00000000
00010000
00000000
,  // measure 75
00000000
00000000
00000000
00001000
,  // measure 76
00000000
00000000
00000000
00000000
,  // measure 77
00100000
00000000
00000000
00000000
,  // measure 78
00000000
00010000
00000000
00000000
,  // measure 79
00000000
00000000
10000000
00000000
,  // measure 80
00000000
00000000
00000000
00010000
,  // measure 81
00000000
00000000
00000000
00000000
,  // measure 82
00100000
00000000
00000000
00000000
,  // measure 83
00000000
00001000
00000000
00000000
,  // measure 84
00000000
00000000
00010000
00000000
,  // measure 85
00000000
00000000
00000000
00100000
,  // measure 86
00000000
00000000
00000000
00000000
,  // measure 87
00001000
00000000
00000000
00000000
,  // measure 88
00000000
00010000
00000000
00000000
,  // measure 89
00000000
00000000
00000100
00000000
,  // measure 90
00000000
00000000
00000000
00001000
,  // measure 91
00000000
00000000
00000000
00000000
,  // measure 92
00000001
00000000
00000000
00000000
,  // measure 93
00000000
00002002
00000000
00000000
,  // measure 94
00003003
00000001
00000001
00001000
,  // measure 95
00001000
00000010
00000010
00010000
,  // measure 96
00010000
00001000
00001000
00100000
,  // measure 97
00100000
01000000
00100000
01000000
,  // measure 98
00010000
00022000
00000000
00000000
,  // measure 99
00033000
00000000
00000000
00000000
;

//---------------dance-double - ----------------
#NOTES:
     dance-double:
     :
     Beginner:
     3:
     0.329,0.268,0,0,0: // measure 1
00000000
00000000
00000000
00000000
,  // measure 2
00000000
00000000
00000000
00000000
,  // measure 3
00000001
00000100
00000100
00001000
,  // measure 4
00010000
00000000
00000000
00010000
,  // measure 5
00000100
00010000
00000000
00001000
,  // measure 6
00100000
00010000
00000000
01000000
,  // measure 7
00100000
10000000
00000000
00010000
,  // measure 8
00100000
00001000
00000000
00010000
,  // measure 9
00000100
00001000
00000000
00000001
,  // measure 10
00000100
00000010
00000000
00001000
,  // measure 11
00000100
00010000
00000000
00001000
,  // measure 12
00100000
00010000
00000000
00100000
,  // measure 13
00010000
00100000
00000000
00001000
,  // measure 14
00010000
00001000
00000000
00010000
,  // measure 15
00000100
00010000
00000100
00001000
,  // measure 16
00000001
00000100
00000000
00000010
,  // measure 17
00001000
00000100
00000000
00010000
,  // measure 18
00001000
00100000
00000000
00010000
,  // measure 19
00100000
00001000
00010000
00000100
,  // measure 20
00010000
00001000
00000000
00001000
,  // measure 21
00000000
00000000
00000000
00000000
,  // measure 22
00000000
00000000
00000000
00001000
,  // measure 23
00010000
00001000
00001000
00100000
,  // measure 24
00100000
01000000
01000000
10000000
,  // measure 25
00100000
01000000
01000000
00010000
,  // measure 26
00100000
00001000
00010000
00000100
,  // measure 27
00001000
00000001
00000001
00001000
,  // measure 28
00001000
00000100
00000100
00010000
,  // measure 29
00010000
00001000
00001000
00100000
,  // measure 30
00100000
00010000
00010000
01000000
,  // measure 31
01000000
00100000
00100000
00010000
,  // measure 32
00000000
00100000
00001000
00100000
,  // measure 33
00000100
00010000
00001000
00010000
,  // measure 34
00000000
00000100
00001000
00000001
,  // measure 35
00000100
00000010
00001000
00000100
,  // measure 36
00000000
00010000
00001000
00100000
,  // measure 37
00000000
00010000
00100000
00010000
,  // measure 38
00000000
00100000
00001000
00010000
,  // measure 39
00000100
00001000
00000000
00000001
,  // measure 40
00000000
00000100
00000010
00001000
,  // measure 41
00000000
00000100
00010000
00001000
,  // measure 42
00000000
00100000
00010000
01000000
,  // measure 43
00000000
00100000
10000000
00010000
,  // measure 44
00000000
00100000
00001000
00010000
,  // measure 45
00000000
00000100
00001000
00000001
,  // measure 46
00000000
00001000
00000001
00001000
,  // measure 47
00000010
00000100
00000001
00000010
,  // measure 48
00000000
00000100
00000000
00000000
,  // measure 49
00000000
00000100
00000100
00001000
,  // measure 50
00010000
00100000
00010000
00100000
,  // measure 51
00100000
00001000
00000100
00000001
,  // measure 52
00000010
00000100
00001000
00010000
,  // measure 53
00010000
10000000
01000000
00100000
,  // measure 54
00010000
00001000
00000100
00000100
,  // measure 55
00000100
00000001
00000010
00000100
,  // measure 56
00001000
00010000
00100000
00010000
,  // measure 57
00100000
00001000
00010000
00001000
,  // measure 58
00010000
00001000
00010000
00001000
,  // measure 59
00000000
00100000
00000000
00100000
,  // measure 60
00000000
00001000
00000000
00010000
,  // measure 61
00000000
00000100
00000000
00001000
,  // measure 62
00000000
00000001
00000100
00000001
,  // measure 63
00000000
00001000
00000010
00001000
,  // measure 64
00000000
00000100
00000000
00000100
,  // measure 65
00000000
00010000
00000000
00010000
,  // measure 66
00000000
00001000
00100000
00001000
,  // measure 67
00000000
01000000
00010000
01000000
,  // measure 68
00000000
00100000
00000000
00100000
,  // measure 69
00000000
10000000
00000000
10000000
,  // measure 70
00000000
00010000
00100000
00010000
,  // measure 71
00000000
00100000
00001000
00100000
,  // measure 72
00000000
00001000
00000000
00000000
,  // measure 73
00000000
00001000
00000000
00000000
,  // measure 74
00000000
00000000
00010000
00000000
,  // measure 75
00000000
00000000
00000000
00001000
,  // measure 76
00000000
00000000
00000000
00000000
,  // measure 77
00100000
00000000
00000000
00000000
,  // measure 78
00000000
00010000
00000000
00000000
,  // measure 79
00000000
00000000
10000000
00000000
,  // measure 80
00000000
00000000
00000000
00010000
,  // measure 81
00000000
00000000
00000000
00000000
,  // measure 82
00100000
00000000
00000000
00000000
,  // measure 83
00000000
00001000
00000000
00000000
,  // measure 84
00000000
00000000
00010000
00000000
,  // measure 85
00000000
00000000
00000000
00100000
,  // measure 86
00000000
00000000
00000000
00000000
,  // measure 87
00001000
00000000
00000000
00000000
,  // measure 88
00000000
00010000
00000000
00000000
,  // measure 89
00000000
00000000
00000100
00000000
,  // measure 90
00000000
00000000
00000000
00001000
,  // measure 91
00000000
00000000
00000000
00000000
,  // measure 92
00000001
00000000
00000000
00000000
,  // measure 93
00000000
00000001
00000000
00000000
,  // measure 94
00000000
00000001
00000001
00001000
,  // measure 95
00001000
00000010
00000010
00010000
,  // measure 96
00010000
00001000
00001000
00100000
,  // measure 97
00100000
01000000
00100000
01000000
,  // measure 98
00010000
00001000
00000000
00000000
;

//---------------dance-double - ----------------
#NOTES:
     dance-double:
     :
     Challenge:
     13:
     0.806,0.866,0.092,0.101,0.785: // measure 1
00000000
00000000
00000000
00000000
,  // measure 2
00000000
00000000
00000000
00000000
,  // measure 3
00001000
00000000
00010000
00001000
00010000
00000000
00001000
00000000
00001000
00000000
00000000
00000000
00010000
00000000
00001000
00000000
00100000
00000000
00001000
00000000
00010000
00000000
00000000
00000000
00001100
00000000
00000000
00000000
00000000
00000000
00020000
00000000
,  // measure 4
00002000
00000000
00000000
00000000
00000000
00000000
00000000
00000000
00000000
00000000
00000000
00000000
00000000
00000000
00000000
00000000
M000000M
00033000
00000000
00000000
00000000
00000000
00000000
00000000
00001000
00000000
00000000
00000000
00010000
00000000
00000000
00000000
,  // measure 5
00001000
00100000
00010000
10000000
,  // measure 6
00100000
00000000
01000000
00000000
00100000
00000000
10000000
00100000
,  // measure 7
10000000
01000000
00100000
00010000
,  // measure 8
00100000
00000000
00001000
00000000
00010000
00001000
00010000
00000000
,  // measure 9
00000100
00001000
00000010
00000100
,  // measure 10
00000001
00000000
00001000
00000000
00000100
00000000
00010000
00001000
,  // measure 11
00010000
00001000
00100000
00010000
,  // measure 12
10000000
00100000
01000000
00010000
10000000
00100000
01000000
00000000
,  // measure 13
00010000
00100000
01000000
10000000
,  // measure 14
00010000
00000000
01000000
00000000
00100000
00000000
10000000
00100000
,  // measure 15
01000000
00010000
10000000
00100000
,  // measure 16
01000000
00000000
00010000
00000000
00100000
00010000
00100000
00000000
,  // measure 17
00001000
00010000
00000100
00001000
,  // measure 18
00000010
00000000
00000100
00000000
00000001
00000000
00001000
00000100
,  // measure 19
00001000
00000100
00010000
00001000
,  // measure 20
00100000
00010000
00100000
00001000
00010000
00000100
0002M000
00000000
,  // measure 21
0000M000
0000M000
0000M000
0000M000
,  // measure 22
0000M000
00000000
00000000
00000000
0000M000
00000000
00000000
00000000
0003M000
00000000
00000000
00000000
00010000
00001000
00001000
00001000
,  // measure 23
00001000
00010000
00001000
00001000
00010000
00001000
00001000
00001000
00001000
00010000
00001000
00000000
00100000
00001000
00100000
00010000
,  // measure 24
00100000
01000000
10000000
00010000
01000000
00100000
01000000
00010000
00100000
00001000
00010000
00000100
00000010
00000000
00000001
00000000
,  // measure 25
00001000
00000000
00000010
00000000
00001010
00000000
00001100
00000000
00011000
00000000
01010000
00000000
00100000
10000000
00010000
00100000
,  // measure 26
00010000
01000000
00001000
00010000
00000100
00001000
00000010
00000100
00000001
00001000
00000100
00010000
00001000
00000000
00100000
00000000
,  // measure 27
00001000
00000000
00010000
00000000
00000100
00000000
00010000
00000000
00001000
00000000
00010000
00000000
00001000
00100000
00010000
10000000
,  // measure 28
01000000
00100000
00010000
00100000
00001000
00010000
00000100
00010000
00001000
00100000
00001000
00010000
00000100
00000000
00010000
00000000
,  // measure 29
00001000
00000000
00100000
00000000
00010000
00000000
10000000
00000000
00100000
00000000
01000000
00000000
00001000
00100000
00001000
00100000
,  // measure 30
00000100
00010000
00000100
00000010
00000001
00001000
00000010
00000100
00000001
00001000
00000100
00010000
00001000
00000000
00010000
00000000
,  // measure 31
00001000
00000000
00000000
00000000
00100000
00000000
00001000
00000000
00100000
00000000
00001000
00000000
00100000
00000000
00010000
00000000
00100000
00000000
00010000
00000000
00100000
00000000
00000000
00000000
2MM1MMMM
30000000
00000000
00000000
00000000
00000000
00000000
00000000
,  // measure 32
0MMMMMMM
00000000
00100000
10000000
00100000
00000000
01000000
00000000
,  // measure 33
00010000
00000000
00100000
00001000
00100000
00000000
00001000
00000000
,  // measure 34
00010000
00000000
00000100
00001000
00000100
00000000
00001000
00000000
,  // measure 35
00000010
00000100
00000001
00001000
,  // measure 36
00000100
00010000
00001000
00000000
00100000
00000000
00010000
00000000
,  // measure 37
10000000
00100000
01000000
00010000
,  // measure 38
00100000
00000000
00001000
00010000
00001000
00000000
00010000
00000000
,  // measure 39
00000100
00000000
00001000
00000000
00000010
00000100
00000010
00000100
,  // measure 40
00000010
00000100
00000010
00000000
00001000
00000000
00000100
00000000
,  // measure 41
00010000
00001000
00100000
00010000
,  // measure 42
10000000
00000000
00100000
01000000
00010000
00000000
00100000
00000000
,  // measure 43
00001000
00010000
00000100
00001000
,  // measure 44
00000010
00000100
00000001
00000000
00001000
00000000
00000100
00000000
,  // measure 45
00010000
00001000
00100000
00010000
,  // measure 46
10000000
00000000
00100000
01000000
00100000
00000000
01000000
00000000
,  // measure 47
00010000
00000000
00010000
00000000
00100000
00001000
00100000
00001000
,  // measure 48
00010000
00000000
00000000
00000100
00000000
00000000
M0020000
00000000
0M000000
00000000
00M00000
00000000
0000M000
00000000
00000M00
00000000
000000M0
00000000
0000000M
00000000
000000M0
00000000
00000M00
00000000
,  // measure 49
0000M000
00000000
00000000
00000000
00M00000
00000000
00030000
00000000
0M000000
00000000
00000000
00000000
M0001000
00000000
00000000
00100000
00000000
00000000
00010000
00000000
00000000
10000000
00000000
00000000
00100000
00000000
00000000
01000000
00000000
00000000
00001000
00000000
00000000
00010000
00000000
00000000
00000100
00000000
00000000
00000010
00000000
00000000
00000001
00000000
00000000
00001000
00000000
00000000
,  // measure 50
00000010
00010000
00001000
00000000
00100000
00000000
00010000
00000000
10000000
00000000
00100000
00000000
0100MMMM
00000000
01000000
00000000
,  // measure 51
01000000
00000000
01000000
00000000
00010000
01000000
00001000
00010000
00000100
00000010
00000001
00001000
00000010
00010000
00001000
00100000
,  // measure 52
00010000
10000000
00100000
01000000
00001000
00000000
00010000
00000000
00001000
00000000
00010000
00000000
00000100
00000000
00010000
00000000
,  // measure 53
00000100
00000000
MMMM0100
00000000
00000010
00000001
00001000
00000100
00010000
00001000
00100000
00010000
10000000
00100000
01000000
00001000
,  // measure 54
00010000
00000100
00000010
00000001
00001000
00000000
00000100
00000000
00000100
00000000
00010000
00000000
00001000
00000000
00001000
00000000
,  // measure 55
00001000
00000000
00001000
00000000
00010000
00001000
00100000
00010000
10000000
00100000
01000000
00001000
00010000
00000100
00000010
00000001
,  // measure 56
00001000
00000100
00010000
00001000
00100000
00000000
01000000
00000000
10000000
00000000
00010000
00000000
01000000
00000000
00001000
00000000
,  // measure 57
00010000
00000000
00000000
00000000
00000100
00000000
00000000
00000000
MMMM0010
00000100
00000010
00000100
000M0010
00000100
00000010
00000100
000M1000
00000100
00001000
00000100
0MMM1000
00000100
00001000
00000100
000M1000
00000001
00000000
00000000
000M0000
00000000
00000010
00000000
,  // measure 58
MMMM1100
00000000
00000001
00001000
00000000
00001000
00000100
00000000
,  // measure 59
00010000
00000000
00001000
00010000
00000000
00010000
00001000
00000000
,  // measure 60
01000000
00000000
00010000
00100000
00000000
00100000
00010000
00000000
,  // measure 61
00100000
00000000
00001000
00010000
00001000
00010000
00001000
00000000
,  // measure 62
00010000
00000000
MMM00100
00001000
00000000
00001000
00000100
00000000
,  // measure 63
00001000
00000000
00000001
00000100
00000000
00000100
00000001
00000000
,  // measure 64
00001000
00000000
00000100
00010000
00000100
00010000
00000100
00000000
,  // measure 65
00100000
00001000
10000000
00010000
,  // measure 66
01000000
00000000
00100MMM
01000000
00000000
01000000
00100000
00000000
,  // measure 67
10000000
00000000
01000000
00100000
00000000
00100000
00010000
00000000
,  // measure 68
00100000
00000000
00010000
00100000
00010000
00100000
00010000
00000000
,  // measure 69
00100000
00001000
00010000
00000100
,  // measure 70
00001000
00000000
MMM00010
00000100
00000000
00000100
00000001
00000000
,  // measure 71
00000010
00000000
00000100
00001000
00000000
00001000
00000100
00000000
,  // measure 72
00010000
00022MMM
MMM00000
00000MMM
,  // measure 73
MMM33000
00000000
00000000
00000000
00010000
00000000
00000000
00000000
00000000
00000100
00000000
00000000
00000000
00000000
00010000
00000000
,  // measure 74
00000000
00000000
00000000
00001000
00000000
00000000
00000000
00000000
00100000
00000000
00000000
00000000
00000000
00010000
00000000
00000000
,  // measure 75
00000000
00000000
10000000
00000000
00000000
00000000
00000000
00100000
00000000
00000000
00000000
00000000
01000000
00000000
00000000
00000000
,  // measure 76
00000000
00001000
00000000
00000000
00000000
00000000
00010000
00000000
00000000
00000000
00000000
00000100
00000000
00000000
00000000
00000000
,  // measure 77
00000010
00000000
00000000
00000000
00000000
00000001
00000000
00000000
00000000
00000000
00001000
00000000
00000000
00000000
00000000
00000100
,  // measure 78
00000000
00000000
00000000
00000000
00010000
00000000
00000000
00000000
00000000
00001000
00000000
00000000
00000000
00000000
00100000
00000000
,  // measure 79
00000000
00000000
00000000
00001000
00000000
00000000
00000000
00000000
00010000
00000000
00000000
00000000
00000000
00000100
00000000
00000000
,  // measure 80
00000000
00000000
00000010
00000000
00000000
00000000
00000000
00000001
00000000
00000000
00000000
00000000
00001000
00000000
00000000
00000000
,  // measure 81
00000000
00000100
00000000
00000000
00000000
00000000
00010000
00000000
00000000
00000000
00000000
00001000
00000000
00000000
00000000
00000000
,  // measure 82
00100000
00000000
00000000
00000000
00000000
00010000
00000000
00000000
00000000
00000000
10000000
00000000
00000000
00000000
00000000
01000000
,  // measure 83
00000000
00000000
00000000
00000000
0010000M
00000000
00000000
00000000
0M000000
00001000
00000000
00000000
00000M00
00000000
00010000
00000000
,  // measure 84
00000000
00000000
00000000
00000100
00M00000
00000000
00000000
00000000
00000010
00000000
00000000
00000000
0000000M
00000100
00000000
00000000
,  // measure 85
M0000000
00000000
00010000
00000000
00000000
00000000
00000000
00001000
0M000000
00000000
00000000
00000000
00100000
00000000
00000000
00000000
,  // measure 86
000000M0
00001000
00000000
00000000
00000000
00000000
00010000
00000000
0M000000
00000000
00000000
00000100
00000000
00000000
00000000
00000000
,  // measure 87
0000M010
00000000
00000000
00000000
00000000
00000001
00000000
00000000
0M000000
00000000
00000100
00000000
0000M000
00000000
00000000
00000010
,  // measure 88
00000000
00000000
00000000
00000000
0M001000
00000000
00000000
00000000
00000000
00000100
00000000
00000000
000000M0
00000000
00010000
00000000
,  // measure 89
00000000
00000000
00000000
00001000
0M000000
00000000
00000000
00000000
0010M000
00000000
00000000
00000000
00000000
01000000
00000000
00000000
,  // measure 90
000000M0
00000000
10000000
00000000
00000000
00000000
00000000
00100000
00000M00
00000000
00000000
00000000
01000000
00000000
00000000
00000000
,  // measure 91
00000000
00001000
00000000
00000000
000000M0
00000000
00010000
00000000
00000000
00000000
00000000
00000100
M0000000
00000000
00000000
00000000
,  // measure 92
00000010
00000000
00000000
00000000
000M0000
00000001
00000000
00000000
00000000
00000000
00001000
00000000
00000000
00000000
00000000
00000100
,  // measure 93
M0000000
MMM22000
MMM00000
00000MMM
,  // measure 94
00033MMM
00000000
00000000
00000000
00000000
00000000
00010000
00000000
00001000
00000000
00010000
00001000
00000000
00100000
00001000
00000000
00010000
00001000
00000000
00010000
00000000
00001000
00000000
00000100
,  // measure 95
00000000
00000010
00000000
00000001
00000000
00000010
00000001
00000000
00001000
00000100
00000000
00001000
00000000
00000100
00010000
00000000
00001000
00000000
00010000
00000000
00001000
00000000
00100000
00010000
,  // measure 96
00000000
00100000
00000000
00010000
00000000
10000000
00000000
00100000
00000000
01000000
00100000
00000000
01000000
00000000
00010000
00000000
01000000
00000000
00010000
00000000
00100000
00001000
00000000
00010000
,  // measure 97
00000000
00001000
00000000
00010000
00000000
00000100
00000000
00000010
00000000
00000100
00000000
00001000
00000000
00000100
00000000
00001000
00000100
00000000
00010000
00001000
00000000
00010000
00000000
00000010
,  // measure 98
00000000
00010000
00000010
00000000
00000000
00000000
00002002
00000000
00000000
00000000
00000000
00000000
00000000
00000000
00000000
00000000
00000000
00000000
00000000
00000000
00000000
00000000
00000000
00000000
,  // measure 99
00003003
M0M0MMMM
M0M0000M
M0M00MMM
,  // measure 100
M0M0000M
0M00MMMM
00000000
00000000
;
