#TITLE:SPEAKING FROM THE HEART;
#ARTIST:MACHO MAN Randy Savage;
#CREDIT:Azure Haights;
#BANNER:Speaking From the Heart-bn.png;
#BACKGROUND:Speaking From the Heart-bg.png;
#CDTITLE:.\CDTITLES\O'Reilly O'Riginals.png;
#MUSIC:Speaking From the Heart.mp3;
#OFFSET:-0.082;
#SAMPLESTART:99.53;
#SAMPLELENGTH:16.6;
#BPMS:0=115.77,160=58.16,168=115.77;
#BGCHANGES:0=Speaking From the Heart.AVI=1=0=0=0=StretchNoLoop====,999=-=1=0=0=0;

//---------------dance-single - ----------------
#NOTES:
     dance-single:
     :
     Hard:
     7:
     0.461,0.507,0.215,0.064,0.147:
0000
0000
0000
0000
,
0000
0000
0000
0000
,
0000
0000
0000
0000
,
0000
0000
0000
0000
,
0010
0000
0001
0000
0100
0000
0000
0000
1000
0001
0000
0000
0001
1000
0000
0000
,
0010
1000
0100
0000
0001
0100
1100
0000
,
0010
0000
0001
0000
1000
0000
0000
0000
0100
1000
0000
0000
1000
0100
0000
0000
,
0010
0100
0010
1001
,
1000
0000
0000
0000
0000
0010
1000
0000
0000
0100
0000
0000
1000
0000
0000
0010
0000
0000
1000
0000
0000
0100
0000
0000
,
1000
0000
0000
0000
0000
0001
0100
0000
0000
0001
0000
0000
0010
0000
0000
0001
0000
0000
0100
0000
0000
0001
0000
0000
,
1000
0000
0000
0000
0000
0000
0000
0000
0000
0000
0001
0000
1000
0000
0000
0000
0000
0000
0100
0000
0000
0000
0000
0000
1000
0000
0000
0000
0000
0000
0000
0000
0000
0001
0000
0000
0000
0000
0000
0000
0000
0000
0100
0000
0000
0000
0000
0000
,
0001
0100
0100
0010
,
0100
0000
0000
0000
0000
0001
0010
0000
0000
0100
0000
0000
1000
0000
0000
0100
0000
0000
0010
0000
0000
0001
0000
0000
,
1000
0000
0000
0000
0000
0001
1000
0000
0000
0100
0000
0000
1000
0000
0000
0010
0000
0000
1000
0000
0000
0001
0000
0000
,
0010
0000
0000
0000
0000
0000
0000
0000
0000
0000
0100
0000
1000
0000
0000
0000
0000
0000
0010
0000
0000
0000
0000
0000
0100
0000
0000
0000
0000
0000
0000
0000
0000
1000
0000
0000
0000
0000
0000
0000
0000
0000
0001
0000
0000
0000
0000
0000
,
0010
0010
0100
0100
0001
0001
1000
0000
,
1000
0100
1001
0000
0001
0100
1001
0000
,
0010
0001
1001
0000
0010
1000
1001
0000
,
1000
0100
0110
0000
0001
0100
0110
0000
,
1000
0010
0110
0000
0001
0010
0110
0000
,
1000
0010
0101
0000
0001
0010
1100
0000
,
0100
1000
1100
0000
0001
0100
0101
0000
,
1000
0100
0011
0000
0001
0100
1010
0000
,
0000
1100
0000
0011
0000
1001
0100
0010
,
1001
0000
0100
0001
0100
0010
1000
0100
,
1000
0001
0010
0001
0010
0001
0010
0000
,
0010
0100
0010
0001
0100
0010
1000
0100
,
1000
0010
0100
0001
0010
0000
0011
0000
,
1000
0001
1000
0100
1000
0010
1000
0100
,
1000
0010
1000
0001
1000
0000
1000
0000
,
0001
0100
0001
0000
0001
1000
0001
0000
,
0001
0001
0100
0100
0010
0010
1000
1000
,
1000
0000
0000
0000
0000
0100
1000
0000
0000
0001
0000
0000
0100
0000
0000
0100
0000
0000
0010
0000
0000
0010
0000
0000
,
0100
0000
0000
0000
0000
0001
0010
0000
0000
0001
0000
0000
0010
0000
0000
0010
0000
0000
0100
0000
0000
0100
0000
0000
,
1000
0000
0000
0000
0000
0001
0100
0000
0000
0001
0000
0000
0010
0000
0000
0100
0000
0000
1000
0000
0000
0001
0000
0000
,
2001
0000
0100
3000
1002
0000
0100
0003
,
1000
0000
0000
0000
0000
1000
0001
0000
0000
0100
0000
0000
1000
0000
0000
0100
0000
0000
0001
0000
0000
0001
0000
0000
,
1000
0000
0000
0000
0000
0001
1000
0000
0000
0100
0000
0000
0010
0000
0000
0001
0000
0000
1000
0000
0000
0100
0000
0000
,
0010
0000
0000
0000
0000
0001
0010
0000
0000
0100
0000
0000
0001
0000
0000
0100
0000
0000
0001
0000
0000
0100
0000
0000
,
1000
0010
1000
0010
,
2001
0000
0000
0000
0001
0000
0000
0001
0000
0000
0001
0000
3000
0000
0000
0000
0002
0000
0000
0000
1000
0000
0000
1000
0000
0000
1000
0000
0003
0000
0000
0000
,
0020
0000
0000
0000
0100
0000
0000
0100
0000
0000
0100
0000
0030
0000
0000
0000
0200
0000
0000
0000
1000
0000
0000
1000
0000
0000
1000
0000
0300
0000
0000
0000
,
1000
0100
1000
0001
1000
0000
1000
0000
,
0001
0100
0001
1000
0001
0000
0001
0000
,
1000
0010
0100
0000
0001
0100
0010
0000
,
1000
0000
0000
0100
0000
0000
0010
0000
0000
0001
0000
0000
0001
0000
0000
0100
0000
0000
0010
0000
0010
1000
0000
0000
,
1000
0000
0000
0000
0000
0001
0010
0000
0000
0100
0000
0000
1000
0000
0000
0100
0000
0000
0010
0000
0000
0001
0000
0000
,
0100
0000
0000
0000
0000
0010
0100
0000
0000
0001
0000
0000
1000
0000
0000
0001
0000
0000
0010
0000
0000
0100
0000
0000
,
1000
0000
0000
0000
0000
0100
0001
0000
0000
0100
0000
0000
1000
0000
0000
0010
0000
0000
0001
0000
0000
0010
0000
0000
,
2001
0000
0100
3000
1002
0000
0100
0003
,
1000
0000
0000
0000
0000
0001
0100
0000
0000
0001
0000
0000
1000
0000
0000
1000
0000
0000
0100
0000
0000
0100
0000
0000
,
1000
0000
0000
0000
0000
0010
0100
0000
0000
0010
0000
0000
1000
0000
0000
1000
0000
0000
0100
0000
0000
0010
0000
0000
,
0001
0000
0000
0000
0000
0010
1000
0000
0000
0010
0000
0000
0001
0000
0000
1000
0000
0000
0100
0000
0000
1000
0000
0000
,
1000
0000
0000
0000
0000
0000
0100
0000
0000
0000
0000
0000
0010
0000
0000
0001
0000
0000
1000
0000
0100
1000
0000
0000
,
0100
0000
0000
0000
0000
1000
0100
0000
0000
0100
0000
0000
1000
0000
0000
1000
0000
0000
0100
0000
0000
0010
0000
0000
,
0001
0000
0000
0000
0000
0001
0100
0000
0000
0100
0000
0000
0001
0000
0000
0001
0000
0000
0100
0000
0000
0010
0000
0000
,
1000
0000
0000
0000
0000
1000
0010
0000
0000
0010
0000
0000
0100
0000
0000
0100
0000
0000
0001
0000
0000
0100
0000
0000
,
1000
0100
0001
0010
,
1001
0000
0000
0000
;

//---------------dance-single - ----------------
#NOTES:
     dance-single:
     :
     Medium:
     5:
     0.318,0.323,0.040,0.095,0.028:
0000
0000
0000
0000
,
0000
0000
0000
0000
,
0000
0000
0000
0000
,
0000
0000
0000
0000
,
1000
0001
1000
0000
0110
0000
0110
0000
,
0010
0100
0010
0000
0100
0010
0100
0000
,
0001
1000
0001
0000
0110
0000
0110
0000
,
0001
0001
1000
1000
,
0010
0000
0100
0001
0100
0000
0010
0000
,
1000
0000
0100
0010
0100
0000
0010
0000
,
0100
0000
0000
0000
1000
0000
0100
0000
0010
0000
0000
0001
0000
0000
0100
0000
,
0100
0010
0100
0010
,
1000
0000
0100
0010
0001
0000
0001
0000
,
0001
0000
0100
0010
1000
0000
1000
0000
,
0100
0000
0000
0000
0010
0000
0001
0000
0010
0000
0000
0100
0000
0000
1000
0000
,
0002
0000
0000
0003
,
1000
0000
0100
0000
0010
0001
0010
0000
,
0001
0000
0100
0000
0010
1000
0010
0000
,
1000
0000
0100
0000
0010
0001
0010
0000
,
0001
0010
0001
0100
0010
0000
0010
0000
,
0100
0000
0100
0000
0001
0100
0001
0000
,
1000
0000
1000
0000
0100
1000
0100
0000
,
0010
0000
0001
0000
1000
0001
1000
0000
,
0000
0001
0000
1000
0000
0010
0100
0100
,
0200
0000
0010
0010
0000
0000
0001
0000
,
0320
0100
1000
0130
,
2000
0000
0100
0100
0000
0001
0001
0000
,
3200
0000
0001
0000
0010
0000
0001
0300
,
0002
0000
0100
0100
0000
0000
0103
0000
,
0020
0000
0001
0000
0100
0000
0001
0030
,
2000
0001
0100
3010
,
1000
0100
0010
0001
1000
0100
0010
0001
,
1000
0000
0001
0100
0001
0000
1000
0000
,
0010
0000
1000
0001
1000
0000
0001
0000
,
0001
0000
0000
0000
0010
0000
0001
0000
1000
0000
0000
0001
0000
0000
0100
0000
,
0001
1000
0001
1000
,
0010
0000
1000
0001
0100
0000
0100
0000
,
0100
0000
0001
1000
0010
0000
0010
0000
,
0001
0000
0000
0000
1000
0000
0100
0000
1000
0000
0000
0001
0000
0000
0010
0000
,
0200
0010
0010
0310
,
0010
0000
0000
1000
0010
0000
0000
1000
,
0200
1300
0020
1030
,
1000
0000
0100
0000
1000
0000
0100
0010
,
0001
0000
0100
0000
0001
0000
0100
0010
,
1000
0001
1000
0001
,
0100
0010
1000
0001
0100
0010
1000
0001
,
0010
0000
0100
0001
0100
0000
0010
0000
,
1000
0000
0100
0010
0100
0000
0010
0000
,
0100
0000
0000
0000
1000
0000
0100
0000
0010
0000
0000
0001
0000
0000
0100
0000
,
0100
0010
0100
0010
,
1000
0000
0100
0010
0001
0000
0001
0000
,
0001
0000
0100
0010
1000
0000
1000
0000
,
0100
0000
0000
0000
0010
0000
0001
0000
0010
0000
0000
0100
0000
0000
1000
0000
,
0002
0000
0000
0003
,
1000
0000
1000
0100
1000
0000
1000
0000
,
0001
0000
0001
0100
0001
0000
0001
0000
,
0100
0000
0000
0000
0100
0000
0010
0000
1000
0000
0000
0100
0000
0000
1000
0000
,
0100
0100
0010
0010
,
1001
0000
0000
0000
;

//---------------dance-single - ----------------
#NOTES:
     dance-single:
     :
     Easy:
     3:
     0.164,0.208,0.040,0.087,0: // measure 1
0000
0000
0000
0000
,  // measure 2
0000
0000
0000
0000
,  // measure 3
0000
0000
0000
0000
,  // measure 4
0000
0000
0000
0000
,  // measure 5
1001
0000
0000
0100
,  // measure 6
1001
0000
0000
0000
,  // measure 7
1001
0000
0000
0010
,  // measure 8
1000
0000
1000
0000
,  // measure 9
1000
0000
0001
0010
,  // measure 10
0100
0000
1000
0010
,  // measure 11
0100
0000
0001
0100
,  // measure 12
0002
0000
0000
0003
,  // measure 13
1000
0000
0100
1000
,  // measure 14
0100
0000
0010
0001
,  // measure 15
0010
0000
0001
0100
,  // measure 16
0020
0000
0000
0030
,  // measure 17
1000
0000
0001
0000
,  // measure 18
2000
0000
0000
3000
,  // measure 19
0001
0000
1000
0000
,  // measure 20
0002
0000
0000
0003
,  // measure 21
0010
0000
0100
0000
,  // measure 22
0020
0000
0000
0030
,  // measure 23
0100
0000
0010
0000
,  // measure 24
0010
0010
0100
0000
,  // measure 25
1001
0000
1000
0000
,  // measure 26
0001
0000
1000
0100
,  // measure 27
0010
0000
0010
0000
,  // measure 28
0100
0000
1000
1000
,  // measure 29
0001
0000
0100
0000
,  // measure 30
0001
0000
1000
0100
,  // measure 31
0010
0000
0100
0000
,  // measure 32
1000
0100
0010
0001
,  // measure 33
1000
0000
0001
0010
,  // measure 34
0100
0000
1000
0010
,  // measure 35
0100
0000
0001
0100
,  // measure 36
0002
0000
0000
0003
,  // measure 37
1000
0000
0100
1000
,  // measure 38
0100
0000
0010
0001
,  // measure 39
0010
0000
0001
0100
,  // measure 40
0020
0000
0000
0030
,  // measure 41
2000
0000
0100
3000
,  // measure 42
0020
0000
0001
0030
,  // measure 43
1000
0000
0000
0000
,  // measure 44
0001
0000
0000
0000
,  // measure 45
0001
0000
1000
0000
,  // measure 46
0001
0100
0010
1000
,  // measure 47
1000
0000
0001
0010
,  // measure 48
0100
0000
1000
0010
,  // measure 49
0100
0000
0001
0100
,  // measure 50
0002
0000
0000
0003
,  // measure 51
1000
0000
0100
1000
,  // measure 52
0100
0000
0010
0001
,  // measure 53
0010
0000
0001
0100
,  // measure 54
0020
0000
0000
0030
,  // measure 55
1000
0000
0001
0100
,  // measure 56
0001
0000
1000
0100
,  // measure 57
1000
0000
0001
1000
,  // measure 58
0001
0100
0001
1000
,  // measure 59
1001
0000
0000
0000
;

//---------------dance-single - ----------------
#NOTES:
     dance-single:
     :
     Beginner:
     1:
     0.130,0.185,0.119,0,0:
0000
0000
0000
0000
,
0000
0000
0000
0000
,
0000
0000
0000
0000
,
0000
0000
0000
0000
,
1000
0000
0000
0000
,
0001
0000
0000
0000
,
1000
0000
0000
0000
,
0010
0010
0010
0000
,
0100
0000
0100
0000
,
0001
0000
0001
0000
,
1000
0000
1000
0000
,
1001
0000
1001
0000
,
1000
0000
1000
0000
,
0010
0000
0010
0000
,
0001
0000
0001
0000
,
0110
0000
0110
0000
,
1000
0000
0000
0000
,
1000
0000
0000
0000
,
0001
0000
0000
0000
,
0001
0000
0000
0000
,
1000
0000
0000
0000
,
1000
0000
0000
0000
,
0001
0000
0000
0000
,
0001
0001
0001
0001
,
0001
0000
0000
0000
,
0001
0000
0000
0000
,
0010
0000
0000
0000
,
0010
0000
0000
0000
,
0100
0000
0000
0000
,
0100
0000
0000
0000
,
1000
0000
0000
0000
,
1000
1000
1000
1000
,
1000
0000
1000
0000
,
0001
0000
0001
0000
,
0010
0000
0010
0000
,
0110
0000
0110
0000
,
0010
0000
0010
0000
,
0100
0000
0100
0000
,
0001
0000
0001
0000
,
1001
0000
1001
0000
,
1000
0000
1000
0000
,
0001
0000
0001
0000
,
1000
0000
1000
0000
,
0001
0000
0001
0000
,
1000
0000
1000
0000
,
0100
0100
0100
0100
,
0100
0000
0100
0000
,
0010
0000
0010
0000
,
0001
0000
0001
0000
,
1001
0000
1001
0000
,
0001
0000
0001
0000
,
1000
0000
1000
0000
,
0010
0000
0010
0000
,
0110
0000
0110
0000
,
1000
0000
1000
0000
,
0010
0000
0010
0000
,
0100
0000
0100
0000
,
1001
0000
1001
0000
,
1001
0000
0000
0000
;
