#TITLE:Moonlight Rave;
#ARTIST:Digital Maestro vs. L. V. Beethoven;
#BANNER:Moonlight Rave-bn.png;
#BACKGROUND:Moonlight Rave-bg.png;
#CDTITLE:.\CDTITLES\DanceTrax.png;
#MUSIC:Moonlight Rave.ogg;
#OFFSET:-0.023;
#SAMPLESTART:31.93;
#SAMPLELENGTH:11.5;
#DISPLAYBPM:165;
#BPMS:0=165,53=82.5,54=165;
#STOPS:159=0.364,160=0.36364,161=0.36364,162=0.36364,305=0.36364,306=0.36364,307=0.36364;

//---------------dance-single - Expert----------------
#NOTES:
     dance-single:
     Expert:
     Challenge:
     13:
     1,1,0.879,0.135,1:
0000
0000
0000
0000
,
0000
0000
0000
0000
,
0000
0000
0000
0000
,
0000
0000
0000
0000
,
0001
0100
0001
0100
0010
0100
0010
0100
0010
1000
0010
1000
0001
1000
0001
1000
,
0100
1000
0100
1000
0100
0010
0100
0010
0001
0010
0001
0010
0110
0000
1100
0000
,
0010
0001
0010
0001
0100
0001
0100
0001
1000
0001
1000
0001
1001
0000
1010
0000
,
0001
0100
0001
0100
0010
1000
0010
1000
0010
0100
0010
0100
0101
0000
0110
0000
,
0101
0001
0100
0001
0010
0001
1000
0001
1000
0001
0100
0001
0010
0001
0100
0001
,
1000
0001
0010
0001
0100
0001
1000
0001
0010
0001
0100
0001
1000
0001
0010
0001
,
1001
1000
0001
1000
0100
1000
0001
1000
0001
1000
0010
1000
0100
1000
0010
1000
,
0001
1000
0100
1000
0010
1000
0001
1000
0100
1000
0010
1000
0001
1000
0100
1000
,
0001
0100
1000
0100
0010
1000
0100
1000
0001
0100
1000
0100
0010
1000
0100
1000
,
1010
0000
0000
0000
2002
0000
0000
0000
3003
0000
M00M
0000
1000
0100
0010
0001
,
1000
0100
0010
0001
0100
0010
1000
0001
0100
0010
1000
0001
0010
0100
1000
0001
,
0010
0100
1000
0001
0100
0010
1000
0001
0101
0000
1001
0000
0001
0010
0100
1000
,
0001
0010
0100
1000
0010
0100
0001
1000
0010
0100
0001
1000
0100
0010
0001
1000
,
0100
0010
0001
1000
0010
0100
0001
1000
1010
0000
1001
0000
0001
0100
0010
1000
,
0001
0100
0010
1000
0100
0010
0001
1000
0100
0010
0001
1000
0010
0100
0001
1000
,
0010
0100
0001
1000
0100
0010
0100
0010
0001
0100
0001
0100
0010
0000
0000
0000
,
1M00
0000
0000
0000
0000
0000
M001
0000
1000
0000
0010
0100
0010
0100
0010
0000
,
100M
0000
0000
0000
0000
0000
01M0
0000
0010
0000
0001
0100
0001
0000
0000
0000
,
M010
0000
0000
0000
0000
0000
M100
0000
1000
0000
0001
0100
0001
0000
0000
0000
,
10M0
0000
0000
0000
0000
0000
0M10
0000
0100
0000
0001
0100
0001
0000
0101
0000
,
0M0M
0101
0M0M
0101
1000
0100
1000
1010
,
M0M0
1010
M0M0
1010
0100
0001
0010
0110
,
0MM0
0110
0MM0
0110
1000
0001
1000
1010
,
M0M0
1010
M0M0
1010
0100
0001
2010
0M00
,
00M0
0000
000M
0000
0100
0000
000M
0000
0M00
0000
00M0
0000
3001
0010
0100
1000
,
0001
0000
1M00
0000
001M
0000
0102
00M0
,
0M00
0000
M000
0000
0010
0000
M000
0000
00M0
0000
0M00
0000
1003
0010
0100
0001
,
1000
0000
0000
0000
001M
0000
0000
0000
M100
0000
0000
0000
0001
M000
0M00
M000
,
0000
M000
0M00
M000
0001
0100
0010
1000
0001
0100
0010
0100
0001
1000
0010
0100
,
0001
0010
0100
0010
0001
0100
0010
1000
0001
0100
0010
0100
0001
1000
0010
0100
,
0001
0010
0100
0010
0001
1000
0001
1000
0001
1000
0001
1000
0001
00M0
0M00
00M0
,
0M00
00M0
0M00
00M0
0100
0010
0100
0010
0100
0010
0100
0010
1000
00M0
000M
00M0
,
1100
000M
00M0
000M
1000
0010
0100
0001
1000
0010
0100
0010
1000
0001
0100
0010
,
1000
0100
0010
0100
1000
0010
0100
0001
1000
0010
0100
0010
1000
0001
0100
0010
,
1000
0100
0010
0100
1000
0001
0100
0010
1000
0100
0010
0100
1000
0010
0100
0001
,
1000
0010
0100
0001
1000
0010
0100
0001
1000
0010
0100
0001
1M01
0000
0000
0000
,
0M11
0000
11M0
0000
10M1
0000
0102
0100
,
0100
0100
0100
0103
1010
1001
201M
0010
,
0010
0010
0010
3010
0101
1001
012M
0100
,
0100
0100
0100
0130
1001
1100
2M10
0010
,
0010
0010
0010
3010
1001
1100
M100
0110
,
1100
0110
0MM0
0110
0101
0110
0MM0
0110
,
1100
0110
0MM0
0110
0101
0110
21M0
0100
,
0100
0100
0100
3100
0011
0101
M210
0010
,
0010
0010
0010
0310
1001
0M11
0102
0100
,
0100
0100
0100
0103
1001
110M
0210
0010
,
0010
0010
0010
0310
1100
0110
0M11
0110
,
1100
0110
0MM0
0110
0011
0110
0MM0
0110
,
1100
0110
0MM0
0110
0011
0110
0MM0
0110
,
0010
0011
0M0M
0011
0001
0101
MM00
0101
,
0100
0110
0MM0
0110
0010
1010
1001
0000
,
0000
0000
0000
0000
0000
0000
0000
0000
1001
00M0
0M00
0010
0100
000M
M000
000M
,
1000
000M
00M0
000M
0010
000M
0M00
000M
0100
000M
M000
0001
1000
0000
0000
0000
,
0000
0000
0000
0000
0000
0000
0000
0000
0110
000M
M000
0001
1000
0M00
00M0
0M00
,
0010
0M00
000M
0M00
0001
0M00
M000
0M00
1000
0M00
00M0
0100
0010
0000
0000
0000
,
100M
0000
0000
0001
0010
0000
0000
0000
1M00
0000
0000
0001
0100
0000
0000
0000
,
0M10
0000
0000
0001
0100
0000
0000
0000
1M00
0000
0000
0000
0001
0010
0001
1000
,
0001
0010
0001
1000
0100
0010
0100
1000
0100
0010
0100
1000
0001
0100
0001
1000
,
0001
0100
0001
1000
0010
0100
0010
1000
0010
0100
0010
1000
0001
0010
0100
1000
,
0001
0010
0100
1000
0001
0010
0100
1000
0001
0010
0100
1000
0001
0100
0010
1000
,
0001
0100
0010
1000
0001
0100
0010
1000
1010
0000
1001
0000
1000
0100
0010
0001
,
1000
0100
0010
0001
1000
0100
0010
0001
1000
0100
0010
0001
1000
0010
0100
0001
,
1000
0010
0100
0001
1000
0010
0100
0001
0101
0000
1001
0000
0010
1000
0001
0100
,
0010
1000
0001
0100
0010
1000
0001
0100
0110
0000
1001
0000
0100
0001
1000
0010
,
0100
0001
1000
0010
0100
0001
1000
0001
0101
0000
1001
0000
1M00
0001
0010
0001
,
1000
0100
0010
0100
1000
0010
0100
0010
1000
0001
0100
0001
1000
0100
1000
0100
,
0010
0001
0010
0001
1000
0010
1000
0010
01M0
0001
1000
0001
0100
0010
1000
0010
,
0100
0001
0010
0001
0100
0010
0001
0010
0100
0001
0100
0001
1000
0010
1000
0010
,
0100
0001
0100
0001
1M00
0010
0100
0010
1000
0001
0100
0001
1000
0100
0001
0100
,
1000
0010
0100
0010
1000
0100
1000
0100
0010
0001
0010
0001
0100
0010
0100
0010
,
0100
0001
0100
0001
10M0
0100
0010
0001
1000
0100
0010
0001
1000
0010
0100
0001
,
1000
0010
0100
0001
0010
0100
1000
0001
0010
0100
1000
0001
0100
0010
1000
0001
,
0100
0010
1000
0100
12M0
0000
M300
0000
0M21
0000
003M
0000
2MM2
0000
0000
0000
,
0000
0000
3003
0000
;

//---------------dance-double - Master----------------
#NOTES:
     dance-double:
     Master:
     Challenge:
     14:
     1,1,1,0.085,1:
00000000
00000000
00000000
00000000
,
00000000
00000000
00000000
00000000
,
00000000
00000000
00000000
00000000
,
00000000
00000000
00000000
00000000
,
00010000
00100000
00010000
00100000
00001000
00010000
00001000
00010000
00000100
00001000
00000100
00001000
00000010
00000100
00000010
00000100
,
00000001
00000010
00000001
00000010
00000100
00001000
00000100
00001000
00000010
00000100
00000010
00000100
00000110
00000000
00001100
00000000
,
00000100
00001000
00000100
00001000
00010000
00100000
00010000
00100000
01000000
10000000
01000000
10000000
11000000
00000000
01100000
00000000
,
00100000
00010000
00100000
00010000
00001000
00000100
00001000
00000100
00000010
00000001
00000010
00000001
00000011
00000000
00001001
00000000
,
00001010
00000010
00001000
00000010
00000100
00000010
00010000
00000010
00010000
00000010
00001000
00000010
00000100
00000010
00001000
00000010
,
00010000
00000010
00000100
00000010
01000000
00000010
00100000
00000010
00010000
00000010
00001000
00000010
00000100
00000010
01000000
00001000
,
01001000
01000000
00010000
01000000
00100000
01000000
00001000
01000000
00001000
01000000
00010000
01000000
00100000
01000000
00010000
01000000
,
00001000
01000000
00100000
01000000
00000010
01000000
00000100
01000000
00001000
01000000
00010000
01000000
00100000
01000000
00001000
01000000
,
00010000
00100000
00001000
00000010
00010000
00100000
00001000
00000010
00010000
00100000
00001000
00000010
00010000
00100000
00001000
00010000
,
00011000
00000000
00000000
00000000
02000020
00000000
00000000
00000000
03000030
00000000
0M0000M0
00000000
00000001
00000010
00000100
00001000
,
00000001
00000010
00000100
00001000
00000010
00000100
00000001
00001000
00000010
00000100
00000001
00010000
00001000
00100000
00000100
00010000
,
00001000
00100000
00010000
10000000
01000000
00100000
00010000
01000000
01100000
00000000
10010000
00000000
10000000
01000000
00100000
00010000
,
10000000
01000000
00100000
00010000
01000000
00100000
10000000
00010000
01000000
00100000
10000000
00001000
00010000
00000010
01000000
00001000
,
00010000
00000010
00001000
00000100
00000010
00000001
00000100
00000010
00000110
00000000
00001001
00000000
00001000
00000100
00010000
00001000
,
00100000
00000100
00001000
00000010
00000100
00000001
00001000
00000010
00001000
00000100
00000010
00000001
00000100
00001000
00010000
01000000
,
00010000
00001000
00000100
00001000
00010000
00100000
01000000
10000000
01000000
00100000
00010000
00001000
00000100
00000000
00000000
00000000
,
00000000
00000000
00000000
00000000
00000000
00000000
00001000
00000000
00010000
00000000
00000100
00001000
00000100
00001000
00000100
00000000
,
0001M000
00000000
00000000
00000000
00000000
00000000
00010000
00000000
00000100
00000000
00001000
00000010
00001000
00000000
00000000
00000000
,
00000001
00000000
00000000
00000000
00000000
00000000
00000010
00000000
00000100
00000000
00001000
00000010
00001000
00000000
00000000
00000000
,
00000M01
00000000
00000000
00000000
00000000
00000000
000001M0
00000000
00000010
00000000
00001000
00000010
00001000
00000000
00001010
00000000
,
00000000
00011000
00000000
00001010
00010000
00100000
01000000
01010000
,
00000000
00011000
00000000
01010000
00001000
00000100
00000010
00010100
,
00000000
00100010
00000000
00010100
00001000
00100000
01000000
10010000
,
00000000
00011000
00000000
10010000
00001000
00000100
00001002
000000M0
,
00000M00
00000000
0000M000
00000000
00001000
00000000
0000M000
00000000
000000M0
00000000
00000M00
00000000
00010003
00000100
00100000
00001000
,
00010000
00000000
000000M0
00000000
0000M000
00000000
20010000
0M000000
,
00M00000
00000000
000M0000
00000000
00010000
00000000
000M0000
00000000
0M000000
00000000
00M00000
00000000
30001000
00100000
00000100
00010000
,
00001000
00000000
00000000
00000000
0000M000
00000000
00000000
00000000
0000000M
00000000
00000000
00000000
20001000
0000000M
000000M0
0000000M
,
30000000
0000000M
000000M0
0000000M
10000000
01000000
00100000
00001000
00010000
00000010
00000100
00000001
00010000
00100000
10000000
01000000
,
00001000
00000100
00000010
00000001
00000100
00000001
00001000
00000010
00100000
00010000
01000000
00001000
00000010
00000001
00000100
00001000
,
01000000
00010000
10000000
00100000
01000000
00100000
01000000
00100000
01000000
00100000
01000000
00100000
01000000
00000000
00000000
00000000
,
00000000
00000000
00000000
00000000
00000010
00000100
00000010
00000100
00000010
00000100
00000010
00000100
00000001
00000000
00000000
00000000
,
10002000
00000000
00000000
00000000
10003000
01000000
00100000
00001000
00010000
00000010
00000100
00000001
00010000
00100000
10000000
01000000
,
00001000
00000100
00000010
00000001
00000100
00000001
00001000
00000010
00100000
00010000
01000000
00001000
00000010
00000001
00000100
00001000
,
01000000
00010000
10000000
00001000
00100000
00000100
01000000
00010000
01000000
00100000
10000000
01000000
10000000
01000000
00100000
00001000
,
00010000
00000100
00000010
00000001
00000010
00000100
00010000
00001000
00100000
01000000
10000000
01000000
011000M0
00000000
00000000
00000000
,
001101M0
00000000
00111M00
00000000
01011M00
00000000
00011000
00011000
,
00011000
00011000
00011000
00011000
00001100
00011000
00110000
00110000
,
00110000
00110000
00110000
00110000
00011000
00001100
00000110
00000110
,
00000110
00000110
00000110
00000110
00001100
00011000
00110000
00110000
,
00110000
00110000
00110000
00110000
00011000
00001100
00000110
00001100
,
00011000
00001100
00000000
00000110
00000011
00000110
00000000
00001100
,
00011000
00001100
00000000
00000101
00000110
00001100
00011000
00011000
,
00011000
00011000
00011000
00011000
01010000
00011000
00001010
00001010
,
00001010
00001010
00001010
00001010
00011000
01010000
01100000
01100000
,
01100000
01100000
01100000
01100000
01010000
00011000
00001010
00001010
,
00001010
00001010
00001010
00001010
00011000
01010000
01100000
01010000
,
00011000
01010000
00000000
01100000
10100000
01100000
00000000
01010000
,
00011000
01010000
00000000
01100000
10100000
01100000
00000000
01100000
,
01100000
00110000
00000000
00110000
00110000
01010000
00000000
01010000
,
01010000
01100000
00000000
01100000
01100000
10100000
10010000
00000000
,
00000000
00000000
00000000
00000000
00000000
00000000
00000000
00000000
10010000
00M00000
0M000000
00100000
01000000
000M0000
M0000000
000M0000
,
10000000
000M0000
00M00000
000M0000
00100000
000M0000
0M000000
000M0000
01000000
000M0000
M0000000
00010000
10000000
00000000
00000000
00000000
,
00000000
00000000
00000000
00000000
00000000
00000000
00000000
00000000
00000110
0000000M
0000M000
00000001
00001000
000000M0
00000M00
000000M0
,
00000100
000000M0
0000000M
000000M0
00000001
000000M0
0000M000
000000M0
00001000
000000M0
00000M00
00000010
00000100
00000000
00000000
00000000
,
010M0000
00000000
00000000
10000000
00100000
00000000
00000000
00000000
0000010M
00000000
00000000
00000001
00000010
00000000
00000000
00000000
,
010M0000
00000000
00000000
10000000
00100000
00000000
00000000
00000000
10000M00
00000000
00000000
00000000
00010000
00100000
01000000
10000000
,
00010000
00100000
01000000
10000000
00001000
00100000
01000000
10000000
00001000
00100000
01000000
10000000
00010000
01000000
00100000
10000000
,
00010000
01000000
00100000
10000000
00001000
01000000
00100000
10000000
00001000
01000000
00100000
10000000
00010000
00100000
01000000
10000000
,
00010000
00100000
01000000
10000000
00001000
00100000
00010000
01000000
00001000
00100000
00010000
01000000
00000100
00010000
00001000
01000000
,
00000100
00010000
00001000
01000000
00001000
00100000
00010000
10000000
10010000
00000000
11000000
00000000
00010000
00100000
01000000
10000000
,
00010000
00100000
01000000
10000000
00001000
00100000
01000000
10000000
00001000
00100000
01000000
10000000
00010000
01000000
00100000
10000000
,
00010000
01000000
00100000
10000000
00001000
01000000
00100000
10000000
10010000
00000000
00110000
00000000
00100000
00001000
00010000
01000000
,
00100000
10000000
00010000
01000000
00100000
10000000
00010000
01000000
01010000
00000000
00110000
00000000
00100000
00001000
00010000
01000000
,
00100000
10000000
00010000
01000000
00100000
10000000
00010000
01000000
01010000
00000000
10010000
00000000
10000000
00100000
01000000
00010000
,
00100000
00001000
00010000
00000100
01000000
00010000
00100000
00001000
00010000
00000100
00001000
00000010
00001000
00000100
00000010
00000001
,
00000010
00000100
00010000
00001000
00100000
01000000
00100000
00010000
10000000
00100000
01000000
00010000
00100000
00001000
00010000
00000100
,
01000000
00010000
00100000
00001000
00010000
00000100
00001000
00000010
00001000
00000100
00000010
00000001
00000010
00000100
00010000
00001000
,
00100000
01000000
00100000
00010000
10000000
00100000
01000000
00010000
00100000
00001000
00010000
00000100
01000000
00010000
00100000
00001000
,
00010000
00000100
00001000
00000010
00001000
00000100
00000010
00000001
00000010
00000100
00010000
00001000
00100000
01000000
00100000
00010000
,
10000000
00100000
01000000
00010000
10000000
01000000
00100000
00010000
01000000
00100000
00010000
00001000
00100000
00001000
00010000
00000100
,
00010000
00001000
00000100
00000010
00001000
00000100
00000010
00000001
00000010
00000100
00010000
00001000
00000100
00001000
00010000
00100000
,
01000000
00001000
00010000
00001000
00011000
00000000
00000000
00000000
00021020
00000000
00030030
00000000
02011200
00000000
00000000
00000000
,
00000000
00000000
03000300
00000000
;

//---------------dance-single - Advanced----------------
#NOTES:
     dance-single:
     Advanced:
     Hard:
     9:
     0.631,0.651,0.127,0.093,0.085:
0000
0000
0000
0000
,
0000
0000
0000
0000
,
0000
0000
0000
0000
,
0000
0000
0000
0000
,
1000
0100
0010
0001
1000
0100
0010
0001
,
1000
0100
0010
0001
1000
0100
0010
0010
,
0001
0100
0010
1000
0001
0100
0010
0010
,
1000
0001
0010
0100
1000
0001
0010
0010
,
0100
1000
0001
0100
0010
0100
0001
1000
,
0010
0100
0001
0010
0001
1000
0100
0010
,
0001
0100
0010
0100
0001
1000
0100
1000
,
0010
0100
0010
1000
0001
0010
0100
1000
,
0001
0000
1000
0100
1000
0000
0001
0100
0001
0000
1000
0010
1000
0000
0001
0010
,
0001
0000
2002
0000
3003
0000
0010
1000
,
0100
0010
0100
1000
0001
0100
0010
1000
,
0100
0001
0100
1000
0010
0010
0100
0001
,
0010
0100
0010
0001
1000
0010
0100
0001
,
0010
1000
0010
0001
0010
0010
0100
1000
,
0001
0100
0010
0100
0001
0010
1000
0010
,
0001
0100
0010
1000
0100
0010
0001
0000
,
1000
0000
0000
0000
0000
0000
0010
0000
0100
0000
0001
1000
0001
1000
0001
0000
,
0100
0000
0000
0000
0000
0000
0010
0000
1000
0000
0000
0010
0100
0000
0000
0000
,
0001
0000
0000
0000
0000
0000
0100
0000
0001
0000
0000
0100
0010
0000
0000
0000
,
1000
0000
0000
0000
0000
0000
0001
0000
0010
0000
0000
0100
1000
0000
1000
0000
,
0000
1000
0000
1000
0100
0010
0001
0001
,
0000
0001
0000
0001
1000
0100
0010
0010
,
0000
0010
0000
0010
0001
1000
0010
0010
,
0000
0010
0000
0010
0100
0001
2000
0000
,
0010
0000
0000
0000
3002
0000
0000
0000
0010
0000
0000
0000
0103
0010
0100
0010
,
0100
0001
1000
0002
,
0100
0000
0000
0000
2003
0000
0000
0000
0100
0000
0000
0000
3010
0100
0010
0100
,
0010
1000
0001
2002
,
0003
0000
3010
0100
0001
0010
0001
1000
,
0100
0001
0100
0010
0001
0100
0010
1000
,
0001
0100
0010
1000
0001
0100
0010
000M
,
M000
0M00
1000
0010
1000
0100
0010
0M00
,
1001
00M0
0100
0001
0010
0001
1000
0100
,
0010
1000
0010
0001
0100
0010
0100
0001
,
0010
0100
1000
0010
0100
0010
1000
0001
,
0010
0100
0001
0100
1000
0010
1001
0000
,
0101
0000
1001
0000
1100
0000
0001
0100
,
0010
1000
0001
0010
0100
0100
1000
0010
,
0100
0001
1000
0100
0010
0010
0100
1000
,
0010
0100
0010
1000
0100
0100
0010
0001
,
0100
0010
0100
0001
0010
0010
0001
1000
,
0100
1000
0000
0100
0001
0100
0000
0001
,
0010
0001
0000
0010
1000
0010
0100
0001
,
1000
0100
1000
0001
0010
0010
0100
1000
,
0001
0100
0001
0010
0100
0100
1000
0001
,
0100
1000
0100
0001
0010
0010
0001
1000
,
0100
0001
0100
1000
0100
0100
1000
0001
,
0010
0001
0000
0010
1000
0010
0000
1000
,
0100
1000
0000
0100
0001
0100
0000
1000
,
0010
1000
0000
0010
0001
0010
0000
0001
,
0100
0001
0000
0100
1000
0100
0010
0000
,
0000
0000
0000
0000
0000
0000
0000
0000
0010
0000
0000
0001
1000
0000
0000
0000
,
0101
0000
0000
0000
1001
0000
0000
0000
1100
0000
0000
0001
1000
0000
0000
0000
,
0000
0000
0000
0000
0000
0000
0000
0000
0010
0000
0000
1000
0001
0000
0000
0000
,
1100
0000
0000
0000
1001
0000
0000
0000
0101
0000
0000
1000
0001
0000
0000
0000
,
0010
0000
0000
1000
0100
0000
0000
0000
0010
0000
0000
1000
0001
0000
0000
0000
,
0100
0000
0000
1000
0010
0000
0000
0000
0001
0000
0000
0000
1000
0000
0100
0000
,
0010
0001
1000
0010
0100
0001
1000
0100
,
0010
0001
1000
0010
0100
0001
1000
0010
,
0100
0010
1000
0001
0010
0100
0010
0001
,
0100
0010
0100
0001
1000
1000
0010
0100
,
0010
1000
0001
0010
0100
0010
0001
0100
,
0010
0100
0001
1000
0001
0001
0010
0001
,
0100
1000
0100
0001
0010
0010
0100
1000
,
0010
0001
0010
1000
0100
0100
2000
0000
,
0001
0100
0001
0100
,
0001
0100
3002
1000
,
0100
1000
0100
1000
,
0100
0000
1003
0010
1000
0100
1000
0001
,
0100
0010
0100
0001
1000
0100
0001
0100
,
0010
1000
0011
0001
0100
0010
1000
0100
,
1000
0010
0100
0001
0010
0100
1000
0001
,
0010
0000
0000
0000
0000
0000
0000
0000
0001
0000
0000
0000
0000
0000
0000
0000
0200
0000
0000
0000
0000
0000
0000
0000
0000
0000
0000
0000
0000
0000
0000
0000
0010
0000
0000
0000
0000
0000
0000
0000
0000
0000
0000
0000
0000
0000
0000
0000
1001
0300
0000
0000
0000
0000
0000
0000
0000
0000
0000
0000
0000
0000
0000
0000
,
M00M
0000
0000
0000
;

//---------------dance-single - Novice----------------
#NOTES:
     dance-single:
     Novice:
     Easy:
     3:
     0.209,0.292,0.059,0.118,0:
0000
0000
0000
0000
,
0000
0000
0000
0000
,
0000
0000
0000
0000
,
0000
0000
0000
0000
,
1002
0000
0000
0000
,
0000
0000
0000
1003
,
2001
0000
0000
3001
,
1002
0000
0000
0013
,
0001
0000
0100
0000
,
0001
0000
1000
0000
,
0100
0100
0010
0000
,
0100
0000
1000
0000
,
0100
0100
0100
0100
,
0100
0010
0000
0002
,
1000
0000
1000
0000
,
1000
0000
1003
0020
,
0100
0000
0100
0000
,
0100
0000
0130
0002
,
0010
0000
0010
0000
,
0010
0000
0013
0001
,
0000
0000
1000
0001
,
1000
0000
0001
0010
,
0001
0000
1000
0100
,
1000
0000
0001
0100
,
0000
0100
0000
0010
,
0000
0010
0000
1000
,
0000
1000
0000
0001
,
0000
0001
0000
1001
,
0000
0010
0000
0100
,
0100
0000
0000
1001
,
0000
0100
0000
0010
,
0010
0000
0000
0001
,
0000
1000
0000
0100
,
0000
0010
0000
0100
,
0000
1000
0000
0001
,
0000
0010
0000
0001
,
1000
0000
0010
0100
,
0000
0001
0000
1000
,
0000
0100
0000
0010
,
0000
0001
0000
2002
,
0000
0000
3003
0010
,
0000
0010
0000
0100
,
0000
0100
0000
0010
,
0000
0010
0000
0100
,
0000
0100
0000
0001
,
1000
0000
0100
0000
,
1000
0000
0100
0010
,
0000
0001
0000
0100
,
0000
0010
0000
1000
,
0000
0100
0000
1000
,
0000
0001
0000
0100
,
0000
0010
0000
1000
,
0000
0100
0000
1000
,
0000
0010
0000
0100
,
0000
0001
0000
1000
,
0000
0000
0000
0010
,
0010
0010
0010
0010
,
0000
0000
0000
0100
,
0100
0100
0100
0100
,
0000
0001
0000
1000
,
0000
0100
0000
0010
,
0000
0001
0000
0100
,
0000
0010
0000
2000
,
0001
0000
0001
0000
,
0001
0000
3001
0200
,
0010
0000
0010
0000
,
0010
0000
0310
2000
,
0001
0000
3001
0200
,
0010
0000
0310
1000
,
0000
0000
0000
0000
,
0000
0000
0001
0000
,
0000
0000
0000
0000
,
0000
0100
0000
0000
,
0000
0000
0000
0000
,
0000
0010
0000
0100
,
0000
0010
0000
0100
,
0000
2002
0000
3003
;

//---------------dance-single - Intermediate----------------
#NOTES:
     dance-single:
     Intermediate:
     Medium:
     5:
     0.356,0.422,0.025,0.085,0: // measure 1
0000
0000
0000
0000
,  // measure 2
0000
0000
0000
0000
,  // measure 3
0000
0000
0000
0000
,  // measure 4
0000
0000
0000
0000
,  // measure 5
0010
1000
0010
0100
,  // measure 6
0001
0000
0010
0000
0100
0000
1000
0010
,  // measure 7
0000
0000
0100
0000
0001
0000
1000
0010
,  // measure 8
0000
0000
0100
0000
0001
0000
1000
0010
,  // measure 9
0100
0010
0001
0010
,  // measure 10
1000
0010
0100
0001
,  // measure 11
0010
0001
0100
1000
,  // measure 12
0100
0001
0010
0100
,  // measure 13
1000
0010
1000
0001
0100
0010
0100
0001
,  // measure 14
0010
0200
0300
1000
,  // measure 15
0010
0100
0010
1000
,  // measure 16
0001
0000
0100
0000
0010
1000
0000
0000
,  // measure 17
0001
0100
0010
0100
,  // measure 18
0001
0000
1000
0000
0010
1000
0000
0000
,  // measure 19
0001
0100
0010
0100
,  // measure 20
0001
0010
0100
2000
,  // measure 21
0010
0000
3010
0200
,  // measure 22
0001
0000
0301
2000
,  // measure 23
0100
0000
3100
0020
,  // measure 24
0001
0000
0000
0000
0031
0000
1000
0010
,  // measure 25
0000
0100
0000
0010
1000
0000
1000
0100
,  // measure 26
0000
0010
0000
0100
1000
0000
1000
0001
,  // measure 27
0000
0100
0000
0010
0100
0000
0100
0001
,  // measure 28
0000
1000
0000
0100
0010
0000
0002
0000
,  // measure 29
0000
2003
0000
3010
,  // measure 30
0010
0000
0000
2000
,  // measure 31
0000
3002
0000
0103
,  // measure 32
0100
0000
0000
1001
,  // measure 33
0000
0000
0000
0001
0100
0000
0010
0000
,  // measure 34
0100
0010
1000
0001
,  // measure 35
0010
0100
0100
0010
,  // measure 36
000M
0010
0100
2000
,  // measure 37
3001
0000
0000
1000
0100
0000
0010
0000
,  // measure 38
0001
0100
0010
0100
,  // measure 39
0001
1000
0100
1000
,  // measure 40
0010
0100
0001
1000
,  // measure 41
0010
0100
0001
1000
,  // measure 42
0010
0000
1000
0000
0100
0010
0100
0000
,  // measure 43
1000
0000
0001
0000
0100
0010
0100
0000
,  // measure 44
0001
0000
0010
0000
0100
1000
0100
0000
,  // measure 45
0010
0000
0001
0000
1000
0010
1000
0001
,  // measure 46
1000
0100
0000
1000
0010
1000
0000
0001
,  // measure 47
0100
0001
0000
0010
0001
1000
0010
0000
,  // measure 48
0010
0000
1000
0000
0001
1000
0001
0000
,  // measure 49
0100
0000
0010
0000
1000
0001
1000
0000
,  // measure 50
0010
0000
0100
0000
0001
0010
0001
0000
,  // measure 51
1000
0000
0010
0000
0100
0001
0100
0010
,  // measure 52
0100
0001
0000
1000
0100
1000
0000
0001
,  // measure 53
0100
0001
0000
1000
0010
1000
0000
0001
,  // measure 54
0010
0001
0000
0100
0010
0100
0000
0001
,  // measure 55
1000
0001
0000
1000
0010
1000
0001
0000
,  // measure 56
0000
0000
1000
0010
,  // measure 57
0100
0010
1000
0100
,  // measure 58
0000
0000
0010
0001
,  // measure 59
0100
0010
0100
0001
,  // measure 60
0000
0010
0000
0100
,  // measure 61
0000
1000
0000
0001
,  // measure 62
0100
0010
0100
0001
,  // measure 63
1000
0100
1000
0001
,  // measure 64
0100
0010
1000
0100
,  // measure 65
1000
0000
0010
0000
0100
0001
0000
0000
,  // measure 66
0010
0100
1000
0001
,  // measure 67
0100
0000
0010
0000
0100
0001
0000
0000
,  // measure 68
1000
0000
0010
0000
0100
0001
0000
0000
,  // measure 69
0100
0000
0010
0000
0100
0001
1000
0000
,  // measure 70
0000
0000
0000
0000
,  // measure 71
0000
0000
0001
0000
,  // measure 72
0000
0000
0000
0000
,  // measure 73
0000
0100
0000
0000
,  // measure 74
0000
0000
0000
0000
,  // measure 75
0000
0010
1000
0001
,  // measure 76
0010
0100
1000
0001
,  // measure 77
0100
1001
0010
0110
;

//---------------dance-double - Advanced----------------
#NOTES:
     dance-double:
     Advanced:
     Hard:
     8:
     0.590,0.584,0.068,0.076,0.080:
00000000
00000000
00000000
00000000
,
00000000
00000000
00000000
00000000
,
00000000
00000000
00000000
00000000
,
00000000
00000000
00000000
00000000
,
00000001
00000100
00000010
00010000
00001000
00100000
00010000
10000000
,
00100000
01000000
00001000
00010000
00000010
00000100
00000001
00000001
,
00000100
00000010
00010000
00001000
01000000
00100000
10000000
10000000
,
01000000
00100000
00001000
00010000
00000100
00000010
00000001
00000001
,
00001000
00000100
00010000
00000100
00001000
00000100
00010000
00000100
,
00001000
00000100
00010000
00001000
00100000
00010000
01000000
00100000
,
10000000
00010000
01000000
00010000
10000000
00010000
01000000
00010000
,
10000000
00010000
01000000
00010000
00100000
00001000
00010000
00000100
,
00001000
00000000
00000000
00000010
00001000
00000000
00000000
00000001
00001000
00000000
00000000
00000010
00000100
00000000
00000000
00000001
,
00000100
00000000
00002002
00000000
00003003
00000000
00000010
00000100
,
00000001
00000100
00000010
00001000
00000100
00001000
00000010
00010000
,
00001000
01000000
00100000
10000000
01000000
01000000
10000000
00100000
,
01000000
00100000
10000000
00010000
00100000
00010000
01000000
00001000
,
00010000
00000100
00001000
00000010
00000100
00000100
00000001
00001000
,
00000010
00000100
00010000
10000000
00100000
01000000
00001000
00100000
,
00010000
00000010
00000100
00001000
00000010
00000100
00000001
00000000
,
00001000
00000000
00000000
00000000
00000000
00000000
00000010
00000000
00001000
00000000
00000000
00000010
00001000
00000000
00000000
00000000
,
00001000
00000000
00000000
00000000
00000000
00000000
00000100
00000000
00010000
00000000
00000000
00000100
00010000
00000000
00000000
00000000
,
00010000
00000000
00000000
00000000
00000000
00000000
00001000
00000000
00100000
00000000
00000000
00001000
00100000
00000000
00000000
00000000
,
00100000
00000000
00000000
00000000
00000000
00000000
00010000
00000000
01000000
00000000
00000000
00010000
01000000
00000000
00100000
00000000
,
00000000
00100000
00000000
00100000
10000000
01000000
00001000
00000100
,
00000000
00000100
00000000
00000100
00000010
00000001
00001000
00000010
,
00000000
00000010
00000000
00000010
00010000
00001000
01000000
00100000
,
00000000
00100000
00000000
00100000
10000000
01000000
00200000
00000000
,
00000000
00000000
00000000
00000000
00010000
00000000
00000000
00000000
00000000
00000000
00000000
00000000
00301000
00010000
00001000
00010000
,
00001000
00000000
00010000
00000200
,
00000000
00000000
00000000
00000000
00001000
00000000
00000000
00000000
00000000
00000000
00000000
00000000
00010300
00001000
00010000
00001000
,
00010000
00000100
00000010
00000002
,
00000000
00000000
00000003
00001000
00000100
00010000
00001000
00100000
,
00010000
01000000
00100000
10000000
00010000
00100000
00001000
00010000
,
00001000
00100000
00010000
00000010
00000001
00000100
00002000
00000000
,
00000000
00000000
00013000
10000000
01000000
00100000
00020000
00000000
,
00000100
00000000
00031000
00000010
00000001
00000010
00000100
00001000
,
00000001
00000010
00000100
00001000
00000001
00000010
00001000
00010000
,
00001000
00000100
00010000
00100000
01000000
10000000
00100000
00010000
,
00001000
00010000
00000100
00001000
00000100
00000010
00001001
00000000
,
00011000
00000000
10010000
00000000
00011000
00000000
00000010
00000100
,
00000001
00000100
00000010
00000100
00000001
00000001
00001000
00000100
,
00001000
00000010
00001000
00000010
00001000
00001000
00000100
00010000
,
00000100
00001000
00000100
00010000
00001000
00001000
00100000
00010000
,
00100000
00001000
00100000
00001000
01000000
01000000
00100000
10000000
,
01000000
10000000
00000000
01000000
00010000
01000000
00000000
00010000
,
00001000
00010000
00000000
00001000
00000100
00001000
00000100
00000010
,
00000100
00000010
00010000
00001000
00010000
00010000
00000100
00001000
,
00000100
00010000
00001000
00100000
00010000
00010000
01000000
00100000
,
01000000
00010000
10000000
01000000
10000000
10000000
00100000
01000000
,
00100000
10000000
00010000
00100000
00010000
00010000
01000000
00100000
,
10000000
00100000
00000000
10000000
01000000
10000000
00000000
01000000
,
00010000
01000000
00000000
00010000
00001000
00010000
00000000
00001000
,
00000100
00001000
00000000
00000100
00000001
00000100
00000000
00000001
,
00000010
00000001
00000000
00000010
00001000
00000010
00000100
00000000
,
00000000
00000000
00000000
00000000
00000000
00000000
00000000
00000000
00010000
00000000
00000000
00001000
01000000
00000000
00000000
00000000
,
00100000
00000000
00000000
00000000
01000000
00000000
00000000
00000000
00100000
00000000
00000000
10000000
01000000
00000000
00000000
00000000
,
00000000
00000000
00000000
00000000
00000000
00000000
00000000
00000000
10000000
00000000
00000000
00010000
01000000
00000000
00000000
00000000
,
00001000
00000000
00000000
00000000
00010000
00000000
00000000
00000000
00000100
00000000
00000000
00001000
00000010
00000000
00000000
00000000
,
00000100
00000000
00000000
00000001
00001000
00000000
00000000
00000000
00000100
00000000
00000000
00010000
00001000
00000000
00000000
00000000
,
00100000
00000000
00000000
00010000
01000000
00000000
00000000
00000000
00100000
00000000
00000000
00000000
01000000
00000000
00010000
00000000
,
00100000
00010000
01000000
00001000
00010000
00000100
00001000
00000010
,
00000100
00000010
00001000
00000100
00000010
00000001
00000100
00000010
,
00001000
00000100
00010000
00001000
00100000
00010000
01000000
00100000
,
10000000
01000000
00100000
00010000
01000000
01000000
00100000
10000000
,
00010000
01000000
00001000
00010000
00000010
00001000
00000001
00000100
,
00000010
00001000
00000100
00000010
00000001
00000001
00000010
00001000
,
00010000
01000000
10000000
00100000
01000000
01000000
00100000
00010000
,
00001000
00000100
00000001
00000010
00000100
00000100
00020000
00000000
,
00000000
00000000
00000000
00000000
,
00000000
00000000
00032000
00000000
,
00000000
00000000
00000000
00000000
,
00000000
00000000
10003000
00100000
01000000
00100000
10000000
00010000
,
00100000
00001000
00010000
00000100
00001000
00000001
00000010
00000100
,
00000010
00000001
00001000
00000100
00001000
00000010
00000100
00000010
,
00001000
00000100
00010000
00001000
00100000
00010000
01000000
00100000
,
10000000
01000000
10010000
00000000
00011000
00000000
00001001
00000000
;

//---------------dance-double - Intermediate----------------
#NOTES:
     dance-double:
     Intermediate:
     Medium:
     5:
     0.342,0.422,0,0.085,0:
00000000
00000000
00000000
00000000
,
00000000
00000000
00000000
00000000
,
00000000
00000000
00000000
00000000
,
00000000
00000000
00000000
00000000
,
10000000
00100000
10000000
00010000
,
00100000
00000000
00010000
00000000
01000000
00000000
00100000
01000000
,
00000000
00000000
00001000
00000000
00010000
00000000
00000010
00000100
,
00000000
00000000
00000001
00000000
00001000
00000000
00000010
00000100
,
00000001
00001000
00000100
00010000
,
00001000
00100000
00010000
01000000
,
00100000
10000000
00010000
00100000
,
00001000
00010000
00000100
00001000
,
00000010
00000100
00000010
00000100
,
00000010
00002000
00003000
00000100
,
00010000
00001000
00100000
00010000
,
01000000
00000000
00100000
00000000
10000000
01000000
00000000
00000000
,
10000000
00010000
00100000
00001000
,
00010000
00000000
00000010
00000000
00000100
00000001
00000000
00000000
,
00001000
00000100
00001000
00000010
,
00010000
00001000
00100000
01000000
,
10000000
00000000
10000000
00000000
,
00010000
00000000
00010000
00000000
,
01000000
00000000
01000000
00000000
,
00001000
00000000
00000000
00000000
00001000
00000000
00010000
00000010
,
00000000
00000010
00000000
00000010
00001000
00000000
00001000
00000100
,
00000000
00000100
00000000
00000100
00010000
00000000
00010000
00001000
,
00000000
00001000
00000000
00001000
01000000
00000000
01000000
00100000
,
00000000
00100000
00000000
00100000
10000000
00000000
00010000
00000000
,
01000000
00000000
00100000
00000000
01000000
00000000
00010000
10000000
,
01000000
10000000
00010000
00100000
,
00001000
00000000
00010000
00000000
00001000
00000000
00010000
00000010
,
00000100
00000001
00000100
00000020
,
00000000
00000000
00000030
00001000
00000100
00000000
00010000
00000000
,
00001000
00010000
00000010
00000100
,
00000010
00010000
00001000
02000000
,
00000000
03010000
00010000
00200000
,
00001000
00000000
00300000
00010000
01000000
00000000
00010000
00000000
,
00100000
00010000
01000000
00001000
,
00010000
00001000
00000010
00000001
,
00000100
00000010
00001000
00000200
,
00020300
00032000
02003000
03010000
,
00100000
00000000
00010000
00000000
01000000
00100000
01000000
00000000
,
00001000
00000000
00010000
00000000
00000010
00000100
00000010
00000000
,
00001000
00000000
00000100
00000000
00001000
00000001
00001000
00000000
,
00000010
00000000
00000100
00000000
00000001
00000010
00000001
00001000
,
00000000
00001000
00000000
00000100
00000000
00000100
00000000
00010000
,
00000000
00010000
00000000
00001000
00000000
00001000
01000000
00000000
,
00100000
00000000
10000000
00000000
00010000
01000000
00010000
00000000
,
00100000
00000000
00001000
00000000
00010000
00000100
00010000
00000000
,
00000010
00000000
00000100
00000000
00000001
00000010
00000001
00000000
,
00001000
00000000
00000100
00000000
00010000
00001000
00010000
00000010
,
00000000
00000010
00000000
00001000
00000000
00001000
00000000
00000100
,
00000000
00000100
00000000
00010000
00000000
00010000
00000000
00001000
,
00000000
00001000
00000000
01000000
00000000
01000000
00000000
00100000
,
00000000
00100000
00000000
10000000
00000000
10000000
00010000
00000000
,
00000000
00000000
00000010
00001000
,
00000100
00000010
00000001
00000100
,
00000000
00000000
00100000
10000000
,
01000000
00100000
00010000
01000000
,
00000000
00001000
00000000
00010000
,
00000000
00000010
00000000
00001000
,
00000100
00001000
00000010
00000100
,
00000010
00010000
00000100
00010000
,
00001000
00100000
00010000
01000000
,
00010000
00000000
00100000
00000000
00010000
01000000
00000000
00000000
,
00100000
10000000
00010000
00100000
,
00010000
00000000
01000000
00000000
00001000
00010000
00000000
00000000
,
00000010
00000000
00000100
00000000
00000001
00000100
00000000
00000000
,
00000010
00000000
00010000
00000000
00001000
00010000
00000100
00000000
,
00000000
00000000
00000000
00000000
,
00000000
00000000
01000000
00000000
,
00000000
00000000
00000000
00000000
,
00000000
00000010
00000000
00000000
,
00000000
00000000
00000000
00000000
,
00000000
00100000
10000000
01000000
,
00100000
00001000
00010000
00000010
,
00000100
00000002
00000023
00001030
;

//---------------dance-double - Novice----------------
#NOTES:
     dance-double:
     Novice:
     Easy:
     3:
     0.198,0.227,0,0.034,0:
00000000
00000000
00000000
00000000
,
00000000
00000000
00000000
00000000
,
00000000
00000000
00000000
00000000
,
00000000
00000000
00000000
00000000
,
00100000
00000000
10000000
00000000
,
00010000
00000000
00100000
00001000
,
00010000
00000000
00000100
00001000
,
00000010
00000000
00000100
00000001
,
00001000
00000000
00000010
00000000
,
00000100
00000000
00000010
00000000
,
00010000
00000000
00000100
00000000
,
00001000
00000000
00000100
00000000
,
00010000
00001000
00010000
00001000
,
01000000
00100000
00000000
10000000
,
00000000
01000000
00000000
10000000
,
00000000
00100000
01000000
00010000
,
00000000
00100000
00000000
00001000
,
00000000
00010000
00000010
00000100
,
00000000
00000001
00000000
00000100
,
00000000
00000010
00000000
00001000
,
00000000
00000000
00001000
00000001
,
00001000
00000000
00000100
00010000
,
00000100
00000000
00001000
00000010
,
00001000
00000000
00000100
00010000
,
00000000
00001000
00000000
00100000
,
00000000
00010000
00000000
01000000
,
00000000
00100000
00000000
10000000
,
00000000
01000000
00000000
10000000
,
00000000
00010000
00000000
00200000
,
00301000
00000000
00000000
00010000
,
00000000
00000010
00000000
00002000
,
00003100
00000000
00000000
00000001
,
00000000
00001000
00000000
00000010
,
00000000
00000100
00000000
00000010
,
00000000
00010000
00000000
00001000
,
00000000
01000000
00000000
00100000
,
00010000
00000000
10000000
00010000
,
00000000
00100000
00000000
00001000
,
00000000
00010000
00000000
00000100
,
00000000
00001000
00000000
00000020
,
00000000
00000000
00000030
00001000
,
00000000
00000001
00000100
00000001
,
00000000
00000010
00000100
00000010
,
00000000
00000100
00010000
00000100
,
00000000
00010000
00001000
00010000
,
00000010
00000000
00001000
00000000
,
00000100
00000000
00010000
00001000
,
00000000
00100000
00010000
00100000
,
00000000
01000000
00100000
01000000
,
00000000
10000000
00010000
10000000
,
00000000
00100000
01000000
00100000
,
10000000
00000000
00010000
00000000
,
00100000
00000000
00001000
00000000
,
00010000
00000000
00000100
00000000
,
00010000
00000000
00001000
00010000
,
00000000
00000000
00000000
00000010
,
00000000
00000010
00000000
00000010
,
00000000
00000000
00000000
00100000
,
00000000
00100000
00000000
00100000
,
00000000
00001000
00000000
00010000
,
00000000
00001000
00000000
00010000
,
00000000
00000100
00000000
00001000
,
00000000
00000010
00000000
00000100
,
00000000
00000001
00000000
00000010
,
00000000
00000100
00001000
00000100
,
00000000
00010000
00000000
00001000
,
00000000
01000000
00100000
01000000
,
00000000
00010000
00100000
00010000
,
00000000
10000000
01000000
10000000
,
00000000
00000000
00000000
00000000
,
00000000
00000000
00010000
00000000
,
00000000
00000000
00000000
00000000
,
00000000
00100000
00000000
00000000
,
00000000
00000000
00000000
00000000
,
00000000
00001000
00000000
00010000
,
00000000
00000100
00000000
00001000
,
00000000
00000020
00000000
00000030
;
