#TITLE:Miracle 5ympho X;
#ARTIST:USAO;
#GENRE:Perfection;
#BANNER:miracle sympho bn.png;
#BACKGROUND:miracle sympho bg.png;
#MUSIC:Miracle 5ympho X.ogg;
#OFFSET:0.581;
#SAMPLESTART:59.1;
#SAMPLELENGTH:18.2;
#BPMS:0=210;
#BGCHANGES:0=Miracle 5ympho X.AVI=1=0=0=0,999=-=1=0=0=0;

//---------------dance-single - J. Nero----------------
#NOTES:
     dance-single:
     J. Nero:
     Challenge:
     13:
     0.962,1,0.246,0.707,0.686:
0000
0000
0000
0000
,
2000
0000
0000
0000
0000
0000
3000
0000
0000
0000
0001
0010
0100
0000
1000
0000
,
0001
0000
0000
0100
0000
0000
0001
0000
,
0010
0000
0000
0001
0000
0000
0100
0000
,
0010
0000
1000
0100
0000
0000
0010
0000
,
0001
0100
0001
1000
0100
0010
0001
1000
,
0010
0100
0010
1000
0100
0010
0001
1000
,
0001
0100
0010
0100
0001
1000
0100
0010
,
0002
0000
0000
0000
0000
0000
0000
0003
,
1000
1000
0100
0010
0100
1000
0010
0100
,
0010
1000
0100
0010
0001
0100
0001
1000
,
0010
0010
0100
0001
1000
0100
1000
1000
,
0001
0000
0100
0000
0001
0000
0010
0000
0100
1000
0001
0000
1000
0000
0001
0100
,
0010
0010
1000
0100
0010
0100
1000
0001
,
0100
0010
0100
0001
1000
0100
0010
0001
,
1000
0100
0010
0100
1000
0010
0100
0001
,
1000
0001
0100
0001
1000
0100
0010
0001
1000
0001
0100
0010
0100
0001
1000
0100
,
1000
0000
0000
0000
0100
1000
0000
0001
,
0200
0000
0302
0023
,
0230
0300
0000
2000
,
3200
0320
0032
0203
,
0320
0030
0200
0302
,
0023
0000
0000
0000
0000
0000
0000
0030
0002
0000
0000
0000
0203
0000
0000
0000
,
0320
0000
0000
0030
0000
0000
2000
0000
,
3200
0320
0032
2003
,
3020
0230
0302
0023
,
0130
0000
1100
0000
1000
0001
0101
0000
,
0100
0000
1010
0000
1000
0100
0110
0000
,
0010
0000
0011
0000
0001
1000
1100
0000
,
0100
0000
1001
0000
0001
0100
0110
0010
,
1000
0000
1001
0000
0001
0010
0110
0000
,
0100
0000
1100
0000
1000
0001
0101
0000
,
0100
0000
1010
0000
0010
0100
0101
0000
,
2002
3003
0000
0000
0000
0000
0000
0000
,
2000
3000
0000
0000
0000
0000
0000
0000
0200
0300
0000
0000
0000
0000
0000
0000
2000
3000
0000
0000
0000
0000
0000
0000
0002
0003
0000
0000
0200
0300
0000
0000
,
0010
0000
0000
0000
0200
0300
0000
0000
0001
0000
0000
0000
0020
0030
0000
0000
0200
0300
0000
0000
1000
0000
0000
0000
0200
0300
0000
0000
1000
0000
0000
0000
,
0002
0003
0000
0000
0000
0000
0000
0000
0200
0300
0000
0000
0000
0000
0000
0000
0020
0030
0000
0000
0000
0000
0000
0000
0200
0300
0000
0000
0002
0003
0000
0000
,
1000
0000
0000
0000
0002
0003
0000
0000
0100
0000
0000
0000
0020
0030
0000
0000
2000
3000
0000
0000
0100
0000
0000
0000
2000
3000
0000
0000
0100
0000
0000
0000
,
0010
0001
0100
0001
1000
0010
0100
0010
,
1000
0001
0010
0100
1000
0010
0100
0001
,
1000
0100
1000
0001
0100
0010
0100
0001
1000
0100
0010
0001
1000
0100
1000
0001
,
0200
0300
0000
0000
0000
0000
0000
0000
,
0104
0000
0000
0103
0001
0001
0020
0030
,
0110
0100
0000
1000
0001
0000
0001
0000
,
4100
0000
0000
3100
1000
1000
0002
0003
,
0101
0000
0100
0000
0000
0000
0001
0000
0100
000M
0100
0000
1000
0000
0000
0000
,
1040
0000
0000
1030
0010
0010
0200
0300
,
0101
0001
0000
0010
0100
0000
0100
0000
,
4100
0000
0000
3100
1000
1000
0020
0030
,
0400
0000
0000
0000
,
0000
0000
0000
0300
,
0000
0000
0000
0000
,
0000
0000
0000
0000
0000
0000
0000
0000
0000
0000
0000
0000
00M0
00M0
00M0
0000
0000
0000
0000
0000
0000
0000
00M0
00M0
00M0
0000
0000
0000
0000
0000
0000
0000
,
0000
0000
0000
0000
,
0001
0100
0001
1000
0100
0010
0001
1000
0001
0100
0010
0100
0001
1000
0100
0010
,
0100
1000
0001
0100
0010
0100
0001
1000
0001
0000
0000
0001
0000
0000
0100
0000
,
0001
1000
0001
0100
0010
0100
0001
1000
0100
0010
0001
1000
0001
0100
0010
0100
,
0002
0003
0000
0000
0000
0000
0000
0000
2002
3003
0000
0000
0000
0000
0000
0000
2020
3030
0000
0000
0000
0000
0000
0000
0220
0330
0000
0000
0100
0000
0000
0000
,
0001
1000
0001
0100
0010
0100
0001
1000
0100
0010
0100
1000
0001
0100
0010
0100
,
0001
1000
0100
0010
0001
0100
0010
1000
0001
0000
0000
0001
0000
0000
1000
0000
,
0010
1000
0010
0100
0001
1000
0001
0010
0100
1000
0001
0100
0010
0100
0001
1000
,
0001
0100
0001
0100
0010
0010
1000
0100
,
0010
0001
1000
0001
0100
0010
0100
0001
1000
0100
0010
0100
1000
0001
0100
0010
,
1000
0001
0100
0001
1000
0100
0010
0001
1000
0000
0000
1000
0000
0000
0001
0000
,
0100
0001
1000
0001
0010
0100
1000
0001
0100
0010
0100
0001
1000
0100
0010
0001
,
2000
3000
0000
0000
0000
0000
0000
0000
2002
3003
0000
0000
0000
0000
0000
0000
0202
0303
0000
0000
0000
0000
0000
0000
0220
0330
0000
0000
0010
0000
0000
0000
,
1000
0001
1000
0100
0010
0001
1000
0010
0100
0010
1000
0001
0010
0100
1000
0001
,
0100
0001
0010
0100
1000
0010
0100
0001
1000
0000
0000
1000
0000
0000
0001
0000
,
0100
0001
0010
0100
1000
0001
1000
0010
0100
0010
1000
0001
1000
0100
0010
0001
,
1000
0000
0000
0000
0000
0000
0000
0000
0002
0003
0000
0000
0000
0000
0000
0000
0002
0003
0000
0000
0000
0000
0000
0000
0002
0003
0000
0000
0000
0000
0000
0000
,
1000
0000
1000
0000
0010
0000
0000
0100
0000
0000
0001
0000
0000
0010
0000
0000
,
0100
0000
1000
0001
1000
0000
0001
0000
0000
0100
0000
0010
0000
0000
1000
0000
,
0001
0000
0001
0000
0010
0000
0000
0100
0000
0000
1000
0001
0000
0100
0001
0100
,
0010
0000
1000
0100
0010
0000
0001
0000
0000
0100
0000
0001
0000
0000
1000
0000
,
0010
0000
0010
0000
0100
0000
0000
0001
0000
0000
0010
0000
0000
0100
0000
0000
,
1000
0000
0001
0100
0001
0000
1000
0000
0000
0100
0000
0010
0000
0000
0001
0000
,
0100
0000
0100
0000
0001
0000
0000
0010
0000
0000
0001
0100
0000
0001
1000
0100
,
0010
0100
1000
0001
0100
0010
1000
0001
1000
0010
0100
0010
1000
0001
0100
0001
,
1000
0000
1000
0000
0100
0000
0000
0010
0000
0000
0001
0000
0000
0100
0000
0000
,
0010
0000
1000
0001
1000
0000
0001
0000
0000
0010
0000
0100
0000
0000
1000
0000
,
0001
0000
0001
0000
0100
0000
0000
0010
0000
0000
1000
0000
0000
0001
0000
0000
,
0010
0000
0100
1000
0100
0000
1000
0000
0000
0001
0000
1000
0000
0010
0100
0000
,
0001
0000
0001
0000
0010
0000
0000
0100
0000
0000
1000
0000
0000
0001
0000
0000
,
0100
0000
0010
1000
0010
0000
0100
0000
0000
0001
0000
1000
0000
0000
0100
0000
,
0010
0000
0010
0000
0001
0000
0000
1000
0000
0000
0010
0000
0000
0100
0000
0000
,
0202
0303
0000
0000
,
0002
0000
0003
0000
0000
0000
0000
0000
0000
0000
1000
0100
1000
0000
0001
0000
,
0200
0000
0000
0320
0000
0000
2030
0000
,
3200
0000
0000
0320
0000
0000
0032
0000
,
4003
0000
0000
0000
0000
0000
0000
0000
3001
0000
0100
0010
0100
0000
0001
0000
,
0010
0010
0100
1000
0010
0100
0010
1000
,
0100
0010
0001
1000
0010
0100
0010
1000
,
0100
0100
0010
0001
1000
0001
0100
0010
,
0100
0000
0001
0000
1000
0000
0001
0000
1000
0100
0010
0001
1000
0001
0100
0010
,
1000
1000
0001
0100
0001
1000
0100
0010
,
0100
1000
0010
0100
0010
1000
0001
0100
,
0001
1000
0100
0010
0100
1000
0010
0100
,
0001
1000
0001
0100
0010
1000
0010
0100
0001
0000
0000
0000
0000
0000
0000
0000
,
2002
0000
3003
0000
0000
0000
0000
0000
0000
0000
1000
0100
0010
0000
0100
0000
,
1000
0000
0000
0010
0000
0000
0100
0000
,
0001
0000
0000
0010
0000
0000
0001
0000
,
0100
0000
0000
0010
0000
0000
1000
0000
,
0001
0000
0000
0000
0000
0000
0000
0000
0000
0000
1000
0001
0100
0000
0001
0000
,
0010
0000
0000
0100
0000
0000
1000
0000
,
0010
0000
0000
0100
0000
0000
0001
0000
,
0010
0000
0000
0100
0000
0000
1000
0000
;

//---------------dance-single - ----------------
#NOTES:
     dance-single:
     :
     Hard:
     11:
     0.792,0.782,0.246,0.419,0.230:
0000
0000
0000
0000
,
2000
0000
0000
3000
0000
0001
0100
0010
,
1000
0000
0000
0100
0000
0000
0010
0000
,
0010
0000
0000
0001
0000
0000
0100
0000
,
0010
0000
1000
0100
0000
0000
0010
0000
,
0001
0100
0001
1000
0100
0010
0001
1000
,
0010
0100
0010
1000
0100
0010
0001
1000
,
0001
0100
0010
0100
0001
1000
0100
0010
,
0002
0000
0000
0000
0000
0000
0000
0003
,
1000
1000
0100
0010
0100
1000
0010
0100
,
0010
1000
0100
0010
0001
0100
0001
1000
,
0010
0010
0100
0001
1000
0100
1000
1000
,
0001
0100
0001
0010
0100
1000
1000
0001
,
0010
0010
0001
0100
0010
0100
0001
0001
,
0100
0010
0100
0001
1000
0100
0010
0001
,
1000
0100
0010
0100
1000
0010
0100
0001
,
1000
0100
1000
0010
1000
0100
1000
0100
,
1000
0000
0000
0000
0100
1000
0000
0001
,
0200
0000
0302
0023
,
0230
0300
0000
2000
,
3200
0320
0032
0203
,
0320
0030
0200
0302
,
0023
0000
0000
0000
0000
0000
0000
0030
0002
0000
0000
0000
0203
0000
0000
0000
,
0320
0000
0000
0030
0000
0000
2000
0000
,
3200
0320
0032
2003
,
3020
0230
0302
0023
,
0130
0000
1100
0000
1000
0001
0101
0000
,
0100
0000
1010
0000
1000
0100
0110
0000
,
0010
0000
0011
0000
0001
1000
1100
0000
,
0100
0000
1001
0000
0001
0100
0110
0010
,
1000
0000
1001
0000
0001
0010
0110
0000
,
0100
0000
1100
0000
1000
0001
0101
0000
,
0100
0000
1010
0000
0010
0100
0101
0000
,
2002
0000
0000
3003
,
1000
0000
0100
0000
1000
0000
0001
0100
,
0010
0100
0001
0010
0100
1000
0100
1000
,
0001
0000
0100
0000
0010
0000
0100
0001
,
1000
0001
0100
0010
1000
0100
1000
0100
,
0010
0001
0100
0001
1000
0010
0100
0010
,
1000
0001
0010
0100
1000
0010
0100
0001
,
1000
1000
0100
0100
1000
0010
1000
1000
,
0200
0300
0000
0000
0000
0000
0000
0000
,
0104
0000
0000
0103
0001
0001
0020
0030
,
0110
0100
0000
1000
0001
0000
0001
0000
,
4100
0000
0000
3100
1000
1000
0002
0003
,
0101
0100
0000
0001
0100
0100
0010
0000
,
1040
0000
0000
1030
0010
0010
0200
0300
,
0101
0001
0000
0010
0100
0000
0100
0000
,
4100
0000
0000
3100
1000
1000
0020
0030
,
0400
0000
0000
0000
,
0000
0000
0000
0300
,
0000
0000
0000
0000
,
0000
0000
0000
0000
0000
0000
0000
0000
0000
0000
0000
0000
00M0
00M0
00M0
0000
0000
0000
0000
0000
0000
0000
00M0
00M0
00M0
0000
0000
0000
0000
0000
0000
0000
,
0000
0000
0000
0000
,
0001
0100
0001
0000
0100
0000
0001
0000
0001
0000
0010
0000
0001
0000
0100
0000
,
0100
0000
0001
0000
0010
0000
0001
0000
0001
0000
0000
0001
0000
0000
0100
0000
,
0001
1000
0001
0000
0010
0000
0001
0000
0100
0000
0001
0000
0001
0000
0010
0000
,
0001
0000
1001
0000
1010
0000
0110
0100
,
0001
1000
0001
0000
0010
0000
0001
0000
0100
0000
0100
0000
0001
0000
0010
0000
,
0001
0000
0100
0000
0001
0000
0010
0000
0001
0000
0000
0001
0000
0000
1000
0000
,
0010
1000
0010
0000
0100
0000
0001
0000
0100
0000
0001
0000
0010
0000
0001
0000
,
0001
0100
0001
0100
0010
0010
1000
0100
,
0010
0001
1000
0000
0100
0000
0100
0000
1000
0000
0010
0000
1000
0000
0100
0000
,
1000
0000
0100
0000
1000
0000
0010
0000
1000
0000
0000
1000
0000
0000
0001
0000
,
0100
0001
1000
0000
0010
0000
1000
0000
0100
0000
0100
0000
1000
0000
0010
0000
,
1000
0000
1001
0000
0101
0000
0110
0010
,
1000
0001
1000
0000
0010
0000
1000
0000
0100
0000
1000
0000
0010
0000
1000
0000
,
0100
0000
0010
0000
0001
0000
0100
0000
0001
0000
0000
0001
0000
0000
0001
0000
,
0100
0001
0010
0000
0001
0000
1000
0000
0010
0000
1000
0000
1000
0000
0010
0000
,
1000
0001
0001
0001
,
1000
0000
1000
0000
0010
0000
0000
0100
0000
0000
0001
0000
0000
0010
0000
0000
,
0100
0000
1000
0001
1000
0000
0001
0000
0000
0100
0000
0010
0000
0000
1000
0000
,
0001
0000
0001
0000
0010
0000
0000
0100
0000
0000
1000
0001
0000
0000
0001
0000
,
0010
0000
0100
0010
0100
0000
0001
0000
0000
0100
0000
0001
0000
0000
1000
0000
,
0010
0000
0010
0000
0100
0000
0000
0001
0000
0000
0010
0000
0000
0100
0000
0000
,
1000
0000
0001
0100
0001
0000
1000
0000
0000
0100
0000
0010
0000
0000
0001
0000
,
0100
0000
0100
0000
0001
0000
0000
0010
0000
0000
0001
0100
0000
0001
1000
0000
,
0010
1000
0100
1000
1000
0100
1000
0100
,
1000
0000
1000
0000
0100
0000
0000
0010
0000
0000
0001
0000
0000
0100
0000
0000
,
0010
0000
1000
0001
1000
0000
0001
0000
0000
0010
0000
0100
0000
0000
1000
0000
,
0001
0000
0001
0000
0100
0000
0000
0010
0000
0000
1000
0000
0000
0001
0000
0000
,
0010
0000
0100
1000
0100
0000
1000
0000
0000
0001
0000
1000
0000
0010
0100
0000
,
0001
0000
0001
0000
0010
0000
0000
0100
0000
0000
1000
0000
0000
0001
0000
0000
,
0100
0000
0010
1000
0010
0000
0100
0000
0000
0001
0000
1000
0000
0000
0100
0000
,
0010
0000
0010
0000
0001
0000
0000
1000
0000
0000
0010
0000
0000
0100
0000
0000
,
0202
0303
0000
0000
,
0002
0000
0003
0000
0000
0000
0000
0000
0000
0000
1000
0100
1000
0000
0001
0000
,
0200
0000
0000
0320
0000
0000
2030
0000
,
3200
0000
0000
0320
0000
0000
0032
0000
,
4003
0000
0000
0000
0000
0000
0000
0000
3001
0000
0100
0010
0100
0000
0001
0000
,
0010
0010
0100
1000
0010
0100
0010
1000
,
0100
0010
0001
1000
0010
0100
0010
1000
,
0100
0100
0010
0001
1000
0001
0100
0010
,
0100
0001
1000
0001
1000
0010
1000
0100
,
1000
1000
0001
0100
0001
1000
0100
0010
,
0100
1000
0010
0100
0010
1000
0001
0100
,
0001
1000
0100
0010
0100
1000
0010
0100
,
0001
0010
0001
0010
0001
0000
0000
0000
,
2002
0000
3003
0000
0000
0000
0000
0000
0000
0000
1000
0100
0010
0000
0100
0000
,
1000
0000
0000
0010
0000
0000
0100
0000
,
0001
0000
0000
0010
0000
0000
0001
0000
,
0100
0000
0000
0010
0000
0000
1000
0000
,
0001
0000
0000
0000
0000
0000
0000
0000
0000
0000
1000
0001
0100
0000
0001
0000
,
0010
0000
0000
0100
0000
0000
1000
0000
,
0010
0000
0000
0100
0000
0000
0001
0000
,
0010
0000
0000
0100
0000
0000
1000
0000
;

//---------------dance-single - ----------------
#NOTES:
     dance-single:
     :
     Medium:
     7:
     0.518,0.739,0.148,0.427,0.016:
0000
0000
0000
0000
,
2000
0000
0000
3000
0000
0000
0100
0000
,
1000
0000
0000
0010
0000
0000
0010
0000
,
0010
0000
0000
0100
0000
0000
0100
0000
,
0010
0000
0000
1000
0000
0000
0010
0000
,
1000
0001
0100
0001
,
0010
0010
0100
1000
,
0001
0010
0001
0100
,
0002
0000
0000
0003
,
1000
0100
0100
0010
,
0010
0100
1000
0001
,
0010
0100
1000
1000
,
0001
0001
0100
0100
,
0010
1000
0010
0100
,
0010
0100
0010
0100
,
0001
1000
0100
0010
,
0100
1000
0001
1000
,
0001
0000
0100
0000
,
0200
0000
0302
0023
,
0230
0300
0000
2000
,
3200
0320
0032
0203
,
0320
0030
0200
0302
,
0023
0000
0032
0203
,
0320
0000
0000
0030
0000
0000
2000
0000
,
3200
0320
0032
2003
,
3020
0230
0302
0023
,
0130
1000
1000
0101
,
0001
1000
1000
0110
,
0010
1000
1000
1100
,
0100
0010
0010
0110
,
1000
0001
0001
0110
,
0100
0010
0010
0101
,
0100
0010
1000
0001
,
2002
0000
0000
3003
,
1000
0000
0100
0000
1000
0000
0001
0010
,
0000
0001
0000
0100
0010
0000
0100
0000
,
0001
0000
0100
0000
0010
0000
0100
0010
,
0000
1000
0000
0010
1000
0000
1000
0000
,
0010
0000
0100
0000
0010
0000
0010
1000
,
0000
0010
0000
0010
1000
0000
0100
0000
,
1000
0000
0100
0000
1000
0000
1000
0200
,
0000
0000
0000
0300
,
0202
0303
0001
0010
,
0110
0000
1000
0010
,
2200
0000
3300
0000
1000
0000
0002
0003
,
0101
0000
0100
0010
,
2020
0000
3030
0000
0010
0000
0200
0300
,
0101
0000
0100
0100
,
0220
0000
0330
0000
1000
0000
0020
0030
,
0200
0000
0000
0000
,
0000
0000
0000
0000
,
0300
0000
0000
0000
,
0000
0000
0000
0000
,
0000
0000
0000
0000
,
0001
0100
0001
0000
0001
0000
0001
0000
,
0100
0000
0000
0000
0010
0000
0000
0000
1000
0000
0000
0001
0000
0000
0000
0000
,
0001
1000
0010
0000
0100
0000
0001
0000
,
0001
1000
1010
0010
,
1000
0010
1000
0000
0100
0000
0010
0000
,
0001
0000
0000
0000
0001
0000
0000
0000
0001
0000
0000
0001
0000
0000
0000
0000
,
0001
1000
0100
0000
0100
0000
0010
0000
,
0001
0001
0010
0001
,
0010
0001
0100
0000
0010
0000
1000
0000
,
1000
0000
0000
0000
1000
0000
0000
0000
1000
0000
0000
1000
0000
0000
0000
0000
,
0100
1000
0010
0000
0100
0000
0010
0000
,
1000
1001
0001
0110
,
1000
0001
0010
0000
0100
0000
0010
0000
,
0100
0000
0000
0000
1000
0000
0000
0000
0001
0000
0000
0001
0000
0000
0001
0000
,
0100
0001
1000
0000
0010
0000
1000
0000
,
1000
0001
0001
0001
,
1000
0010
0100
0010
,
0100
0001
0100
0010
,
1000
0010
0100
0001
,
0010
0100
0100
1000
,
0010
0100
0001
0100
,
0010
1000
0100
0010
,
0100
1000
0010
0100
,
0010
0100
0001
1000
,
0100
0010
0100
0010
,
0001
0001
1000
0100
,
0010
0100
1000
0001
,
0100
0010
0100
0001
,
1000
0010
0100
0010
,
1000
0100
0010
0001
,
0010
0001
1000
0010
,
0200
0000
0300
0000
,
0001
0000
0000
0000
0000
1000
0100
1000
,
0200
0000
0000
0320
0000
0000
0032
0000
,
0203
0000
0000
0320
0000
0000
2030
0000
,
3002
0000
0003
0000
0010
0001
0010
0000
,
0100
0100
0010
0010
,
0100
1000
0010
0010
,
0100
0010
1000
0100
,
0100
1000
1000
0001
,
1000
0001
0001
0100
,
0100
0010
0010
1000
,
1000
0100
0100
0010
,
0010
0001
0001
0000
,
2002
0000
3003
0000
0000
1000
0010
0100
,
0001
0000
0000
0010
0000
0000
0100
0000
,
1000
0000
0000
0010
0000
0000
0100
0000
,
0010
0000
0000
1000
0000
0000
0001
0000
,
1000
0000
0000
0000
0000
0100
0010
0001
,
1000
0000
0000
0100
0000
0000
1000
0000
,
0010
0000
0000
0100
0000
0000
0001
0000
,
0010
0000
0000
0100
0000
0000
1000
0000
;

//---------------dance-single - ----------------
#NOTES:
     dance-single:
     :
     Easy:
     4:
     0.289,0.434,0.082,0.205,0:
0000
0000
0000
0000
,
2000
0000
3000
0000
,
0200
0000
0300
0000
,
0020
0000
0030
0000
,
0002
0000
0003
0000
,
1000
0000
0100
0000
,
0010
0000
0010
0000
,
0001
0000
1000
0000
,
0002
0000
0003
0000
,
1000
0000
0100
0000
,
0010
0000
0001
0000
,
0010
0000
0100
0000
,
1000
0000
0010
0000
,
0100
0000
0010
0000
,
1000
0000
0001
0000
,
1000
0000
0100
0000
,
0010
0000
0001
0000
,
0010
0000
0100
0000
,
2000
3000
0001
0000
,
0100
0000
0000
0000
,
0100
0000
0001
0000
,
0010
0000
0100
0000
,
0020
0030
0001
0000
,
0010
0000
0000
0000
,
0100
0000
1000
0000
,
0010
0000
0100
0000
,
0001
0000
1000
0000
,
0001
0000
1000
0000
,
0010
0000
1000
0000
,
0100
0000
0010
0000
,
0001
0000
1000
0000
,
0100
0000
0010
0000
,
0100
0000
1000
0000
,
2002
3003
0000
0000
,
1000
0000
0000
0000
1000
0000
0000
0010
,
0000
0000
0000
0100
0000
0000
0000
0000
,
0001
0000
0000
0000
0010
0000
0000
0001
,
0000
0000
0000
0010
0000
0000
0000
0000
,
0010
0000
0000
0000
0001
0000
0000
1000
,
0000
0000
0000
0010
0000
0000
0000
0000
,
1000
0000
0000
0000
1000
0000
0000
0100
,
0000
0000
0000
0000
,
2002
3003
0000
0000
,
0220
0330
0000
0000
,
2200
3300
0000
0000
,
0202
0303
0000
0000
,
2020
3030
0000
0000
,
0220
0330
0000
0000
,
0022
0033
0000
0000
,
0210
0000
0000
0000
,
0000
0000
0000
0000
,
0300
0000
0000
0000
,
0000
0000
0000
0000
,
0000
0000
0000
0000
,
1000
0100
1000
0000
,
0100
0000
1000
0000
,
0001
1000
0010
0000
,
1000
0000
0010
0000
,
1000
0010
0100
0000
,
0001
0000
0001
0000
,
0001
0100
0001
0000
,
0001
0000
0010
0000
,
0010
0001
0010
0000
,
0100
0000
0010
0000
,
0100
0010
0100
0000
,
1000
0000
0001
0000
,
1000
0010
0100
0000
,
0100
0000
0001
0000
,
0100
0010
1000
0000
,
1000
0000
0001
0000
,
1000
0100
0010
0000
,
0100
0000
0100
0000
,
1000
0010
0100
0000
,
0010
0000
0100
0000
,
0010
1000
0010
0000
,
0100
0000
0001
0000
,
1000
0010
1000
0000
,
0001
0000
1000
0000
,
0100
0010
0100
0000
,
1000
0000
0001
0000
,
0100
0001
0001
0000
,
0100
0000
0010
0000
,
1000
0100
0100
0000
,
1000
0000
0010
0000
,
0010
0000
1000
0000
,
0200
0000
0300
0000
,
1000
0000
0000
0100
,
0100
0000
0000
0010
0000
0000
0001
0000
,
0100
0000
0000
0010
0000
0000
1000
0000
,
0001
0000
0010
0000
,
0100
0010
0100
0000
,
0100
0000
0010
0000
,
0100
0010
0001
0000
,
1000
0000
0001
0000
,
1000
0001
1000
0000
,
0100
0000
0010
0000
,
0001
0010
0100
0000
,
0010
0000
0001
0000
,
1001
0000
0000
0010
,
0001
0000
0000
0010
0000
0000
0100
0000
,
1000
0000
0000
0010
0000
0000
0100
0000
,
0010
0000
0000
1000
0000
0000
0001
0000
,
1000
0000
0000
0100
,
1000
0000
0000
0100
0000
0000
1000
0000
,
0010
0000
0000
0100
0000
0000
0001
0000
,
0010
0000
0000
0100
0000
0000
1000
0000
;

//---------------dance-single - ----------------
#NOTES:
     dance-single:
     :
     Beginner:
     2:
     0.171,0.434,0.074,0.140,0:
0000
0000
0000
0000
,
1000
0000
0000
0000
,
0100
0000
0000
0000
,
0010
0000
0000
0000
,
0001
0000
0000
0000
,
1000
0000
0000
0000
,
0010
0000
0000
0000
,
0100
0000
0000
0000
,
0001
0000
0000
0000
,
1000
0000
0000
0000
,
0010
0000
0000
0000
,
0010
0000
0000
0000
,
1000
0000
0000
0000
,
0100
0000
0000
0000
,
1000
0000
0000
0000
,
1000
0000
0000
0000
,
0010
0000
0000
0000
,
0010
0000
0000
0000
,
1000
0000
0000
0000
,
0100
0000
0000
0000
,
0100
0000
0000
0000
,
0010
0000
0000
0000
,
0010
0000
0000
0000
,
0010
0000
0000
0000
,
0100
0000
0000
0000
,
0010
0000
0000
0000
,
0001
0000
0000
0000
,
0001
0000
0000
0000
,
0010
0000
0000
0000
,
0100
0000
0000
0000
,
1000
0000
0000
0000
,
1000
0000
0000
0000
,
0100
0000
0000
0000
,
1001
0000
0000
0000
,
1000
0000
0000
0000
,
0010
0000
0000
0000
,
1000
0000
0000
0000
,
0001
0000
0000
0000
,
0010
0000
0000
0000
,
0001
0000
0000
0000
,
1000
0000
0000
0000
,
0100
0000
0000
0000
,
2002
3003
0000
0000
,
2002
3003
0000
0000
,
2002
3003
0000
0000
,
2002
3003
0000
0000
,
2002
3003
0000
0000
,
2002
3003
0000
0000
,
2002
3003
0000
0000
,
2002
0000
3003
0000
,
0000
0000
0000
0000
,
0000
0000
0000
0000
,
0000
0000
0000
0000
,
0000
0000
0000
0000
,
1000
0000
0100
0000
,
1000
0000
0000
0000
,
0001
0000
1000
0000
,
0010
0000
0000
0000
,
1000
0000
0010
0000
,
1000
0000
0000
0000
,
0001
0000
1000
0000
,
0001
0000
0000
0000
,
0010
0000
0001
0000
,
0100
0000
0000
0000
,
0100
0000
0010
0000
,
1000
0000
0000
0000
,
1000
0000
0010
0000
,
0100
0000
0000
0000
,
0100
0000
0010
0000
,
1000
0000
0000
0000
,
1000
0000
0010
0000
,
0100
0000
0000
0000
,
0001
0000
0010
0000
,
0100
0000
0000
0000
,
0010
0000
0001
0000
,
1000
0000
0000
0000
,
1000
0000
0001
0000
,
1000
0000
0000
0000
,
0100
0000
0010
0000
,
0001
0000
0000
0000
,
0100
0000
0001
0000
,
0001
0000
0000
0000
,
1000
0000
0100
0000
,
0100
0000
0000
0000
,
0010
0000
0000
0000
,
0200
0300
0000
0000
,
1000
0000
0000
0000
,
0100
0000
0000
0000
,
0100
0000
0000
0000
,
1000
0000
0000
0000
,
0100
0000
1000
0000
,
0100
0000
0000
0000
,
1000
0000
0000
0000
,
0001
0000
0000
0000
,
1000
0000
0010
0000
,
0100
0000
0000
0000
,
0001
0000
0000
0000
,
0010
0000
0000
0000
,
0001
0000
0000
0000
,
1000
0000
0000
0000
,
1000
0000
0000
0000
,
0010
0000
0000
0000
,
1000
0000
0000
0000
,
1000
0000
0000
0000
,
0010
0000
0000
0000
,
0010
0000
0000
0100
0000
0000
0001
0000
;
