#TITLE:組曲「らき☆すた動画」;
#ARTIST:らきすたのみんな;
#TITLETRANSLIT:Kumikyoku 'Lucky Star Douga';
#ARTISTTRANSLIT:Lucky Star no Minna;
#CREDIT:Lisek & Chmurek;
#BANNER:Kumikyoku.png;
#BACKGROUND:Kumikyoku-bg.png;
#CDTITLE:.\cdtitles\LisekChmurek.png;
#MUSIC:Kumikyoku 'Lucky Star Douga'.ogg;
#OFFSET:-0.612;
#SAMPLESTART:807.63;
#SAMPLELENGTH:24.56;
#BPMS:0=172;
#BGCHANGES:-1.7=Kumikyoku.avi=1=1=1=0,2648.5=Kumikyoku-bg.png=1=1=0=1;

//---------------dance-single - Chmurek----------------
#NOTES:
     dance-single:
     Chmurek:
     Medium:
     6:
     0.401,0.640,0.291,0.124,0.016: // measure 1
0000
0000
0000
0000
,  // measure 2
0000
0000
0000
0000
,  // measure 3
0000
0000
0000
0000
,  // measure 4
0000
0000
0000
0000
,  // measure 5
0000
0000
0000
0000
,  // measure 6
0000
0000
0000
0000
,  // measure 7
0000
0000
0000
0000
,  // measure 8
0000
0000
0000
0000
,  // measure 9
1000
0100
1000
0100
,  // measure 10
0010
0001
0010
0001
,  // measure 11
1000
0001
1000
0001
,  // measure 12
1000
0010
1000
0010
,  // measure 13
1001
0000
0000
0000
,  // measure 14
0000
0000
0000
0000
,  // measure 15
0110
0000
0000
0000
,  // measure 16
0000
0000
0000
0000
,  // measure 17
0011
0000
1010
0000
,  // measure 18
1100
0000
0101
0000
,  // measure 19
1001
0110
1001
0110
,  // measure 20
0001
1000
0001
1000
0001
1000
0001
1000
,  // measure 21
0001
0000
0000
0000
,  // measure 22
0000
0000
0000
0000
,  // measure 23
1000
0100
0010
0001
,  // measure 24
0100
0010
1000
0100
,  // measure 25
0001
0100
1000
0010
,  // measure 26
0002
0000
0003
0010
,  // measure 27
1000
0100
0010
0100
,  // measure 28
1000
0010
0100
0001
,  // measure 29
0010
1000
0010
0001
,  // measure 30
0200
0000
0300
0001
,  // measure 31
0010
0100
0010
0001
,  // measure 32
1000
0010
0100
0010
,  // measure 33
1000
0100
0001
0100
,  // measure 34
2000
0000
3000
0010
,  // measure 35
1000
0100
0010
0100
,  // measure 36
1000
0001
0100
0010
,  // measure 37
1000
0100
0001
0100
,  // measure 38
1000
0010
0100
0001
,  // measure 39
1000
0000
0100
0000
1000
0100
1000
0000
,  // measure 40
0100
0000
0010
0000
0001
0010
0001
0000
,  // measure 41
1000
0001
0020
0030
,  // measure 42
0100
1000
0002
0003
,  // measure 43
0001
0000
0010
0000
0100
1000
0100
0000
,  // measure 44
0010
0000
0001
0000
0100
0010
0100
0000
,  // measure 45
0010
1000
0020
0030
,  // measure 46
1000
0001
0200
0300
,  // measure 47
0010
0000
1000
0000
0100
1000
0100
0000
,  // measure 48
0010
0000
0001
0000
0100
0010
0100
0000
,  // measure 49
0001
0010
0002
0003
,  // measure 50
0010
0100
2000
3000
,  // measure 51
0100
0000
0010
0000
0001
1000
0001
0000
,  // measure 52
0100
0000
0010
0000
1000
0010
1000
0000
,  // measure 53
0100
0010
0200
0300
,  // measure 54
0010
0001
0200
0310
,  // measure 55
1001
0001
0010
0100
,  // measure 56
1100
0100
0010
0001
,  // measure 57
0101
0100
0010
1000
,  // measure 58
1100
0100
0110
0010
,  // measure 59
0011
0001
1000
0010
,  // measure 60
0101
0010
1000
0100
,  // measure 61
0210
0001
1000
0010
,  // measure 62
2300
3000
0002
0003
,  // measure 63
1100
0100
0010
0001
,  // measure 64
0101
0010
1000
0100
,  // measure 65
0110
0001
1000
0010
,  // measure 66
0110
0100
0101
0001
,  // measure 67
0011
0010
0100
1000
,  // measure 68
1001
0001
0100
0010
,  // measure 69
1020
0100
1000
0001
,  // measure 70
2030
3000
0002
0003
,  // measure 71
1001
0000
0000
0000
0001
0001
0000
0000
,  // measure 72
1000
0000
0000
0010
0000
0100
0000
0100
,  // measure 73
0001
0000
0000
0000
0010
0010
0000
0000
,  // measure 74
0100
0000
0000
1000
0000
0010
0000
0010
,  // measure 75
0100
0000
0000
0000
0001
0001
0000
0000
,  // measure 76
1000
0000
0000
0100
0000
0100
0000
0010
,  // measure 77
0001
0000
0000
0000
,  // measure 78
1000
0001
1000
0000
1001
0000
0000
0000
,  // measure 79
1000
0100
1000
0100
1000
0000
0100
0000
,  // measure 80
0010
0001
0010
0001
0010
0000
0001
0000
,  // measure 81
1000
0000
0010
0100
0001
0000
0100
0000
,  // measure 82
0010
0010
0010
0000
0100
0100
0100
0000
,  // measure 83
0001
1000
0001
1000
0001
0000
0010
0000
,  // measure 84
0100
0010
0100
0010
0100
0000
0010
0000
,  // measure 85
0001
0000
1000
0010
1000
0000
0010
0000
,  // measure 86
1000
1000
1000
0000
0001
0001
0001
0000
,  // measure 87
1000
0100
0010
0001
1000
0010
0100
0001
,  // measure 88
1000
0100
0010
0001
0000
0000
0000
0000
,  // measure 89
0001
0010
0100
1000
0010
0100
0001
0010
,  // measure 90
0200
0000
0000
0310
0000
0000
0000
0000
,  // measure 91
1000
0100
0010
0001
0100
0010
1000
0100
,  // measure 92
0010
0001
0100
0010
0000
0000
0000
0000
,  // measure 93
1000
0010
1000
0010
0100
0001
0100
0001
,  // measure 94
1000
0000
1001
0000
,  // measure 95
1000
0100
0010
0000
0001
0000
0100
0000
,  // measure 96
0010
1000
0100
0000
0010
0000
0001
0000
,  // measure 97
0100
0001
0010
0000
0100
0000
1000
0000
,  // measure 98
0100
0010
0001
0000
0200
0000
0300
0000
,  // measure 99
0001
1000
0010
0000
0100
0000
0100
0000
,  // measure 100
0001
0010
0100
0000
1000
0000
0001
0000
,  // measure 101
1001
0000
0110
0000
,  // measure 102
2002
0000
0000
3003
,  // measure 103
1010
0101
1010
0101
,  // measure 104
0001
0010
0100
1000
,  // measure 105
1100
0011
1100
0011
,  // measure 106
1000
0010
0100
0001
,  // measure 107
1001
0010
0100
0001
,  // measure 108
1001
0010
0110
0100
,  // measure 109
1002
0100
0010
0100
,  // measure 110
2003
0000
0000
3001
0000
0000
0000
0000
,  // measure 111
0011
1100
0011
1100
,  // measure 112
0001
0010
0100
1000
,  // measure 113
1010
0101
1010
0101
,  // measure 114
0001
0010
0100
0010
,  // measure 115
0011
0001
1000
0010
,  // measure 116
1010
1000
1001
0001
,  // measure 117
0012
0000
1000
0000
0100
0000
0020
0003
,  // measure 118
0100
1000
0100
0031
,  // measure 119
1001
0000
0000
0000
,  // measure 120
0000
0000
0000
0000
,  // measure 121
1010
0000
0101
0000
,  // measure 122
1001
0110
1001
M00M
,  // measure 123
0000
0000
0000
0000
0000
0000
0000
0000
0000
1000
0000
1000
,  // measure 124
0100
0000
0000
0010
0000
0010
0001
0000
0000
0001
0000
0001
,  // measure 125
0200
0000
0000
0320
0000
0000
0030
0000
0000
1000
0000
1000
,  // measure 126
0010
0000
0000
0100
0000
0100
0001
0000
0000
0010
0000
0010
,  // measure 127
0200
0000
0000
0000
0000
0000
0300
0000
0000
0010
0000
0010
,  // measure 128
0001
0000
0000
0001
0000
0001
0100
0000
0000
0010
0000
0010
,  // measure 129
1000
0000
0000
0002
0000
0000
0003
0000
0000
0100
0000
0100
,  // measure 130
0010
0000
0000
0010
0000
0010
1000
0000
0000
0100
0000
0100
,  // measure 131
0010
0001
0010
0001
,  // measure 132
0020
0100
0100
0100
,  // measure 133
0130
1000
0001
0100
,  // measure 134
0020
0100
0100
0100
,  // measure 135
0130
0001
0010
0100
,  // measure 136
0000
1000
0100
0010
,  // measure 137
0000
0001
0100
0010
,  // measure 138
0100
0001
0100
0001
,  // measure 139
0100
0001
0010
0100
,  // measure 140
1000
0100
1000
0100
,  // measure 141
1000
0100
0010
0001
,  // measure 142
0100
0010
0100
0010
,  // measure 143
0100
0001
0010
0100
,  // measure 144
0000
1000
0100
0010
,  // measure 145
0000
0001
0100
1000
,  // measure 146
0100
0001
1000
0001
,  // measure 147
0010
M000
00M0
0M00
,  // measure 148
100M
0000
0100
0000
,  // measure 149
0001
0000
0100
0000
,  // measure 150
1000
0000
0010
0000
,  // measure 151
0001
0000
0010
0000
,  // measure 152
1000
0000
0001
0000
,  // measure 153
0100
0000
0001
0000
,  // measure 154
0010
0000
0100
0000
,  // measure 155
2000
0000
3002
0003
,  // measure 156
1001
0000
1000
0000
,  // measure 157
0100
0000
0100
0000
,  // measure 158
0001
0000
0100
0000
,  // measure 159
0001
0000
0000
0000
,  // measure 160
0100
0000
1000
0000
,  // measure 161
0010
0000
0001
0000
,  // measure 162
0010
0000
0100
0000
,  // measure 163
0010
0000
1000
0000
,  // measure 164
0100
0010
0001
0010
,  // measure 165
1100
0000
1100
0000
1000
0100
1000
0100
,  // measure 166
0000
1000
0000
0000
1100
0000
1100
0000
,  // measure 167
0011
0000
0011
0000
0010
0001
0010
0001
,  // measure 168
0000
0010
0000
0000
0011
0000
0011
0000
,  // measure 169
0001
0100
0010
0100
,  // measure 170
0001
0010
0100
0010
,  // measure 171
0001
0100
0010
1000
,  // measure 172
0100
0010
0001
0100
,  // measure 173
0101
0100
0010
1000
,  // measure 174
0100
0010
0100
1000
,  // measure 175
0001
0100
0001
1000
,  // measure 176
0001
0100
0010
1000
,  // measure 177
1100
0100
0010
0001
,  // measure 178
0100
0010
0100
0000
,  // measure 179
0100
0001
0010
0100
,  // measure 180
1000
0000
0001
0000
,  // measure 181
1001
0001
0100
0010
,  // measure 182
1000
0010
0100
0001
,  // measure 183
0010
0100
0010
0001
,  // measure 184
0100
0000
0010
0000
,  // measure 185
0110
0100
0010
1000
,  // measure 186
0001
0100
0010
0000
,  // measure 187
1000
0100
0010
0001
,  // measure 188
1000
0000
0001
0000
,  // measure 189
2002
0000
3003
M00M
,  // measure 190
1000
0100
0001
0100
,  // measure 191
1000
0010
0100
0001
,  // measure 192
0100
0010
1000
0100
,  // measure 193
0010
0100
1000
0010
,  // measure 194
0001
0010
0100
0001
,  // measure 195
1000
0100
0100
0100
,  // measure 196
0100
0000
0100
0010
,  // measure 197
0001
0100
0010
1000
,  // measure 198
1001
0001
0100
1000
,  // measure 199
0100
0001
0010
0100
,  // measure 200
1000
0100
0010
0100
,  // measure 201
1000
0010
0100
0001
,  // measure 202
0100
0000
0010
0000
1000
0000
0000
MMMM
,  // measure 203
0000
MMMM
0000
MMMM
0000
MMMM
0000
0000
,  // measure 204
2000
3200
0320
0031
,  // measure 205
1001
0000
0000
0000
,  // measure 206
1000
0100
0010
0100
,  // measure 207
1000
0010
0110
0110
,  // measure 208
0100
0010
1000
0100
,  // measure 209
1000
0001
0010
0100
,  // measure 210
0110
0000
0000
0000
,  // measure 211
0010
0000
0100
0000
,  // measure 212
0010
0000
0000
0000
,  // measure 213
0001
0000
1000
0000
,  // measure 214
0001
0000
0000
0000
,  // measure 215
0100
0000
0000
0000
,  // measure 216
0100
0000
0010
0000
,  // measure 217
0100
0000
0010
0000
,  // measure 218
0110
0000
0000
0000
,  // measure 219
0000
0000
0000
0000
,  // measure 220
0011
0000
0000
0000
,  // measure 221
0000
0000
0000
0000
,  // measure 222
1100
0000
0000
0000
,  // measure 223
1010
0000
0000
0000
,  // measure 224
0101
0000
1001
0000
,  // measure 225
1100
0000
0000
0000
,  // measure 226
1000
0100
0001
0100
,  // measure 227
1000
0010
0001
0010
,  // measure 228
1000
0100
0010
0100
,  // measure 229
1000
0001
1000
0010
,  // measure 230
1000
0100
0010
0001
,  // measure 231
0100
0010
0100
0001
,  // measure 232
0010
0100
1000
0100
,  // measure 233
0010
0001
1000
0001
,  // measure 234
1001
1000
1000
1000
,  // measure 235
1010
0010
0010
0010
,  // measure 236
0110
0100
0100
0100
,  // measure 237
0101
0001
0011
0010
,  // measure 238
0110
0100
1000
0100
,  // measure 239
0110
0100
1000
0010
,  // measure 240
0110
0100
0010
0100
,  // measure 241
0010
0100
0010
0100
,  // measure 242
0001
0000
0000
1000
0000
0000
0001
0000
1000
0000
0000
0010
0000
0000
1000
0000
,  // measure 243
0010
0000
0000
1000
0000
0000
0001
0000
1000
0000
0000
0000
0000
0000
0000
0000
,  // measure 244
0001
0000
0000
0010
0000
0000
0100
0000
1000
0000
0000
0100
0000
0000
0010
0000
,  // measure 245
0001
1000
0001
1000
,  // measure 246
0001
0000
0000
0100
0000
0000
0001
0000
0100
0000
0000
0010
0000
0000
1000
0000
,  // measure 247
0010
0000
0000
1000
0000
0000
0001
0000
1000
0000
0000
0000
0001
0000
0000
0000
,  // measure 248
1000
0000
0000
0100
0000
0000
0010
0000
0001
0000
0000
0100
0000
0000
0010
0000
,  // measure 249
1000
0001
1000
0000
,  // measure 250
1000
0000
0100
0000
0010
0000
0001
1000
,  // measure 251
0000
0001
0000
0100
0000
0010
0000
0000
,  // measure 252
0010
0200
0000
0300
,  // measure 253
0001
0001
1000
1000
,  // measure 254
1001
0001
0100
0010
,  // measure 255
1000
0100
0010
0100
,  // measure 256
1000
0010
0100
0001
,  // measure 257
0010
0100
0010
0001
,  // measure 258
1001
0000
0001
0000
0100
0000
0010
1000
,  // measure 259
0000
0100
0000
0010
0000
0001
0000
0000
,  // measure 260
0001
0020
0000
0030
,  // measure 261
0001
0001
1000
1000
,  // measure 262
2002
0000
0000
3003
,  // measure 263
0001
0000
1000
0000
,  // measure 264
0010
1000
0100
0010
,  // measure 265
0001
0100
0010
1000
,  // measure 266
1001
0000
0000
0000
,  // measure 267
0110
0000
1001
0000
,  // measure 268
0110
0000
0000
0000
,  // measure 269
0000
0000
0000
0000
,  // measure 270
1000
0100
1000
0100
0000
0000
0000
0000
,  // measure 271
0010
0001
0010
0001
0000
0000
0000
0000
,  // measure 272
0001
1000
0001
1000
0000
0000
1000
0000
,  // measure 273
0001
0000
0000
0000
1001
0000
0000
0010
,  // measure 274
0001
0010
0001
0010
0000
0000
0000
0000
,  // measure 275
0100
1000
0100
1000
0000
0000
0100
0010
,  // measure 276
0001
0010
0001
0000
0000
0000
0010
0000
,  // measure 277
0100
0000
M00M
0000
0M00
0000
0000
1000
,  // measure 278
0100
1000
0100
1000
0000
0000
0000
0000
,  // measure 279
1000
0010
1000
0010
0000
0000
0000
0000
,  // measure 280
1000
0100
0010
0100
0000
0000
0100
0000
,  // measure 281
0010
0000
0000
0000
0011
0000
0000
0001
,  // measure 282
1000
0001
0100
0001
0000
0000
0000
0000
,  // measure 283
1000
0010
1000
0100
0000
0000
1000
0100
,  // measure 284
0010
0100
1000
0000
0000
0000
0001
0000
,  // measure 285
0100
0100
0100
0100
,  // measure 286
0000
0010
0010
0010
,  // measure 287
0000
1000
1000
1000
,  // measure 288
0000
0001
0001
0001
,  // measure 289
1001
0000
0000
0000
,  // measure 290
0000
0000
0000
0000
,  // measure 291
0000
0000
0000
0000
,  // measure 292
0000
0000
0000
0000
,  // measure 293
0000
0000
0000
0000
,  // measure 294
0000
0000
0000
0000
,  // measure 295
0000
0000
0000
0000
,  // measure 296
0000
0000
0000
0000
,  // measure 297
1001
0000
0000
0000
,  // measure 298
0000
0000
0000
0000
,  // measure 299
0110
0000
0000
0000
,  // measure 300
0000
0000
0000
0000
,  // measure 301
1100
0000
0000
0000
,  // measure 302
0011
0000
0000
0000
,  // measure 303
0101
0000
0001
0000
,  // measure 304
1000
0000
0001
0000
,  // measure 305
0010
0001
0100
0010
,  // measure 306
1000
0001
1000
0001
,  // measure 307
1001
1000
0100
0010
,  // measure 308
0100
1000
0010
0100
,  // measure 309
0001
0100
0010
1000
,  // measure 310
0001
0000
0000
1000
0000
0000
0001
0000
,  // measure 311
1000
0100
0010
0100
,  // measure 312
1000
0001
0100
0010
,  // measure 313
0100
0001
1000
0001
,  // measure 314
0100
0001
1000
0100
,  // measure 315
0010
0100
1000
0001
,  // measure 316
1000
0100
1000
0010
,  // measure 317
0100
0001
0100
0010
,  // measure 318
0100
0001
0100
0010
,  // measure 319
1000
1000
0100
0100
,  // measure 320
0010
0010
0001
0001
,  // measure 321
0100
0100
0010
0010
,  // measure 322
1000
0000
1000
0000
0000
0000
0000
1000
,  // measure 323
0001
1000
0001
0000
0000
0000
0000
1000
,  // measure 324
0100
1000
0100
0000
0000
0001
0100
0001
,  // measure 325
0100
0001
0000
0000
0000
0000
0000
0000
,  // measure 326
0000
0000
0000
0000
0000
0000
0000
1000
,  // measure 327
0001
1000
0001
0000
0000
0000
0000
0100
,  // measure 328
0010
0100
0010
0000
0000
0010
0100
0010
,  // measure 329
0100
0010
0000
0000
0000
0000
0000
0000
,  // measure 330
0000
0000
0000
0000
0000
0001
0100
0001
,  // measure 331
0000
0000
0000
0000
0000
1000
0100
1000
,  // measure 332
0100
0000
0000
0000
,  // measure 333
1000
0100
0010
0001
,  // measure 334
1000
0001
1000
0001
,  // measure 335
1001
0000
1001
0000
1001
0000
0000
1000
,  // measure 336
0000
0100
0000
1000
0000
0100
0000
0000
,  // measure 337
1100
0000
1100
0000
1100
0000
0000
0001
,  // measure 338
0000
0010
0000
0001
0000
0010
0000
0000
,  // measure 339
0011
0000
0011
0000
0011
0000
0000
1000
,  // measure 340
0000
0010
0000
1000
0000
0010
0000
0000
,  // measure 341
1010
0000
1010
0000
1010
0000
0000
0101
,  // measure 342
0000
0101
0000
0101
0000
0000
0000
0000
,  // measure 343
1000
0100
0001
0100
,  // measure 344
1000
0010
0100
0001
,  // measure 345
0100
1000
0100
0001
,  // measure 346
0010
0100
0110
0000
,  // measure 347
1000
0100
0001
0000
,  // measure 348
0001
0100
1000
0000
,  // measure 349
1000
0010
0001
0010
,  // measure 350
1000
0100
0010
0100
,  // measure 351
0110
0000
0110
0000
0110
0000
0000
1000
,  // measure 352
0000
0100
0000
1000
0000
0100
0000
0000
,  // measure 353
0110
0000
0110
0000
0110
0000
0000
0001
,  // measure 354
0000
0010
0000
0001
0000
0010
0000
0000
,  // measure 355
0110
0000
0110
0000
0110
0000
0000
1001
,  // measure 356
0000
1001
0000
1001
0000
0000
0000
0000
,  // measure 357
1000
0000
0001
0000
,  // measure 358
1000
1001
0000
0000
,  // measure 359
1000
0100
1000
0000
0100
0010
0100
0000
,  // measure 360
0010
0001
0010
0000
0001
1000
0001
0000
,  // measure 361
1000
0010
1000
0000
0001
0100
0001
0000
,  // measure 362
0100
0010
0100
0000
0001
1000
0001
0000
,  // measure 363
0100
0010
0100
0000
0001
1000
0001
0000
,  // measure 364
0010
0100
0010
0000
0100
1000
0100
0000
,  // measure 365
1000
0001
1000
0000
0010
0100
0010
0000
,  // measure 366
1000
0010
1000
0000
0001
0100
0001
0010
,  // measure 367
0001
0000
0000
0001
,  // measure 368
0101
0000
0000
1000
,  // measure 369
1100
0000
0101
0000
,  // measure 370
1001
1001
0000
0000
,  // measure 371
0001
1000
0001
0000
0010
0100
0010
0000
,  // measure 372
0100
1000
0100
0000
1000
0001
1000
0000
,  // measure 373
0010
0100
0010
0000
1000
0001
1000
0000
,  // measure 374
0010
0100
0010
0000
1000
0001
1000
0010
,  // measure 375
1000
0000
0000
0000
,  // measure 376
0110
1001
0000
0000
,  // measure 377
1000
0100
0010
0001
,  // measure 378
0100
0010
1000
0001
,  // measure 379
1000
0100
1000
0010
1000
0100
1000
0010
,  // measure 380
1000
0000
0000
0000
,  // measure 381
0001
0100
0001
0010
0001
0100
0001
0010
,  // measure 382
0001
0000
0000
0000
,  // measure 383
1000
0100
0010
0100
1000
0100
0010
0100
,  // measure 384
1000
0000
0000
0000
,  // measure 385
0001
0100
0010
0100
0001
0100
0010
0100
,  // measure 386
0001
0000
0000
0000
,  // measure 387
1000
0010
1000
0010
0000
0000
0000
0000
,  // measure 388
1000
0100
1000
0100
1000
0100
0000
0000
,  // measure 389
0001
0010
0001
0010
0000
0000
0000
0000
,  // measure 390
0001
0100
0001
0100
0001
0100
0000
0000
,  // measure 391
0001
0010
0100
1000
0010
0100
0001
1000
,  // measure 392
0001
0000
0000
0000
,  // measure 393
0000
0000
0000
0000
,  // measure 394
1110
0000
0000
0000
,  // measure 395
0111
0000
0000
0000
,  // measure 396
1000
0100
0001
0100
,  // measure 397
1000
0001
1000
0001
1000
0000
0000
0000
,  // measure 398
0111
0000
0000
0000
,  // measure 399
1110
0000
0000
0000
,  // measure 400
0001
0100
0010
0100
,  // measure 401
0001
1000
0001
1000
0001
0000
0000
0000
,  // measure 402
1101
0000
0000
0000
,  // measure 403
1011
0000
0000
0000
,  // measure 404
1000
0100
0010
0001
,  // measure 405
0100
0000
0010
0100
0010
0000
0000
0000
,  // measure 406
1111
0000
0000
0000
,  // measure 407
1111
0000
0000
0000
,  // measure 408
1000
0000
0100
0000
0010
0000
0001
1000
,  // measure 409
0000
0001
1000
0001
1000
0000
0000
0000
,  // measure 410
1001
0000
0000
0000
,  // measure 411
1000
0000
0100
0010
0000
0001
0000
0022
,  // measure 412
0000
0000
0000
0000
0000
0000
0033
0000
0000
00MM
0000
0000
1000
0000
0010
0000
,  // measure 413
0100
0000
0001
1000
0000
0010
0000
2020
,  // measure 414
0000
0000
0000
0000
0000
0000
3030
0000
0000
M0M0
0000
0000
0001
0000
1000
0000
,  // measure 415
0010
0000
0100
0001
0000
0010
0000
2002
,  // measure 416
0000
0000
0000
0000
0000
0000
3003
0000
0000
M00M
0000
0000
0000
0000
0000
0000
,  // measure 417
0001
0000
1000
0000
0100
0010
0001
0000
,  // measure 418
0100
0000
0100
0010
0000
0010
0000
0000
,  // measure 419
1000
0000
1000
0001
0000
0010
0000
0022
,  // measure 420
0000
0000
0000
0000
0000
0000
0033
0000
0000
00MM
0000
0000
1000
0000
0010
0000
,  // measure 421
1000
0000
0010
0100
0000
0001
0000
2002
,  // measure 422
0000
0000
0000
0000
0000
0000
3003
0000
0000
M00M
0000
0000
1000
0000
0010
0000
,  // measure 423
0100
0000
0001
0010
0000
0100
0000
2200
,  // measure 424
0000
0000
0000
0000
0000
0000
3300
0000
0000
MM00
0000
0000
0000
0000
0000
0000
,  // measure 425
0001
0000
1000
0000
0010
0100
0001
0000
,  // measure 426
1000
0000
0001
0010
0000
0010
0000
0000
,  // measure 427
0100
0000
1000
0001
0000
0001
0000
0000
,  // measure 428
1000
0010
0100
0001
,  // measure 429
1000
0100
1000
0100
0000
0000
0000
0000
,  // measure 430
0010
0000
0001
0000
1000
0000
0000
0001
,  // measure 431
0000
1000
0001
1000
0001
0000
M11M
0000
,  // measure 432
1000
0010
1000
0100
0000
1000
0010
1000
,  // measure 433
0000
0010
0100
0010
0000
1000
0100
1000
,  // measure 434
0000
0010
1000
0010
0000
1000
0010
1000
,  // measure 435
0000
0001
0000
0001
0000
1000
0000
0001
,  // measure 436
0000
0010
0100
0010
0000
0100
1000
0100
,  // measure 437
0000
0010
0001
0010
0000
0001
1000
0001
,  // measure 438
0000
1000
0010
1000
0000
0010
0100
0010
,  // measure 439
0000
0110
0000
1001
0000
0000
0000
0000
,  // measure 440
0000
1000
0100
0010
,  // measure 441
0100
1000
0101
1100
,  // measure 442
0000
1000
0010
0100
,  // measure 443
0001
0010
0101
0011
,  // measure 444
0000
0000
1000
0100
1000
0000
0100
0000
,  // measure 445
0000
0000
1000
0001
1000
0000
0100
0000
,  // measure 446
0000
0010
0001
1000
,  // measure 447
0010
0100
0001
1000
,  // measure 448
0000
0001
1000
0010
,  // measure 449
0100
0001
0101
0110
,  // measure 450
0000
0001
0010
0100
,  // measure 451
1000
1000
0110
0011
,  // measure 452
0000
0000
0001
0100
0001
0000
0100
0000
,  // measure 453
0000
0000
0010
1000
0010
0000
1000
0000
,  // measure 454
0000
0000
0100
0010
0100
0000
1000
0000
,  // measure 455
0010
0100
0010
0000
1000
0000
0200
0000
,  // measure 456
0010
0320
0M01
0032
,  // measure 457
10M0
2003
001M
3010
,  // measure 458
M110
0000
0000
0000
,  // measure 459
0000
0000
0000
0000
,  // measure 460
0000
0001
0000
1000
,  // measure 461
0000
0100
0000
0001
,  // measure 462
0000
0100
0000
1000
,  // measure 463
0000
0010
0000
0001
,  // measure 464
0000
0010
0000
0100
,  // measure 465
0000
0001
0000
1000
,  // measure 466
0000
0100
0000
0001
,  // measure 467
0000
0100
0000
2000
,  // measure 468
0200
3000
0000
0000
0000
0000
0020
0300
,  // measure 469
0002
0030
0000
0000
0000
0000
0200
0003
,  // measure 470
0020
0300
0000
0000
2000
0030
3200
0000
,  // measure 471
0320
0030
0002
0003
,  // measure 472
0200
0300
0020
2030
,  // measure 473
3200
0302
0203
2300
,  // measure 474
3002
1003
0002
0103
,  // measure 475
0002
1003
0002
0103
,  // measure 476
0001
0000
0000
1000
1000
0000
0000
0001
,  // measure 477
0001
0000
1000
0000
0001
1000
0001
1000
,  // measure 478
0001
0000
0000
0110
0000
0000
0000
0000
,  // measure 479
1001
0000
0000
0110
0000
0000
0000
0000
,  // measure 480
1010
0101
1010
0101
,  // measure 481
1001
0000
0000
0110
0000
0000
0000
0000
,  // measure 482
1000
0000
0100
0000
0010
0001
0100
0000
,  // measure 483
0010
1000
0100
0000
0100
0010
0001
0000
,  // measure 484
0100
0010
1000
0000
,  // measure 485
1000
0100
0010
0001
,  // measure 486
1001
0000
0000
0110
0000
0000
0000
0000
,  // measure 487
0110
0000
0000
1001
0000
0000
0000
0000
,  // measure 488
1100
0011
1100
0011
,  // measure 489
1001
0000
0000
0110
0000
0000
0000
0000
,  // measure 490
1000
0000
0010
0000
0100
0001
0010
0000
,  // measure 491
0100
1000
0010
0000
0010
0100
0001
0000
,  // measure 492
1000
0100
0010
0001
,  // measure 493
0100
0001
1000
0000
0000
0000
0000
0000
,  // measure 494
1000
0000
1000
0000
0001
0010
0000
0010
,  // measure 495
0002
0000
0000
0100
0000
0010
0003
0000
,  // measure 496
1000
0000
0010
0000
0010
0100
0000
0100
,  // measure 497
0020
0000
0000
1000
0000
0001
0030
0000
,  // measure 498
1000
0000
0100
0000
0100
0010
0000
0010
,  // measure 499
0200
0000
0000
0001
0000
1000
0300
0000
,  // measure 500
0100
0000
0010
0000
0001
0100
0000
0100
,  // measure 501
0020
0000
0000
0001
0000
1000
0030
0000
,  // measure 502
1000
0100
1000
0100
1000
0010
1000
0010
,  // measure 503
1000
0001
1000
0001
1000
0001
0000
0000
,  // measure 504
0001
0100
0001
0100
0001
0010
0001
0010
,  // measure 505
0001
0000
0000
0001
1000
0001
1000
0000
,  // measure 506
1100
1100
1100
1100
,  // measure 507
1001
1001
1001
1001
,  // measure 508
0101
0101
0101
0101
,  // measure 509
0001
1000
0000
1000
0001
0000
0000
0000
,  // measure 510
1100
0000
1010
0000
1000
0010
1000
0000
,  // measure 511
0100
0010
0001
0100
,  // measure 512
0001
1000
0001
0000
0100
0000
0010
0000
,  // measure 513
1000
0100
0010
0001
,  // measure 514
0100
0010
0100
0000
0001
0000
0010
0000
,  // measure 515
0100
0000
1000
0000
0010
0000
0100
0001
,  // measure 516
0010
0000
0100
0000
0010
0000
0100
1000
,  // measure 517
0000
1000
0100
0000
1100
0000
0000
0000
,  // measure 518
0101
0000
0011
0000
0001
0010
0001
0000
,  // measure 519
0100
0010
1000
0001
,  // measure 520
1000
0100
0010
0000
0001
0000
0100
0000
,  // measure 521
0010
1000
0010
0100
,  // measure 522
0001
0010
0100
0000
1000
0000
0010
0000
,  // measure 523
0001
0000
0010
0000
1000
0000
0100
0010
,  // measure 524
0001
0000
1000
0000
0001
0000
0000
1000
,  // measure 525
0000
1000
0001
0000
1001
0000
0000
1000
,  // measure 526
0000
1000
0001
0000
1001
0000
0000
1001
,  // measure 527
0000
1000
1001
0000
1001
0000
0000
0000
,  // measure 528
1000
0000
0100
0000
0010
0001
0010
0000
,  // measure 529
0001
0000
0100
0000
0010
1000
0010
0000
,  // measure 530
0100
0001
1000
0100
,  // measure 531
0010
0000
0001
0000
1000
0002
0000
0000
,  // measure 532
0000
0003
0000
0000
0001
0100
0001
0000
,  // measure 533
0100
0000
0010
0000
1000
0100
1000
0000
,  // measure 534
0010
0100
0001
0010
,  // measure 535
0100
0000
1000
0000
0100
0010
0000
0000
,  // measure 536
0101
0000
0000
0000
0100
0010
0100
0000
,  // measure 537
0001
0000
0010
0000
0100
0010
0100
0000
,  // measure 538
0010
0001
1000
0010
,  // measure 539
0100
0000
0001
0000
1000
0002
0000
0000
,  // measure 540
0000
0003
0000
0000
0001
0010
0001
0000
,  // measure 541
0100
0010
0001
0010
,  // measure 542
1000
0100
0001
0100
,  // measure 543
2000
0000
3000
0000
,  // measure 544
1000
0100
0010
0001
,  // measure 545
0100
0010
0100
0001
,  // measure 546
0010
0100
1000
0001
,  // measure 547
1001
0000
0000
0000
,  // measure 548
0000
0000
0000
0000
,  // measure 549
0000
0000
0000
0000
,  // measure 550
0000
0000
0000
0000
,  // measure 551
0000
0000
0000
0000
,  // measure 552
0000
0000
0000
0000
,  // measure 553
0000
0000
0000
0000
,  // measure 554
0000
0000
0000
0000
,  // measure 555
1000
0000
1000
0000
,  // measure 556
0100
0000
0100
0000
,  // measure 557
0010
0000
0010
0000
,  // measure 558
0001
0000
0001
0000
,  // measure 559
1001
0000
0000
0000
,  // measure 560
0110
0000
0000
0000
,  // measure 561
0011
0000
1100
0000
,  // measure 562
1001
1000
0100
0010
,  // measure 563
0001
1000
0001
1000
0001
1000
0001
1000
,  // measure 564
0001
0000
0100
0010
0000
0000
0000
0000
,  // measure 565
0000
0000
0000
0100
,  // measure 566
0010
0000
0100
0001
0000
0000
0000
0000
,  // measure 567
0001
0010
1000
0010
,  // measure 568
0001
0000
0000
0000
0000
0001
0100
0010
,  // measure 569
0000
0000
0000
1000
,  // measure 570
0100
0000
0001
0000
,  // measure 571
0100
0000
1000
0000
,  // measure 572
1001
0000
0000
0000
,  // measure 573
1000
0000
0010
0100
0000
0000
0001
0000
,  // measure 574
0010
0000
0000
0000
,  // measure 575
0100
1000
0010
0001
,  // measure 576
0010
0000
1000
0001
0000
0000
0000
0000
,  // measure 577
0000
0000
0000
0000
,  // measure 578
0001
1000
0100
0010
,  // measure 579
0001
0010
0001
0000
1000
0010
1000
0000
,  // measure 580
1002
0103
0201
0310
,  // measure 581
2010
3100
0012
0103
,  // measure 582
1002
0103
0210
0301
,  // measure 583
1020
0130
1200
0310
,  // measure 584
1002
0013
2100
3010
,  // measure 585
0201
1300
1200
0301
,  // measure 586
1020
0031
0021
1030
,  // measure 587
1001
0000
0000
0000
1000
0100
1000
0000
,  // measure 588
0102
0013
1200
0310
,  // measure 589
2001
3010
1200
0301
,  // measure 590
1002
0013
2100
3001
,  // measure 591
0120
1030
0110
1001
,  // measure 592
0120
1030
1200
0301
,  // measure 593
0201
1300
0110
0000
,  // measure 594
1100
0000
0101
0000
,  // measure 595
1000
0100
0010
0001
,  // measure 596
0000
1000
0000
0001
0000
1000
0000
0000
,  // measure 597
0001
0100
0010
0000
1000
0100
0010
0001
,  // measure 598
0100
0000
0010
0000
1000
0000
0010
0010
,  // measure 599
1000
0100
0010
0000
0001
0100
0010
0100
,  // measure 600
0001
0000
1000
0000
0001
0001
0000
0000
,  // measure 601
1000
0100
0010
0000
0001
0100
0010
1000
,  // measure 602
0001
0000
0100
0000
0010
0010
0100
0100
,  // measure 603
0101
0000
0000
1000
1000
0000
0000
0001
,  // measure 604
0001
0000
1000
0000
0010
1000
0010
1000
,  // measure 605
0010
1000
0010
1000
0010
1000
0010
1000
,  // measure 606
0010
1000
0010
1000
0010
1000
0010
0000
,  // measure 607
0000
0000
0000
0000
,  // measure 608
0000
0000
0000
0000
,  // measure 609
0000
0000
0000
0000
,  // measure 610
0000
0000
0000
0000
,  // measure 611
0000
0000
0000
0000
,  // measure 612
0000
0000
0000
0000
,  // measure 613
0000
0000
0000
0000
,  // measure 614
0000
0000
0000
0000
,  // measure 615
1001
0000
0000
0000
,  // measure 616
0000
0000
0000
0000
,  // measure 617
0001
0000
0000
0000
,  // measure 618
0000
0000
0000
0000
,  // measure 619
0110
0000
0000
0000
,  // measure 620
1001
0000
0000
0000
,  // measure 621
1010
0100
0101
0010
,  // measure 622
1000
0100
0010
0001
,  // measure 623
1001
1000
0100
0001
,  // measure 624
0100
1000
0010
0100
,  // measure 625
1010
1000
0001
0010
,  // measure 626
1000
0010
0001
0100
,  // measure 627
0110
0010
1000
0100
,  // measure 628
0110
0010
0001
0100
,  // measure 629
0101
0100
0010
1000
,  // measure 630
0100
0010
0001
0100
,  // measure 631
0110
0010
1000
0100
,  // measure 632
0010
0001
0010
0100
,  // measure 633
0110
0010
0001
0100
,  // measure 634
0010
1000
0001
0100
,  // measure 635
0110
0010
1000
0100
,  // measure 636
0110
0010
0001
1000
,  // measure 637
1010
0010
0100
0001
,  // measure 638
0010
1000
0010
0001
,  // measure 639
1001
0000
1000
0000
,  // measure 640
0010
0000
0001
0000
,  // measure 641
0010
0000
0100
0000
,  // measure 642
0001
0000
0010
0000
,  // measure 643
1000
0000
0010
0000
,  // measure 644
0001
0000
0100
0000
,  // measure 645
0010
0000
1000
0000
,  // measure 646
0100
0000
0001
0000
,  // measure 647
0100
0000
0000
0000
,  // measure 648
1000
0000
0000
0000
,  // measure 649
0010
0000
0000
0000
,  // measure 650
0100
0000
0000
0000
,  // measure 651
0001
0000
0000
0000
,  // measure 652
1000
0000
0000
0000
,  // measure 653
0100
0000
0000
0000
,  // measure 654
0010
0000
0000
0000
,  // measure 655
0002
0000
0010
0000
,  // measure 656
0203
0000
0001
0000
,  // measure 657
0320
0000
1000
0000
,  // measure 658
2030
0000
0100
0000
,  // measure 659
3001
0000
0100
0000
,  // measure 660
0010
0000
1000
0000
,  // measure 661
0000
0000
0000
0200
0000
0000
0000
0000
0000
0000
0000
0000
0000
0000
0000
0000
,  // measure 662
0000
0000
0000
0000
,  // measure 663
0000
0300
0000
0000
0000
0000
0000
0000
;

//---------------dance-single - Chmurek & Lisek----------------
#NOTES:
     dance-single:
     Chmurek & Lisek:
     Hard:
     8:
     0.536,0.676,0.282,0.078,0.056: // measure 1
0000
0000
0000
0000
,  // measure 2
0000
0000
0000
0000
,  // measure 3
0000
0000
0000
0000
,  // measure 4
0000
0000
0000
0000
,  // measure 5
0000
0000
0000
0000
,  // measure 6
0000
0000
0000
0000
,  // measure 7
0000
0000
0000
0000
,  // measure 8
0000
0000
0000
0000
,  // measure 9
0001
0100
0010
0000
0010
0000
0010
0000
,  // measure 10
1000
0100
0010
0000
0010
0000
0010
0000
,  // measure 11
0001
1000
0010
0000
0010
0000
0010
1000
,  // measure 12
0000
0001
0000
0000
0000
1000
0100
0000
,  // measure 13
1001
0000
0000
0001
0000
0000
0100
0010
,  // measure 14
0000
1000
0000
0001
0000
0000
0000
0000
,  // measure 15
1001
0000
0000
1000
0000
0000
0010
0100
,  // measure 16
0000
0001
0000
1000
0000
0000
0000
0000
,  // measure 17
1001
0000
0101
0000
,  // measure 18
1001
0000
1100
0000
,  // measure 19
1001
0110
1001
0110
,  // measure 20
1000
0100
0010
0001
1000
0001
0100
0010
,  // measure 21
1000
0000
0000
0000
,  // measure 22
0000
0000
0000
0000
0000
0001
0100
0001
,  // measure 23
1000
0000
0010
0100
0000
0100
0001
0100
,  // measure 24
0001
0000
1000
0001
0000
1000
0100
1000
,  // measure 25
0100
0010
0001
0100
0010
1000
0000
0001
,  // measure 26
0100
0010
1000
0000
0000
1000
0010
1000
,  // measure 27
0001
0000
0001
0010
0000
0001
0100
0010
,  // measure 28
1000
0000
1000
0100
0000
0100
1000
0010
,  // measure 29
0100
0001
0100
0010
1000
0001
0000
0010
,  // measure 30
0100
1000
0001
0000
0000
0100
0010
0100
,  // measure 31
0001
0000
0010
0100
0000
1000
0010
1000
,  // measure 32
0100
0000
1000
0001
0000
1000
0010
0100
,  // measure 33
0001
0010
0001
0100
0010
1000
0000
0100
,  // measure 34
1000
0010
0100
0000
0000
0001
0010
0100
,  // measure 35
0010
0000
0010
0100
0000
0100
1000
0001
,  // measure 36
1000
0000
0010
1000
0000
0010
0100
0001
,  // measure 37
0010
0100
1000
0001
0100
0001
0000
1000
,  // measure 38
0001
0100
0010
0000
1000
0000
0100
0000
,  // measure 39
1000
0000
0000
0010
1000
0000
0000
1000
0010
0000
1000
0000
0001
0000
0000
0000
,  // measure 40
1000
0000
0000
0010
0100
0000
0000
0100
0001
0000
1000
0000
0001
0000
0000
0000
,  // measure 41
1000
0000
0010
0100
0000
0000
0000
0000
0001
0000
0000
0000
0001
0000
1000
0000
,  // measure 42
0010
0000
0100
0001
0000
0000
0000
0000
1000
0000
0000
0000
0010
0000
0000
0000
,  // measure 43
1000
0000
0000
0010
1000
0000
0000
1000
0010
0000
0100
0000
0001
0000
0000
0000
,  // measure 44
1000
0000
0000
0001
0010
0000
0000
0010
0100
0000
1000
0000
0001
0000
0000
0000
,  // measure 45
1000
0000
0010
0100
0000
0000
0000
0000
0001
0000
0000
0000
1000
0000
0000
0000
,  // measure 46
0001
0000
0100
0010
0000
0000
0000
0000
1000
0000
0000
0000
0100
0000
0000
0000
,  // measure 47
1000
0000
0000
0010
1000
0000
0000
1000
0001
0000
0001
0000
0001
0000
0000
0000
,  // measure 48
1000
0000
0000
0010
0100
0000
0000
0100
0001
0000
0001
0000
0001
0000
0000
0000
,  // measure 49
1000
0000
0010
0100
0000
0000
0000
0000
0001
0000
0000
0000
1000
0000
0000
0000
,  // measure 50
0001
0000
0100
0010
0000
0000
0000
0000
1000
0000
0000
0000
0100
0000
0000
0000
,  // measure 51
1000
0000
0000
0001
0010
0000
0000
0100
1000
0000
1000
0000
1000
0000
0000
0000
,  // measure 52
0001
0000
0000
0010
0100
0000
0000
0100
1000
0000
1000
0000
1000
0000
0000
0000
,  // measure 53
0001
0000
0100
0010
0000
0000
0000
0000
1000
0000
0000
0000
0100
0000
0000
0000
,  // measure 54
1000
0000
0100
0010
0000
0000
0000
0000
0001
0000
0000
0000
0010
0000
0000
0000
,  // measure 55
0001
0000
0100
0000
0001
0000
1000
0010
,  // measure 56
0000
0110
0000
1000
0100
0010
0100
1000
,  // measure 57
0001
0000
0100
0010
0000
1000
0000
0001
,  // measure 58
0100
0000
0010
0010
0000
1000
0000
0100
,  // measure 59
1000
0000
0010
0100
0000
0100
0000
0001
,  // measure 60
0100
0010
1000
0001
0000
0001
0000
1000
,  // measure 61
1010
1100
1001
0101
,  // measure 62
0012
0000
0000
2000
0000
0000
3003
0000
,  // measure 63
0001
0000
0010
0000
0100
0000
1000
0010
,  // measure 64
0000
0101
0000
0001
0100
1000
0100
0001
,  // measure 65
1000
0000
0100
0010
0000
0001
0000
0100
,  // measure 66
0010
0000
1000
0100
0000
1000
0000
0001
,  // measure 67
0100
0000
0010
0010
0000
1000
0000
0001
,  // measure 68
0100
0010
1000
0100
0000
0001
0000
0100
,  // measure 69
1100
0110
1100
1001
,  // measure 70
2010
0000
0000
3000
1002
0000
0000
0003
,  // measure 71
0001
0010
0100
0000
1000
0100
1000
0000
,  // measure 72
0001
0100
10M0
0100
0002
0000
0000
0003
,  // measure 73
0001
0010
0001
0000
1000
0100
1000
0000
,  // measure 74
0001
0010
M100
0010
0002
0000
0000
0003
,  // measure 75
1000
0010
0100
0000
0001
0100
0010
1000
,  // measure 76
0100
0001
0101
0000
,  // measure 77
1000
0100
1000
0010
0100
0001
1000
0000
,  // measure 78
0001
0001
0001
0000
0110
0000
0001
0000
,  // measure 79
1000
0010
0100
0001
0010
0001
0100
0000
,  // measure 80
0001
0100
0010
1000
0100
1000
0010
0000
,  // measure 81
1000
0010
0100
0001
,  // measure 82
1000
100M
1000
0000
0001
M001
0001
0000
,  // measure 83
1000
0010
0100
0010
1000
0001
0100
0000
,  // measure 84
0001
0010
1000
0010
0100
0010
0001
0000
,  // measure 85
0100
0001
1000
0010
,  // measure 86
0100
01M0
0100
0000
0010
0M10
0010
0000
,  // measure 87
1000
1000
0010
0010
0100
0100
0010
0010
,  // measure 88
1000
1000
0010
0020
0000
0000
1030
0000
,  // measure 89
0001
0000
0001
0010
0100
1000
0001
0010
,  // measure 90
2000
0000
0000
3020
0000
0000
0030
0000
,  // measure 91
0001
0100
0001
0100
0010
1000
0010
1000
,  // measure 92
0001
0010
0100
0010
0001
0000
1000
0000
,  // measure 93
0010
0100
0001
0010
0100
0010
0001
0000
,  // measure 94
0101
0000
1001
0000
,  // measure 95
1100
0000
1000
0000
1000
0010
0100
0000
,  // measure 96
0001
0000
0001
0000
0100
0010
1000
0001
,  // measure 97
0100
0000
0100
0000
0010
1000
0010
0100
,  // measure 98
0001
1000
0010
0100
0002
0000
0003
0000
,  // measure 99
1000
0100
1000
0100
M000
0M00
M000
0000
,  // measure 100
0010
0001
0010
0001
00M0
000M
00M0
0000
,  // measure 101
1001
0000
0110
0000
,  // measure 102
1001
1000
0001
1000
,  // measure 103
10M1
01M1
10M1
01M1
,  // measure 104
1000
0010
0100
0001
0010
0001
0100
0001
,  // measure 105
01M1
10M1
01M1
10M1
,  // measure 106
1000
0010
0100
0001
1000
0100
0010
0001
,  // measure 107
1000
0000
0010
0100
0000
0001
0000
1000
,  // measure 108
0001
0000
0001
1000
0000
0000
0010
1000
,  // measure 109
0100
1000
0010
0100
,  // measure 110
0001
1000
0000
1001
0000
1000
0010
0100
,  // measure 111
M011
11M0
M011
11M0
,  // measure 112
0001
0100
0010
1000
0100
0010
0001
0000
,  // measure 113
1M10
01M1
1M10
01M1
,  // measure 114
1000
0010
0100
0001
0010
0001
0100
0010
,  // measure 115
1000
0000
0001
0100
0000
0010
0000
1000
,  // measure 116
0010
0000
0100
0001
0000
1000
0000
0001
,  // measure 117
0101
0011
1100
0101
,  // measure 118
1000
0010
0100
0001
,  // measure 119
1000
0000
0000
0000
,  // measure 120
0000
0001
0010
0001
0100
0010
1000
0010
,  // measure 121
0100
0001
0000
0001
1000
0010
0000
0100
,  // measure 122
0001
0110
1001
MMMM
,  // measure 123
1000
0000
0000
1000
0000
0000
0001
0000
0000
0001
0000
0000
1000
0000
0000
1000
0000
0000
0001
0000
0000
0000
0001
0000
,  // measure 124
1000
0000
0000
0010
0000
0100
0001
0000
0000
1000
0010
0100
,  // measure 125
0001
0000
0000
1000
0000
0000
0001
0000
0000
0010
0000
0001
,  // measure 126
0100
0000
0000
0010
1000
0010
0100
0000
0000
0001
0000
0010
,  // measure 127
0001
0000
0000
1000
0000
0000
0010
0000
0000
0100
0000
0001
,  // measure 128
0100
0000
0000
0010
0000
1000
0010
0000
0000
0100
0001
1000
,  // measure 129
0010
0000
0000
0100
0000
0000
0001
0000
0000
1000
0000
0001
,  // measure 130
1000
0000
0000
0010
0100
0001
1000
0000
0000
0001
0000
0100
,  // measure 131
0001
1000
0001
1000
0010
0100
0010
0100
,  // measure 132
0001
1000
0010
0100
,  // measure 133
0001
0010
0001
0010
0100
1000
0100
1000
,  // measure 134
0001
0100
0010
0100
,  // measure 135
0001
0010
0100
1000
0001
0000
1000
0001
,  // measure 136
0000
1000
0010
0100
0001
0000
1000
0010
,  // measure 137
0000
0100
0001
0100
0010
1000
0100
1000
,  // measure 138
0010
0100
0001
0010
,  // measure 139
0001
1000
0010
0100
0001
1000
0000
0100
,  // measure 140
1000
0010
0100
0001
,  // measure 141
0010
0001
0100
0010
1000
0100
1000
0001
,  // measure 142
0100
0010
1000
0010
,  // measure 143
1000
0001
0100
0010
0100
0000
0010
0100
,  // measure 144
0000
0100
0010
1000
0001
1000
0010
0100
,  // measure 145
0000
0001
0100
0010
1000
0100
1000
0001
,  // measure 146
0100
0000
0010
0000
1000
0010
0100
0010
,  // measure 147
1M0M
MMMM
MMMM
MMMM
,  // measure 148
0001
1000
0010
0100
,  // measure 149
0001
0010
0001
0100
,  // measure 150
0010
1000
0100
1000
,  // measure 151
0010
0001
0010
1000
,  // measure 152
0001
0100
0010
1000
,  // measure 153
0100
0010
0100
1000
,  // measure 154
0001
0100
0010
0100
,  // measure 155
0001
0010
0000
1000
0010
0000
0001
0000
,  // measure 156
1000
0100
1000
0010
,  // measure 157
0100
0001
0010
0001
,  // measure 158
0100
0100
0010
0010
,  // measure 159
1000
0000
1000
0000
0001
0000
0001
0100
,  // measure 160
1000
0100
0001
0100
,  // measure 161
0010
1000
0100
1000
,  // measure 162
0010
0100
0001
0010
,  // measure 163
0100
1000
0001
0010
,  // measure 164
1001
0000
0000
0000
0001
0010
0100
1000
,  // measure 165
1001
0000
0101
0000
1000
0100
0010
0100
,  // measure 166
0000
2000
0000
3010
0110
0000
1001
0000
,  // measure 167
0011
0000
0101
0000
0001
0010
1000
0010
,  // measure 168
0000
0002
0000
1003
1100
0000
0011
0000
,  // measure 169
1000
0000
1000
0000
1000
0100
0010
0001
,  // measure 170
0000
0200
0000
0310
1000
0000
1000
0000
,  // measure 171
0100
0000
0100
0000
0100
0010
0100
1000
,  // measure 172
0000
0002
0000
1003
0100
0000
0010
0000
,  // measure 173
0011
0000
0001
0000
0100
0000
0010
1000
,  // measure 174
0010
0000
1000
0000
0100
0000
0010
0001
,  // measure 175
0010
0000
0100
0000
1000
0000
0010
0100
,  // measure 176
0010
1000
0001
0100
,  // measure 177
0101
0000
1000
0100
1000
0000
0001
0000
,  // measure 178
0010
0000
0100
1000
0100
0000
0010
0000
,  // measure 179
0001
0001
0100
0100
,  // measure 180
0010
0000
0010
0000
1000
0001
1000
0000
,  // measure 181
1001
0000
0001
0000
0100
0000
0100
1000
,  // measure 182
0100
0000
0001
0000
0010
0000
0100
1000
,  // measure 183
0100
0000
0010
0001
0010
0000
0100
0010
,  // measure 184
0100
1000
0010
0100
,  // measure 185
0110
0001
0100
0010
,  // measure 186
1000
0100
0010
0000
0001
0000
1000
0000
,  // measure 187
0100
0010
0001
0100
0001
0100
0010
0100
,  // measure 188
0001
0010
0100
0010
0001
1000
0001
1000
,  // measure 189
2002
0000
0000
0000
0000
0000
3003
M00M
,  // measure 190
1000
0100
0010
0100
0000
0100
0000
0000
,  // measure 191
0010
0001
0000
0010
0000
0100
0000
0020
,  // measure 192
0000
0031
0200
0310
,  // measure 193
0020
0000
1030
0000
0001
0010
0001
0000
,  // measure 194
1000
0010
0100
0010
0100
0001
0010
0001
,  // measure 195
0000
1000
0010
0100
,  // measure 196
0001
0000
0000
1000
0100
1000
0000
0001
,  // measure 197
0000
0100
0000
0001
0000
0010
0000
0000
,  // measure 198
0001
1000
0010
0100
0000
0100
0000
0000
,  // measure 199
0010
1000
0000
0001
0000
0010
0000
0200
,  // measure 200
0000
0310
0002
0103
,  // measure 201
0200
0000
1300
0000
0100
0010
0100
0000
,  // measure 202
0001
1000
0010
1000
0100
1000
0000
0M20
,  // measure 203
M00M
0M00
M00M
0M00
M00M
0M00
M03M
0000
,  // measure 204
1000
M100
0M10
00M1
,  // measure 205
1001
0000
0000
0000
,  // measure 206
0001
0000
0001
0000
0001
0100
0010
0100
,  // measure 207
0000
0010
0000
1000
0100
0000
0010
0000
,  // measure 208
0001
0000
0001
0000
0001
0010
0100
1000
,  // measure 209
0010
0100
0001
0010
0100
1000
0001
1000
,  // measure 210
1001
0000
0000
0000
,  // measure 211
2000
0000
0000
0000
0020
3000
0000
0000
,  // measure 212
0200
0030
0000
0000
0000
0000
0000
0000
,  // measure 213
2000
0300
0000
0000
0002
3000
0000
0000
,  // measure 214
0020
0003
0000
0000
0000
0000
0000
0000
,  // measure 215
2000
0030
0000
0000
0000
0000
0000
0000
,  // measure 216
0200
3000
0000
0000
0000
0000
0000
0000
,  // measure 217
0020
0300
0000
0000
0002
0000
0033
0000
,  // measure 218
1001
0010
0010
0010
,  // measure 219
0010
0010
0010
0010
,  // measure 220
1001
0100
0100
0100
,  // measure 221
0100
0100
0100
0100
,  // measure 222
1001
0010
0010
0010
,  // measure 223
1001
0100
0100
0100
,  // measure 224
1001
0000
0100
0000
0010
0100
0010
0100
,  // measure 225
0110
0000
0000
0000
,  // measure 226
1000
0100
0010
0100
1000
0000
0010
0000
,  // measure 227
0100
0001
0100
1000
0100
0000
0001
0000
,  // measure 228
0010
0100
0010
0001
0010
0000
0001
1000
,  // measure 229
0001
0000
0100
0000
0100
0000
0010
1000
,  // measure 230
0010
0000
0100
0000
0010
0000
0100
0001
,  // measure 231
0100
0000
0001
0010
0100
0010
1000
0010
,  // measure 232
0100
0010
0001
0010
0000
0000
0001
0000
,  // measure 233
1000
1010
0110
0101
,  // measure 234
0001
0100
1000
0100
0001
0000
0000
0000
,  // measure 235
0001
0010
1000
0010
0001
0000
0000
0000
,  // measure 236
0001
0100
1000
0100
0010
0000
1000
0000
,  // measure 237
1100
0001
0011
0100
,  // measure 238
0110
0000
1000
0000
0010
0000
0100
0001
,  // measure 239
0100
0000
0001
0000
1000
0100
0010
0000
,  // measure 240
0010
0100
1000
0000
0010
0000
0100
0000
,  // measure 241
0010
0000
1000
0000
0001
0000
0010
0100
,  // measure 242
1000
0000
0000
0100
0000
0000
0010
0000
0100
0000
0000
1000
0000
0000
0010
0000
,  // measure 243
1000
0000
0000
0001
0000
0000
0010
0000
0100
0000
0000
0000
0100
0000
0100
0000
,  // measure 244
0010
0000
0000
0001
0000
0000
1000
0000
0010
0000
0000
0100
0000
0000
0010
0000
,  // measure 245
1000
0000
0000
0100
0000
0000
1000
0000
0001
0000
0000
0010
0000
0000
0001
0000
,  // measure 246
0100
0000
0000
0100
0000
0000
0010
0000
1000
0000
0000
1000
0000
0000
0100
0000
,  // measure 247
0010
0000
0000
0010
0000
0000
0001
0000
1000
0000
0000
0000
0100
0000
0000
0000
,  // measure 248
0010
0000
0000
0001
0000
0000
0001
0000
0100
0000
0000
0010
0000
0000
0010
0000
,  // measure 249
1000
0100
0001
0100
1000
0000
0001
0000
,  // measure 250
1000
0000
0100
0000
0010
0000
0001
0010
,  // measure 251
0000
0100
0000
1000
0000
0001
0000
1000
,  // measure 252
0001
1000
0010
0000
0100
0000
0001
0000
,  // measure 253
0101
0100
0110
0010
,  // measure 254
1010
0000
1000
0000
0001
1000
0010
1000
,  // measure 255
0010
0000
0100
0001
0000
0001
0000
0100
,  // measure 256
0010
0000
0010
1000
0000
0000
0001
0000
,  // measure 257
0010
0100
1000
0001
,  // measure 258
1001
0000
0001
0000
0100
0000
0010
1000
,  // measure 259
0000
0010
0000
0100
0000
0001
0000
0001
,  // measure 260
0010
0100
1000
0000
0100
0000
0010
0000
,  // measure 261
0011
0001
1001
1000
,  // measure 262
1200
0000
1000
0000
1300
0000
1000
0100
,  // measure 263
0000
0000
0100
1000
0000
0010
0000
0100
,  // measure 264
0001
0010
0100
0010
,  // measure 265
0001
1000
0010
0100
,  // measure 266
1001
0000
0000
0000
,  // measure 267
0101
0000
0011
0000
,  // measure 268
1010
1000
0010
0100
,  // measure 269
0001
0010
0100
1000
0010
0100
0001
0100
,  // measure 270
1000
0100
0010
0200
0000
0000
0300
0M00
,  // measure 271
1000
0010
0100
0002
0000
0000
0003
000M
,  // measure 272
1000
0100
0010
0100
0000
0000
0100
0010
,  // measure 273
0002
0000
0000
0000
0103
0000
0000
0100
,  // measure 274
0010
0100
0001
0020
0000
0000
0030
000M
,  // measure 275
0001
0100
0010
0100
0000
0000
0001
0100
,  // measure 276
1000
0100
0001
0000
0000
0000
0010
0000
,  // measure 277
01M0
0000
0M00
0000
0000
0000
0000
1000
,  // measure 278
0100
0010
0100
2000
0000
0000
3000
MM00
,  // measure 279
0001
0100
0010
0200
0000
0000
0300
0MM0
,  // measure 280
0100
0001
0100
1000
0000
0000
1000
0100
,  // measure 281
0002
0000
0000
0000
1003
000M
0000
0001
,  // measure 282
1000
0001
0100
0020
0000
0000
MM3M
0000
,  // measure 283
0100
0010
1000
0001
0000
0000
1000
0100
,  // measure 284
0001
0100
2000
0M00
00M0
000M
3010
0000
,  // measure 285
0110
0000
0001
0010
0100
1000
0100
1000
,  // measure 286
0000
0000
1000
0100
0010
0001
0010
0001
,  // measure 287
0000
0000
0001
0100
0010
1000
0010
1000
,  // measure 288
0000
0000
1000
0010
0100
0001
0100
0001
,  // measure 289
0101
0000
0000
0000
,  // measure 290
1000
0000
0001
0000
,  // measure 291
0100
0000
0010
1000
0000
0000
0100
0000
,  // measure 292
1000
0000
0000
0010
0000
0000
0100
0000
,  // measure 293
0001
0000
1000
0010
0000
0000
0000
0000
,  // measure 294
0000
0000
1000
0000
0000
0010
0000
0000
,  // measure 295
0100
0000
0010
1000
0000
0000
0100
0000
,  // measure 296
0010
0001
1000
0001
,  // measure 297
1001
1000
0010
0100
,  // measure 298
0001
0010
0001
0100
,  // measure 299
0101
1000
0010
0100
,  // measure 300
0001
0010
0001
0010
,  // measure 301
0011
1000
0100
1000
,  // measure 302
1001
0001
0100
0001
,  // measure 303
0110
0000
1000
0000
,  // measure 304
0010
0000
0100
0000
,  // measure 305
0011
1000
0101
0001
,  // measure 306
1001
1000
0001
0100
0010
1000
0100
1000
,  // measure 307
0010
0100
0010
1000
,  // measure 308
0100
1000
0100
0000
1000
0010
1000
0000
,  // measure 309
0001
0100
0010
1000
,  // measure 310
0100
0000
0000
1000
0000
0000
0010
0000
,  // measure 311
0100
0001
0100
0010
,  // measure 312
1000
0000
0100
0000
1000
0010
1000
0000
,  // measure 313
0001
0100
0010
1000
,  // measure 314
0100
0000
1000
0000
0010
0100
0001
0000
,  // measure 315
1000
0010
0100
0001
,  // measure 316
0010
0000
0001
0000
,  // measure 317
1000
0100
1000
0000
,  // measure 318
0010
0000
0100
0000
,  // measure 319
0001
0100
0010
1000
,  // measure 320
0100
1000
0001
0100
,  // measure 321
0010
1000
0010
0100
,  // measure 322
0001
0000
1000
0000
0001
0000
0000
0100
,  // measure 323
0001
0000
0100
0001
0100
0000
0000
0000
0000
0000
0000
0000
0000
0000
0001
0000
,  // measure 324
1000
0000
0001
1000
0001
0000
0000
0000
0000
0000
0100
0000
0001
0000
0010
0000
,  // measure 325
0001
0100
0010
0000
1000
0000
0010
0000
,  // measure 326
0100
0000
0001
0000
0100
0000
0000
0001
,  // measure 327
0100
0000
0001
0100
0001
0000
0000
0000
0000
0000
0000
0000
0000
0000
1000
0000
,  // measure 328
0010
0000
1000
0010
1000
0000
0000
0000
0000
0000
0001
0000
0010
0000
0100
0000
,  // measure 329
1000
0001
0100
0000
0010
0000
1000
0000
,  // measure 330
0100
0000
1000
0000
0001
0100
0010
1000
,  // measure 331
0001
0000
1000
0000
1000
0001
0010
0100
,  // measure 332
1000
0001
0100
0010
,  // measure 333
1000
0010
0100
0001
1000
0001
1000
0000
,  // measure 334
0001
0010
0100
1000
0001
0010
0100
1000
,  // measure 335
1001
0000
1001
0000
1001
0000
0000
1000
,  // measure 336
0000
1000
0000
1000
0000
0010
0000
0100
,  // measure 337
0101
0000
0101
0000
0101
0000
0000
0001
,  // measure 338
0000
0001
0000
0001
0000
1000
0000
0100
,  // measure 339
1100
0000
1100
0000
1100
0000
0000
1000
,  // measure 340
0000
1000
0000
1000
0000
0010
0000
0100
,  // measure 341
0110
0000
0110
0000
0110
0000
0000
1001
,  // measure 342
0000
1001
0000
1001
0000
0000
0000
0000
,  // measure 343
1000
0010
0100
0001
1000
0000
0010
0000
,  // measure 344
0100
0010
1000
0100
1000
0000
0010
0000
,  // measure 345
0100
0001
0100
0010
1000
0100
1000
0010
,  // measure 346
0000
0010
1000
0000
0101
0000
1000
0000
,  // measure 347
0010
0100
0001
0000
0101
0000
0M0M
1000
,  // measure 348
0000
0100
0010
0000
0101
0000
0M0M
0000
,  // measure 349
1000
0010
0100
0010
1000
0100
0010
0100
,  // measure 350
0000
1000
0001
0000
1000
0100
0010
0000
,  // measure 351
0011
0000
0011
0000
0011
0000
0000
0001
,  // measure 352
0000
001M
0000
0001
0000
0100
0000
0100
,  // measure 353
0101
0000
0101
0000
0101
0000
0000
1000
,  // measure 354
0000
MM10
0000
1000
0000
0010
0000
0100
,  // measure 355
0110
0000
0110
0000
0110
0000
0000
1001
,  // measure 356
0000
1001
0000
1001
0000
0000
0000
1000
,  // measure 357
1001
0000
0000
0001
0101
0000
0000
1000
,  // measure 358
1001
0001
0100
0001
0000
0000
0000
0000
,  // measure 359
1000
0000
0010
0000
0100
0000
0001
0000
0000
0000
1000
0010
1000
0000
0001
0000
,  // measure 360
1000
0000
0001
0000
0100
0000
0010
0000
0000
0000
1000
0100
1000
0000
0010
0000
,  // measure 361
0100
0000
0001
0000
0100
0000
0010
0000
0000
0000
1000
0010
1000
0000
0001
0000
,  // measure 362
0100
0000
0010
0000
1000
0000
0100
0000
0000
0000
1000
0001
1000
0000
0010
0000
,  // measure 363
0100
0000
0001
0000
0100
0000
0010
0000
0000
0000
1000
0100
1000
0000
0010
0000
,  // measure 364
0100
0000
0001
0000
0100
0000
0010
0000
0000
0000
1000
0010
1000
0000
0001
0000
,  // measure 365
0100
0000
0010
0000
1000
0000
0001
0000
0000
0000
1000
0010
1000
0000
0001
0000
,  // measure 366
0100
0010
1000
0001
0100
0010
1000
0001
,  // measure 367
1001
0000
0000
1100
,  // measure 368
1010
0000
0000
0101
,  // measure 369
1001
0000
0110
0000
,  // measure 370
1010
1001
0000
0000
,  // measure 371
1000
0010
1000
0000
0001
0100
0001
0000
,  // measure 372
1000
0010
0100
0001
0010
0001
0100
0000
,  // measure 373
0001
0010
0001
0000
1000
0100
1000
0000
,  // measure 374
0001
0100
0010
1000
0100
0010
0001
0000
,  // measure 375
1010
0000
0000
0000
,  // measure 376
0101
1001
0000
0000
,  // measure 377
0001
0100
0001
0000
1000
0010
1000
0000
,  // measure 378
0001
0100
0010
1000
0100
1000
0010
0000
,  // measure 379
1000
1000
0100
0010
0001
0001
0010
0100
,  // measure 380
1000
0000
MMMM
0000
,  // measure 381
0001
0001
0010
0100
1000
1000
0100
0010
,  // measure 382
0001
0000
MMMM
0000
,  // measure 383
1000
0100
0010
0100
0001
0001
0100
1000
,  // measure 384
0100
0000
MMMM
0000
,  // measure 385
1000
0010
0100
0010
0001
0001
0010
1000
,  // measure 386
0010
0000
MMMM
0000
,  // measure 387
1000
0001
1000
0001
0000
0000
MMMM
0000
,  // measure 388
0100
0000
0010
0000
0100
0000
0010
0000
0100
0000
0010
0000
0000
MMMM
0000
0000
,  // measure 389
0001
1000
0001
1000
0000
0000
MMMM
0000
,  // measure 390
0010
0100
0010
0100
0010
0100
0000
0000
,  // measure 391
1000
0100
0010
0001
0010
0100
1000
0001
,  // measure 392
1001
0000
0000
0000
,  // measure 393
1000
0000
0000
0000
0010
0000
0000
0000
1000
0001
1000
0000
0100
0000
0010
0000
,  // measure 394
0001
0000
0010
0000
0000
0000
0100
0000
1000
0100
0000
1000
0000
0000
0010
0000
,  // measure 395
0100
0000
0010
0000
0000
0000
0100
0000
0001
0100
0000
0001
0000
0000
1000
0000
,  // measure 396
0100
0001
0100
1000
0010
0100
0010
2000
,  // measure 397
0000
0001
0001
0001
3001
0000
1001
0000
,  // measure 398
0001
0000
0100
0000
0000
0000
0010
0000
1000
0010
0000
1000
0000
0000
0001
0000
,  // measure 399
0011
0000
0000
0000
0000
0000
1000
0000
0100
1000
0000
0100
0000
0000
0010
0000
,  // measure 400
0001
0000
0011
0000
0101
0000
1000
0010
,  // measure 401
0100
0010
0001
0010
1000
0000
0000
0100
,  // measure 402
1000
0000
0100
0000
0000
0000
1000
0000
0001
0100
0000
0001
0000
0000
0010
0000
,  // measure 403
0100
0000
0010
0000
0000
0000
0001
0000
0010
0100
0000
0010
0000
0000
0001
0000
,  // measure 404
1000
0010
0100
0010
1000
0100
0010
0100
,  // measure 405
0000
0100
0010
0001
0011
0000
1000
0000
,  // measure 406
0100
0000
0010
0000
0000
0000
0010
0000
0100
1000
0000
0100
0000
0000
0010
0000
,  // measure 407
0100
0000
0110
0000
0000
0000
0010
0000
0001
1000
0000
0001
0000
0000
1000
0000
,  // measure 408
0100
0000
0110
0000
1001
0000
0001
1000
,  // measure 409
0000
1000
0010
0100
0001
0010
0100
0000
,  // measure 410
1000
0100
0010
0001
1000
0100
0010
0001
,  // measure 411
0011
0000
0000
0000
0000
1000
0100
1000
,  // measure 412
0100
0100
0100
0100
0100
0000
1000
0100
,  // measure 413
0010
0100
1000
0001
0100
0010
0001
0010
,  // measure 414
1000
1000
1000
1000
1000
0000
0100
0010
,  // measure 415
0100
1000
0001
0100
0010
1000
0100
1000
,  // measure 416
0010
0010
0010
0010
0010
0000
0000
0100
,  // measure 417
0001
0100
1000
0100
0001
0010
0100
1000
,  // measure 418
0100
0000
0100
0010
0000
0110
0000
0000
,  // measure 419
0001
0000
1000
0001
0000
1002
0000
0010
,  // measure 420
0010
0010
0010
0010
0013
0000
1000
0010
,  // measure 421
0100
0010
1000
0001
0100
0010
1000
0100
,  // measure 422
0010
0010
0010
0010
0010
0000
0001
1000
,  // measure 423
0010
1000
0100
0010
0001
0100
0010
0100
,  // measure 424
0001
0001
0001
0001
0001
0000
0000
1000
,  // measure 425
0010
0001
0010
1000
0010
0100
0001
0010
,  // measure 426
0100
0000
0100
0010
0000
0110
0000
0000
,  // measure 427
1000
0000
0100
1000
0000
1100
0000
0000
,  // measure 428
1000
0010
0100
0001
,  // measure 429
0100
0001
0100
0001
0000
0000
0000
0000
,  // measure 430
1000
0000
0010
0000
0100
0000
0000
0010
,  // measure 431
0000
0010
0100
0001
1000
0MM0
M11M
0000
,  // measure 432
1000
0010
0100
0001
0000
0100
0010
1000
,  // measure 433
0000
0100
1000
0010
0000
0100
0001
0100
,  // measure 434
0000
0010
0100
0010
0000
0100
0001
0100
,  // measure 435
0000
0001
0010
0100
0000
1000
0000
0001
,  // measure 436
0000
1000
0010
0100
0000
0001
0100
0010
,  // measure 437
0000
1000
0100
0010
0000
0010
0100
1000
,  // measure 438
0000
0001
0100
0010
0000
1000
0001
0101
,  // measure 439
0000
1010
0000
1100
0000
0000
0000
0000
,  // measure 440
1000
0000
0001
0100
1000
0100
0001
0010
,  // measure 441
0100
0010
0001
1000
0001
0000
100M
0000
,  // measure 442
0001
0000
1000
0100
0010
0100
1000
0010
,  // measure 443
0001
0010
1000
0010
1000
0000
M010
0000
,  // measure 444
1000
0000
0001
0100
0010
1000
0100
0010
,  // measure 445
000M
0000
0010
0100
1000
0001
0100
0010
,  // measure 446
0M00
0000
0100
0010
1000
0100
0010
0001
,  // measure 447
0100
0010
0000
0010
0000
1000
0100
0000
,  // measure 448
1000
0000
0010
0100
0001
1000
0010
0100
,  // measure 449
0001
0010
0100
1000
0001
0000
100M
0000
,  // measure 450
0001
0000
0100
0010
1000
0100
0010
0100
,  // measure 451
1000
0010
0100
0001
0100
0000
0M01
0000
,  // measure 452
0100
0000
0010
1000
0100
0010
0001
1000
,  // measure 453
0M00
0000
0001
0010
0100
1000
0001
0100
,  // measure 454
00M0
0000
0010
1000
0010
0100
0001
0010
,  // measure 455
0001
0100
0010
1000
0100
1000
0100
0000
,  // measure 456
1000
2000
0010
0020
,  // measure 457
0100
0200
0001
0000
,  // measure 458
3331
0000
0000
0000
,  // measure 459
0000
0000
0000
0000
,  // measure 460
1000
0010
0100
0010
1000
0000
0100
0010
,  // measure 461
0001
0000
0100
0000
0010
0000
0000
1000
,  // measure 462
0010
0100
0001
0010
,  // measure 463
0001
0000
0000
0001
0100
0000
0000
0000
,  // measure 464
0010
0000
0010
1000
0000
0000
0000
1000
,  // measure 465
0001
0000
0100
0010
0000
0000
1000
0000
,  // measure 466
0100
1000
0010
0100
,  // measure 467
0001
0000
0000
1000
0001
0000
0000
0000
,  // measure 468
1000
0010
0100
0001
0100
0000
0010
1000
,  // measure 469
0100
0000
0010
0000
0001
0000
0000
1000
,  // measure 470
0010
0100
0001
1000
,  // measure 471
0010
0000
0000
0010
0100
0000
0000
0000
,  // measure 472
0001
0000
0100
0010
0000
1000
0100
1000
,  // measure 473
0100
1000
0010
0100
,  // measure 474
0002
0100
0103
0000
0020
1000
1030
0000
,  // measure 475
0002
0010
0013
0000
2000
0010
3010
0000
,  // measure 476
0011
0000
0000
0001
1001
0000
0000
1000
,  // measure 477
1100
0000
0110
0000
0101
0001
1000
0000
,  // measure 478
2200
0000
0000
0011
0000
0000
3300
0000
,  // measure 479
0202
0000
0000
1010
0000
0000
0303
0000
,  // measure 480
1100
1001
0011
0101
,  // measure 481
1000
0010
0000
0101
0000
0000
MMMM
0000
,  // measure 482
1100
0000
1010
0000
1000
0100
0001
0100
,  // measure 483
1000
1001
0101
0011
,  // measure 484
0001
0000
0100
0000
0010
0000
1000
0001
,  // measure 485
0100
0001
0010
0001
0100
0001
1000
0000
,  // measure 486
2020
0000
0000
0101
0000
0000
3030
0000
,  // measure 487
0022
0000
0000
1100
0000
0000
0033
0000
,  // measure 488
1100
0110
0011
0110
,  // measure 489
0001
1000
0000
0101
0000
0000
MMMM
0000
,  // measure 490
1001
0000
0110
0000
1000
0001
0100
0000
,  // measure 491
0100
0001
1000
0000
1000
0010
0100
0000
,  // measure 492
0100
0010
1000
0001
0100
0010
1000
0000
,  // measure 493
1000
0100
1000
0000
0000
0000
0001
0000
,  // measure 494
0011
0000
0101
0000
0001
0100
0000
0100
,  // measure 495
0010
0000
0000
1000
0001
0100
0010
1000
,  // measure 496
0010
0000
0110
0000
1000
0001
0000
0001
,  // measure 497
0100
0000
0000
0010
1000
0010
0100
0001
,  // measure 498
0100
0000
0101
0000
1000
0100
0000
0100
,  // measure 499
0010
0000
0000
0010
0001
0010
0100
1000
,  // measure 500
0010
0000
0101
0000
0001
0100
0000
0100
,  // measure 501
0010
1000
0010
0100
0001
1000
0010
0100
,  // measure 502
0001
0000
0010
0001
0010
0000
0100
0000
1000
0000
0010
1000
0010
0000
0100
0000
,  // measure 503
0001
0100
0010
1000
0000
1001
0000
0000
,  // measure 504
0001
0100
0001
0000
0010
0000
0100
0000
0010
0000
0100
0000
1000
0000
0100
0000
,  // measure 505
0010
0000
0000
0001
0100
0010
1000
0010
,  // measure 506
1000
0000
0000
1000
0100
0000
0000
0100
0010
0000
0000
0010
0001
0000
0000
0001
,  // measure 507
0010
0000
0000
0010
1000
0000
0000
1000
0010
0000
0000
0010
0001
0000
0000
0001
,  // measure 508
0100
0010
1000
0100
0010
0001
0000
1000
,  // measure 509
0010
0100
0000
0100
0110
0000
0000
0000
,  // measure 510
1001
0000
0101
0000
0001
0010
1000
0010
,  // measure 511
0000
0010
0100
1000
0001
0000
0100
0000
,  // measure 512
0001
0100
1000
0100
0010
0100
0000
0001
,  // measure 513
0000
0100
0001
0010
0100
0000
1000
0000
,  // measure 514
1000
0001
0100
0010
0100
0001
0010
0100
,  // measure 515
0000
0100
0010
0001
1000
0000
1000
0010
,  // measure 516
0100
0000
0101
0000
0110
0000
0010
1000
,  // measure 517
0000
1000
0010
0000
0110
0000
0000
0000
,  // measure 518
0101
0000
1001
0000
1000
0010
0100
0010
,  // measure 519
0000
0010
0100
0001
0010
0000
0100
0000
,  // measure 520
0010
0001
1000
0100
1000
0000
1000
0010
,  // measure 521
0000
0010
0100
0001
0010
0000
0001
0000
,  // measure 522
1000
0100
0010
0000
0010
0000
0001
0100
,  // measure 523
0000
0100
1000
0100
0010
0000
1000
0001
,  // measure 524
0100
0000
0010
0000
1000
0100
0000
0011
,  // measure 525
0000
0010
0100
0000
1100
0000
0000
0011
,  // measure 526
0000
0010
0100
0000
1100
0000
0000
0011
,  // measure 527
0000
0110
0110
0000
1100
0000
0000
0000
,  // measure 528
1000
0000
0010
0000
0100
0001
0100
0001
,  // measure 529
0100
0000
0010
0000
1000
0100
1000
0100
,  // measure 530
1000
0001
0100
0010
,  // measure 531
10M0
0000
M001
0000
100M
0200
M000
0000
,  // measure 532
0310
0000
0001
0000
1000
0010
0100
0010
,  // measure 533
1000
0000
0001
0000
0100
0010
0100
0001
,  // measure 534
0100
0010
1000
0001
,  // measure 535
100M
0000
M001
0000
100M
0010
M000
0000
,  // measure 536
0101
0000
0001
0000
0010
0100
1000
0100
,  // measure 537
0010
0000
0001
0000
1000
0010
0100
0001
,  // measure 538
0010
0001
1000
0010
,  // measure 539
01M0
0000
0M10
0000
01M0
0001
0M00
0000
,  // measure 540
0001
0000
1000
0000
0010
0100
0001
0100
,  // measure 541
0010
1000
M100
0M10
,  // measure 542
00M1
0000
001M
0000
01M0
1000
0000
2200
,  // measure 543
0000
0000
0000
3300
,  // measure 544
1000
0100
0010
0100
,  // measure 545
1000
0010
0100
0010
,  // measure 546
1000
0010
0100
0001
0010
0100
1000
0001
,  // measure 547
1001
0000
0000
0000
,  // measure 548
1000
0000
0000
0000
,  // measure 549
0010
0000
0100
0000
,  // measure 550
0001
0000
1000
0000
,  // measure 551
0100
0000
0000
0000
,  // measure 552
0010
0000
0000
0000
,  // measure 553
0100
0000
0000
0000
,  // measure 554
0001
0000
0100
0000
,  // measure 555
2000
0000
3001
000M
,  // measure 556
0002
0000
0103
0M00
,  // measure 557
0200
0000
0310
00M0
,  // measure 558
0020
0000
1030
M000
,  // measure 559
1001
0000
0000
0000
,  // measure 560
1100
0000
0000
0000
,  // measure 561
0011
0000
0110
0000
,  // measure 562
1001
1000
0010
0100
,  // measure 563
0001
0100
0010
1000
0100
0010
0001
1000
,  // measure 564
1001
0000
1000
0100
0000
0000
0010
0000
,  // measure 565
0001
1000
0010
1000
,  // measure 566
0001
0000
0001
0010
0000
0000
0100
0000
,  // measure 567
0001
0100
1000
0001
,  // measure 568
0010
0000
0000
0M00
00M0
100M
0100
0010
,  // measure 569
0000
MMMM
0000
2000
,  // measure 570
0200
3000
0000
0000
0002
0300
0000
0000
,  // measure 571
2000
0000
0003
0000
0000
0000
0000
0000
0020
0000
3000
0000
0000
0030
0000
0000
,  // measure 572
0011
0001
0010
0100
,  // measure 573
1000
0000
0001
0100
0000
0000
0100
0000
,  // measure 574
0110
0010
1000
0001
,  // measure 575
0100
0010
1000
0100
,  // measure 576
1100
0100
0010
0001
,  // measure 577
0010
1000
0010
0001
,  // measure 578
1001
1000
0010
0100
,  // measure 579
0001
0010
0100
0010
0001
1000
0010
0100
,  // measure 580
0101
0000
1010
0000
1100
0000
1000
0010
,  // measure 581
0000
0100
0001
0100
0101
0000
0000
1000
,  // measure 582
0100
0000
0100
0010
0000
0010
0000
0001
,  // measure 583
0000
1000
0010
0100
0110
0000
0000
0001
,  // measure 584
0011
0000
1100
0000
0011
0000
1000
0100
,  // measure 585
0000
0110
0000
1001
0000
1000
0100
0001
,  // measure 586
0000
0001
0100
1000
0000
1000
0010
0001
,  // measure 587
0000
0001
0010
0000
1000
0100
0010
0100
,  // measure 588
1100
0000
1010
0000
0101
0000
0001
0100
,  // measure 589
0000
0010
1000
0100
0110
0000
0000
0001
,  // measure 590
0010
0000
1000
0010
0000
0001
0000
0010
,  // measure 591
0000
0001
0100
0010
0100
0000
1001
0000
,  // measure 592
1010
0000
0101
0000
0110
0000
1000
0001
,  // measure 593
0000
0100
0000
0010
0000
1000
0100
0010
,  // measure 594
0000
0010
0100
1000
0000
0010
0100
0001
,  // measure 595
0010
0100
1000
0010
0100
0001
1000
0001
,  // measure 596
0000
1001
0000
1001
0000
1001
0000
1001
,  // measure 597
1000
0010
0010
0100
0010
0010
1000
0001
,  // measure 598
0001
0000
1000
0000
0010
0000
0100
0000
0001
0010
0000
0010
0001
0000
1000
0000
,  // measure 599
0001
0010
0001
0010
1000
0010
0001
0010
,  // measure 600
0001
0000
1000
0000
0001
1000
0000
0001
1000
0001
1000
0000
0000
0000
0001
0000
,  // measure 601
0010
0100
0010
0001
0100
1000
0100
0010
,  // measure 602
1000
0100
0001
0100
1000
0100
0010
0001
,  // measure 603
0011
0000
0000
1000
1001
0000
0000
0100
,  // measure 604
0101
0000
1100
0000
0010
0010
0010
0010
,  // measure 605
0010
0010
0010
0010
0010
0010
0010
0010
,  // measure 606
0010
0010
0010
0010
0010
0010
0010
0000
,  // measure 607
MMMM
000M
00M0
0M00
,  // measure 608
M000
000M
01M0
0M00
,  // measure 609
M001
000M
00M0
0M00
,  // measure 610
M000
000M
00M0
0M00
,  // measure 611
M010
000M
00M0
0M00
,  // measure 612
M100
000M
00M0
0M00
,  // measure 613
M001
000M
00M0
0M00
,  // measure 614
M000
000M
00M0
0M00
,  // measure 615
M110
0000
1000
0000
,  // measure 616
0001
0000
0100
0000
,  // measure 617
1000
0000
0100
0000
,  // measure 618
0001
0000
0010
0000
,  // measure 619
0110
0000
0000
0000
,  // measure 620
1001
0000
0000
0000
,  // measure 621
1010
0010
0101
0001
,  // measure 622
1001
0000
0001
0000
1000
0000
0010
0000
0100
0000
0001
0000
0100
0010
0100
0010
,  // measure 623
0100
0001
0000
0100
0010
0000
0010
1000
,  // measure 624
0000
1000
0001
0010
0100
0000
1000
0100
,  // measure 625
0000
0100
1000
0010
0001
0010
0100
0001
,  // measure 626
0000
1000
0000
0000
0000
0000
0001
0010
,  // measure 627
0001
0000
1000
0010
1000
0000
0001
0010
,  // measure 628
0100
0010
1000
0010
0001
0100
0010
0000
,  // measure 629
0100
0010
0100
0010
0100
1000
0100
1000
,  // measure 630
0100
0001
0100
0001
0100
0010
0100
0000
,  // measure 631
0000
1000
0100
0010
0100
0000
1000
0001
,  // measure 632
0000
0100
0010
1000
0001
0000
0100
1000
,  // measure 633
0000
1000
0100
0010
0100
0000
0001
1000
,  // measure 634
0000
1000
0000
0000
0000
0000
0010
0100
,  // measure 635
0001
0000
0010
0100
1000
0000
0010
0001
,  // measure 636
0010
0100
0010
0001
0010
1000
0010
0000
,  // measure 637
1000
0001
1000
0001
1000
0010
1000
0010
,  // measure 638
1000
0100
1000
0100
1000
0010
1000
0001
,  // measure 639
1001
1000
0100
0001
,  // measure 640
0100
1000
0010
0001
,  // measure 641
0010
1000
0010
0100
,  // measure 642
0010
1000
0100
0001
,  // measure 643
0100
1000
0001
0100
,  // measure 644
0010
0100
0001
1000
,  // measure 645
0010
0100
0010
0001
,  // measure 646
0010
1000
0010
1000
,  // measure 647
0001
0000
1000
0000
,  // measure 648
0010
0000
0001
0000
,  // measure 649
1000
0000
0100
0000
,  // measure 650
0001
0000
0010
0000
,  // measure 651
1000
0000
0001
0000
,  // measure 652
0100
0000
0010
0000
,  // measure 653
0001
0000
0100
0000
,  // measure 654
0010
0000
1000
0000
,  // measure 655
0001
0000
0000
0000
0001
0000
1000
0100
,  // measure 656
1000
0000
0000
0010
0000
0000
0100
0010
,  // measure 657
0100
0000
0000
0000
0001
0000
1000
0010
,  // measure 658
1000
0000
0000
0100
0000
0000
0001
0000
,  // measure 659
1000
0000
0100
0000
,  // measure 660
0010
0000
1000
0000
,  // measure 661
0000
0000
0000
0200
0000
0000
0000
0000
0000
0000
0000
0000
0000
0000
0000
0000
,  // measure 662
0000
0000
0000
00M0
000M
000M
M00M
000M
00M0
0000
M00M
000M
000M
00M0
0000
0000
,  // measure 663
0000
0300
0000
0000
0000
0000
0000
0000
;

//---------------dance-single - ----------------
#NOTES:
     dance-single:
     Lisek:
     Beginner:
     1:
     0.082,0.141,0.011,0,0: // measure 1
0000
0000
0000
0000
,  // measure 2
0000
0000
0000
0000
,  // measure 3
0000
0000
0000
0000
,  // measure 4
0000
0000
0000
0000
,  // measure 5
0000
0000
0000
0000
,  // measure 6
0000
0000
0000
0000
,  // measure 7
0000
0000
0000
0000
,  // measure 8
0000
0000
0000
0000
,  // measure 9
0000
0000
0000
0000
,  // measure 10
0000
0000
0000
0000
,  // measure 11
0000
0000
0000
0000
,  // measure 12
0000
0000
0000
0000
,  // measure 13
0000
0000
0000
0000
,  // measure 14
0000
0000
0000
0000
,  // measure 15
0000
0000
0000
0000
,  // measure 16
0000
0000
0000
0000
,  // measure 17
0000
0000
0000
0000
,  // measure 18
0000
0000
0000
0000
,  // measure 19
0000
0000
0000
0000
,  // measure 20
0000
0000
0000
0000
,  // measure 21
0000
0000
0000
0000
,  // measure 22
0000
0000
0000
0000
,  // measure 23
0001
0000
0000
0000
,  // measure 24
1000
0000
0000
0000
,  // measure 25
0001
0000
0000
0000
,  // measure 26
1000
0000
0000
0000
,  // measure 27
0010
0000
0000
0000
,  // measure 28
1000
0000
0000
0000
,  // measure 29
0010
0000
0000
0000
,  // measure 30
1000
0000
0000
0000
,  // measure 31
0001
0000
0000
0000
,  // measure 32
0100
0000
0000
0000
,  // measure 33
0001
0000
0000
0000
,  // measure 34
0100
0000
0000
0000
,  // measure 35
0001
0000
0000
0000
,  // measure 36
0010
0000
0000
0000
,  // measure 37
0001
0000
0000
0000
,  // measure 38
0010
0000
0000
0000
,  // measure 39
0001
0000
0000
0000
,  // measure 40
0010
0000
0000
0000
,  // measure 41
0100
0000
0000
0000
,  // measure 42
0100
0000
0000
0000
,  // measure 43
0010
0000
0000
0000
,  // measure 44
0001
0000
0000
0000
,  // measure 45
0100
0000
0000
0000
,  // measure 46
0100
0000
0000
0000
,  // measure 47
0010
0000
0000
0000
,  // measure 48
1000
0000
0000
0000
,  // measure 49
0001
0000
0000
0000
,  // measure 50
0001
0000
0000
0000
,  // measure 51
1000
0000
0000
0000
,  // measure 52
0010
0000
0000
0000
,  // measure 53
1000
0000
0000
0000
,  // measure 54
1000
0000
0000
0000
,  // measure 55
0010
0000
0000
0000
,  // measure 56
0100
0000
0000
0000
,  // measure 57
0001
0000
0000
0000
,  // measure 58
1000
0000
0000
0000
,  // measure 59
0001
0000
0000
0000
,  // measure 60
0010
0000
0000
0000
,  // measure 61
0100
0000
0000
0000
,  // measure 62
1000
0000
0000
0000
,  // measure 63
0100
0000
0000
0000
,  // measure 64
0010
0000
0000
0000
,  // measure 65
0001
0000
0000
0000
,  // measure 66
0010
0000
0000
0000
,  // measure 67
0001
0000
0000
0000
,  // measure 68
0100
0000
0000
0000
,  // measure 69
0010
0000
0000
0000
,  // measure 70
1000
0000
0000
0000
,  // measure 71
0001
0000
0000
0000
,  // measure 72
0000
0000
0000
0000
,  // measure 73
1000
0000
0000
0000
,  // measure 74
0000
0000
0000
0000
,  // measure 75
0001
0000
0000
0000
,  // measure 76
0000
0000
0000
0000
,  // measure 77
1000
0000
0000
0000
,  // measure 78
0000
0000
0000
0000
,  // measure 79
0001
0000
0000
0000
,  // measure 80
0010
0000
0000
0000
,  // measure 81
0100
0000
0000
0000
,  // measure 82
1000
0000
0000
0000
,  // measure 83
0010
0000
0000
0000
,  // measure 84
0100
0000
0000
0000
,  // measure 85
0001
0000
0000
0000
,  // measure 86
0010
0000
0000
0000
,  // measure 87
0001
0000
0000
0000
,  // measure 88
0100
0000
0000
0000
,  // measure 89
0001
0000
0000
0000
,  // measure 90
0010
0000
0000
0000
,  // measure 91
0001
0000
0000
0000
,  // measure 92
0100
0000
0000
0000
,  // measure 93
0010
0000
0000
0000
,  // measure 94
1000
0000
0000
0000
,  // measure 95
0100
0000
0000
0000
,  // measure 96
0000
0000
0000
0000
,  // measure 97
0100
0000
0000
0000
,  // measure 98
0000
0000
0000
0000
,  // measure 99
0100
0000
0000
0000
,  // measure 100
0000
0000
0000
0000
,  // measure 101
0100
0000
0000
0000
,  // measure 102
0000
0000
0000
0000
,  // measure 103
1000
0000
0000
0000
,  // measure 104
0010
0000
0000
0000
,  // measure 105
0100
0000
0000
0000
,  // measure 106
0001
0000
0000
0000
,  // measure 107
1000
0000
0000
0000
,  // measure 108
0100
0000
0000
0000
,  // measure 109
0010
0000
0000
0000
,  // measure 110
0001
0000
0000
0000
,  // measure 111
1000
0000
0000
0000
,  // measure 112
0010
0000
0000
0000
,  // measure 113
0100
0000
0000
0000
,  // measure 114
0001
0000
0000
0000
,  // measure 115
1000
0000
0000
0000
,  // measure 116
0100
0000
0000
0000
,  // measure 117
0010
0000
0000
0000
,  // measure 118
0001
0000
0000
0000
,  // measure 119
1000
0000
0000
0000
,  // measure 120
0000
0000
0000
0000
,  // measure 121
0001
0000
0000
0000
,  // measure 122
0000
0000
0000
0000
,  // measure 123
0000
0000
0000
0000
,  // measure 124
1000
0000
0000
0000
,  // measure 125
0010
0000
0000
0000
,  // measure 126
1000
0000
0000
0000
,  // measure 127
0010
0000
0000
0000
,  // measure 128
0100
0000
0000
0000
,  // measure 129
0001
0000
0000
0000
,  // measure 130
0100
0000
0000
0000
,  // measure 131
0001
0000
0000
0000
,  // measure 132
1000
0000
0000
0000
,  // measure 133
0000
0000
0000
0000
,  // measure 134
0100
0000
0000
0000
,  // measure 135
0000
0000
0000
0000
,  // measure 136
0010
0000
0000
0000
,  // measure 137
0001
0000
0000
0000
,  // measure 138
1000
0000
0000
0000
,  // measure 139
0000
0000
0000
0000
,  // measure 140
0001
0000
0000
0000
,  // measure 141
0000
0000
0000
0000
,  // measure 142
1000
0000
0000
0000
,  // measure 143
0000
0000
0000
0000
,  // measure 144
0010
0000
0000
0000
,  // measure 145
0100
0000
0000
0000
,  // measure 146
0001
0000
0000
0000
,  // measure 147
0000
0000
0000
0000
,  // measure 148
1000
0000
0000
0000
,  // measure 149
0100
0000
0000
0000
,  // measure 150
0010
0000
0000
0000
,  // measure 151
0001
0000
0000
0000
,  // measure 152
0010
0000
0000
0000
,  // measure 153
0100
0000
0000
0000
,  // measure 154
1000
0000
0000
0000
,  // measure 155
0010
0000
0000
0000
,  // measure 156
0100
0000
0000
0000
,  // measure 157
0001
0000
0000
0000
,  // measure 158
0100
0000
0000
0000
,  // measure 159
0010
0000
0000
0000
,  // measure 160
1000
0000
0000
0000
,  // measure 161
0001
0000
0000
0000
,  // measure 162
1000
0000
0000
0000
,  // measure 163
0010
0000
0000
0000
,  // measure 164
1000
0000
0000
0000
,  // measure 165
0000
0000
0000
0000
,  // measure 166
0000
0000
0000
0000
,  // measure 167
0000
0000
0000
0000
,  // measure 168
0000
0000
0000
0000
,  // measure 169
0001
0000
0000
0000
,  // measure 170
0000
0000
0000
0000
,  // measure 171
0010
0000
0000
0000
,  // measure 172
0000
0000
0000
0000
,  // measure 173
0100
0000
0000
0000
,  // measure 174
1000
0000
0000
0000
,  // measure 175
0010
0000
0000
0000
,  // measure 176
0100
0000
0000
0000
,  // measure 177
0001
0000
0000
0000
,  // measure 178
0100
0000
0000
0000
,  // measure 179
0001
0000
0000
0000
,  // measure 180
1000
0000
0000
0000
,  // measure 181
0010
0000
0000
0000
,  // measure 182
1000
0000
0000
0000
,  // measure 183
0100
0000
0000
0000
,  // measure 184
1000
0000
0000
0000
,  // measure 185
0010
0000
0000
0000
,  // measure 186
0100
0000
0000
0000
,  // measure 187
0001
0000
0000
0000
,  // measure 188
1000
0000
0000
0000
,  // measure 189
0000
0000
0000
0000
,  // measure 190
0001
0000
0000
0000
,  // measure 191
1000
0000
0000
0000
,  // measure 192
0010
0000
0000
0000
,  // measure 193
1000
0000
0000
0000
,  // measure 194
0001
0000
0000
0000
,  // measure 195
0010
0000
0000
0000
,  // measure 196
0001
0000
0000
0000
,  // measure 197
0100
0000
0000
0000
,  // measure 198
0010
0000
0000
0000
,  // measure 199
1000
0000
0000
0000
,  // measure 200
0100
0000
0000
0000
,  // measure 201
1000
0000
0000
0000
,  // measure 202
0010
0000
0000
0000
,  // measure 203
0100
0000
0000
0000
,  // measure 204
0001
0000
0000
0000
,  // measure 205
0001
0000
0000
0000
,  // measure 206
1000
0000
0000
0000
,  // measure 207
0010
0000
0000
0000
,  // measure 208
1000
0000
0000
0000
,  // measure 209
0010
0000
0000
0000
,  // measure 210
0100
0000
0000
0000
,  // measure 211
0100
0000
0000
0000
,  // measure 212
0100
0000
0000
0000
,  // measure 213
0000
0000
0000
0000
,  // measure 214
0000
0000
0000
0000
,  // measure 215
0000
0000
0000
0000
,  // measure 216
0000
0000
0000
0000
,  // measure 217
0000
0000
0000
0000
,  // measure 218
0010
0000
0000
0000
,  // measure 219
0010
0000
0000
0000
,  // measure 220
0010
0000
0000
0000
,  // measure 221
0000
0000
0000
0000
,  // measure 222
0000
0000
0000
0000
,  // measure 223
0000
0000
0000
0000
,  // measure 224
0000
0000
0000
0000
,  // measure 225
0000
0000
0000
0000
,  // measure 226
1000
0000
0000
0000
,  // measure 227
1000
0000
0000
0000
,  // measure 228
1000
0000
0000
0000
,  // measure 229
0001
0000
0000
0000
,  // measure 230
0100
0000
0000
0000
,  // measure 231
0010
0000
0000
0000
,  // measure 232
1000
0000
0000
0000
,  // measure 233
0100
0000
0000
0000
,  // measure 234
1000
0000
0000
0000
,  // measure 235
1000
0000
0000
0000
,  // measure 236
1000
0000
0000
0000
,  // measure 237
0010
0000
0000
0000
,  // measure 238
0100
0000
0000
0000
,  // measure 239
0001
0000
0000
0000
,  // measure 240
0010
0000
0000
0000
,  // measure 241
0001
0000
0000
0000
,  // measure 242
1000
0000
0000
0000
,  // measure 243
0100
0000
0000
0000
,  // measure 244
1000
0000
0000
0000
,  // measure 245
0100
0000
0000
0000
,  // measure 246
1000
0000
0000
0000
,  // measure 247
0100
0000
0000
0000
,  // measure 248
1000
0000
0000
0000
,  // measure 249
0100
0000
0000
0000
,  // measure 250
1000
0000
0000
0000
,  // measure 251
0010
0000
0000
0000
,  // measure 252
0100
0000
0000
0000
,  // measure 253
0001
0000
0000
0000
,  // measure 254
0010
0000
0000
0000
,  // measure 255
0100
0000
0000
0000
,  // measure 256
1000
0000
0000
0000
,  // measure 257
0010
0000
0000
0000
,  // measure 258
1000
0000
0000
0000
,  // measure 259
0100
0000
0000
0000
,  // measure 260
0010
0000
0000
0000
,  // measure 261
0001
0000
0000
0000
,  // measure 262
0010
0000
0000
0000
,  // measure 263
0100
0000
0000
0000
,  // measure 264
0010
0000
0000
0000
,  // measure 265
0001
0000
0000
0000
,  // measure 266
1000
0000
0000
0000
,  // measure 267
0000
0000
0000
0000
,  // measure 268
0000
0000
0000
0000
,  // measure 269
0000
0000
0000
0000
,  // measure 270
0001
0000
0000
0000
,  // measure 271
1000
0000
0000
0000
,  // measure 272
0001
0000
0000
0000
,  // measure 273
0000
0000
0000
0000
,  // measure 274
1000
0000
0000
0000
,  // measure 275
0010
0000
0000
0000
,  // measure 276
1000
0000
0000
0000
,  // measure 277
0000
0000
0000
0000
,  // measure 278
0001
0000
0000
0000
,  // measure 279
0010
0000
0000
0000
,  // measure 280
0001
0000
0000
0000
,  // measure 281
0000
0000
0000
0000
,  // measure 282
1000
0000
0000
0000
,  // measure 283
0001
0000
0000
0000
,  // measure 284
1000
0000
0000
0000
,  // measure 285
0000
0000
0000
0000
,  // measure 286
0000
0000
0000
0000
,  // measure 287
0000
0000
0000
0000
,  // measure 288
0000
0000
0000
0000
,  // measure 289
0001
0000
0000
0000
,  // measure 290
0000
0000
0000
0000
,  // measure 291
0010
0000
0000
0000
,  // measure 292
0000
0000
0000
0000
,  // measure 293
0001
0000
0000
0000
,  // measure 294
0000
0000
0000
0000
,  // measure 295
1000
0000
0000
0000
,  // measure 296
0000
0000
0000
0000
,  // measure 297
0010
0000
0000
0000
,  // measure 298
0000
0000
0000
0000
,  // measure 299
1000
0000
0000
0000
,  // measure 300
0000
0000
0000
0000
,  // measure 301
0001
0000
0000
0000
,  // measure 302
0000
0000
0000
0000
,  // measure 303
0100
0000
0000
0000
,  // measure 304
0000
0000
0000
0000
,  // measure 305
0001
0000
0000
0000
,  // measure 306
0000
0000
0000
0000
,  // measure 307
1000
0000
0000
0000
,  // measure 308
0100
0000
0000
0000
,  // measure 309
1000
0000
0000
0000
,  // measure 310
0010
0000
0000
0000
,  // measure 311
1000
0000
0000
0000
,  // measure 312
0100
0000
0000
0000
,  // measure 313
1000
0000
0000
0000
,  // measure 314
0001
0000
0000
0000
,  // measure 315
1000
0000
0000
0000
,  // measure 316
0100
0000
0000
0000
,  // measure 317
1000
0000
0000
0000
,  // measure 318
0010
0000
0000
0000
,  // measure 319
1000
0000
0000
0000
,  // measure 320
0001
0000
0000
0000
,  // measure 321
1000
0000
0000
0000
,  // measure 322
0000
0000
0000
0000
,  // measure 323
0001
0000
0000
0000
,  // measure 324
0001
0000
0000
0000
,  // measure 325
1000
0000
0000
0000
,  // measure 326
0000
0000
0000
0000
,  // measure 327
0010
0000
0000
0000
,  // measure 328
0010
0000
0000
0000
,  // measure 329
1000
0000
0000
0000
,  // measure 330
0000
0000
0000
0000
,  // measure 331
0001
0000
0000
0000
,  // measure 332
1000
0000
0000
0000
,  // measure 333
0001
0000
0000
0000
,  // measure 334
1000
0000
0000
0000
,  // measure 335
1001
0000
0000
0000
,  // measure 336
0000
0000
0000
0000
,  // measure 337
1001
0000
0000
0000
,  // measure 338
0000
0000
0000
0000
,  // measure 339
1001
0000
0000
0000
,  // measure 340
0000
0000
0000
0000
,  // measure 341
1001
0000
0000
0000
,  // measure 342
0000
0000
0000
0000
,  // measure 343
1000
0000
0000
0000
,  // measure 344
0010
0000
0000
0000
,  // measure 345
1000
0000
0000
0000
,  // measure 346
0001
0000
0000
0000
,  // measure 347
0010
0000
0000
0000
,  // measure 348
0001
0000
0000
0000
,  // measure 349
1000
0000
0000
0000
,  // measure 350
0010
0000
0000
0000
,  // measure 351
1001
0000
0000
0000
,  // measure 352
0000
0000
0000
0000
,  // measure 353
1001
0000
0000
0000
,  // measure 354
0000
0000
0000
0000
,  // measure 355
1001
0000
0000
0000
,  // measure 356
0000
0000
0000
0000
,  // measure 357
0000
0000
0000
0000
,  // measure 358
0000
0000
0000
0000
,  // measure 359
1000
0000
0000
0000
,  // measure 360
0100
0000
0000
0000
,  // measure 361
1000
0000
0000
0000
,  // measure 362
0100
0000
0000
0000
,  // measure 363
0010
0000
0000
0000
,  // measure 364
0001
0000
0000
0000
,  // measure 365
0010
0000
0000
0000
,  // measure 366
0100
0000
0000
0000
,  // measure 367
1000
0000
0000
0000
,  // measure 368
0010
0000
0000
0000
,  // measure 369
0100
0000
0000
0000
,  // measure 370
0001
0000
0000
0000
,  // measure 371
0100
0000
0000
0000
,  // measure 372
0001
0000
0000
0000
,  // measure 373
0010
0000
0000
0000
,  // measure 374
0001
0000
0000
0000
,  // measure 375
0001
0000
0000
0000
,  // measure 376
1000
0000
0000
0000
,  // measure 377
0001
0000
0000
0000
,  // measure 378
1000
0000
0000
0000
,  // measure 379
0100
0000
0000
0000
,  // measure 380
0000
0000
0000
0000
,  // measure 381
0100
0000
0000
0000
,  // measure 382
0000
0000
0000
0000
,  // measure 383
0100
0000
0000
0000
,  // measure 384
0000
0000
0000
0000
,  // measure 385
0100
0000
0000
0000
,  // measure 386
0000
0000
0000
0000
,  // measure 387
1000
0000
0000
0000
,  // measure 388
0000
0000
0000
0000
,  // measure 389
0010
0000
0000
0000
,  // measure 390
0000
0000
0000
0000
,  // measure 391
0100
0000
0000
0000
,  // measure 392
0000
0000
0000
0000
,  // measure 393
0000
0000
0000
0000
,  // measure 394
0001
0000
0000
0000
,  // measure 395
1000
0000
0000
0000
,  // measure 396
0001
0000
0000
0000
,  // measure 397
1000
0000
0000
0000
,  // measure 398
0010
0000
0000
0000
,  // measure 399
1000
0000
0000
0000
,  // measure 400
0010
0000
0000
0000
,  // measure 401
1000
0000
0000
0000
,  // measure 402
0001
0000
0000
0000
,  // measure 403
1000
0000
0000
0000
,  // measure 404
0001
0000
0000
0000
,  // measure 405
1000
0000
0000
0000
,  // measure 406
0001
0000
0000
0000
,  // measure 407
0100
0000
0000
0000
,  // measure 408
0001
0000
0000
0000
,  // measure 409
0100
0000
0000
0000
,  // measure 410
0010
0000
0000
0000
,  // measure 411
0000
0000
0000
0000
,  // measure 412
0010
0000
0000
0000
,  // measure 413
1000
0000
0000
0000
,  // measure 414
0010
0000
0000
0000
,  // measure 415
0100
0000
0000
0000
,  // measure 416
0001
0000
0000
0000
,  // measure 417
0100
0000
0000
0000
,  // measure 418
0001
0000
0000
0000
,  // measure 419
1000
0000
0000
0000
,  // measure 420
0100
0000
0000
0000
,  // measure 421
1000
0000
0000
0000
,  // measure 422
0010
0000
0000
0000
,  // measure 423
0100
0000
0000
0000
,  // measure 424
0010
0000
0000
0000
,  // measure 425
1000
0000
0000
0000
,  // measure 426
0001
0000
0000
0000
,  // measure 427
1000
0000
0000
0000
,  // measure 428
0010
0000
0000
0000
,  // measure 429
0000
0000
0000
0000
,  // measure 430
0000
0000
0000
0000
,  // measure 431
0000
0000
0000
0000
,  // measure 432
1000
0000
0000
0000
,  // measure 433
0100
0000
0000
0000
,  // measure 434
0010
0000
0000
0000
,  // measure 435
0001
0000
0000
0000
,  // measure 436
1000
0000
0000
0000
,  // measure 437
0100
0000
0000
0000
,  // measure 438
0010
0000
0000
0000
,  // measure 439
0001
0000
0000
0000
,  // measure 440
1000
0000
0000
0000
,  // measure 441
0010
0000
0000
0000
,  // measure 442
0100
0000
0000
0000
,  // measure 443
0010
0000
0000
0000
,  // measure 444
1000
0000
0000
0000
,  // measure 445
0001
0000
0000
0000
,  // measure 446
0100
0000
0000
0000
,  // measure 447
0001
0000
0000
0000
,  // measure 448
1000
0000
0000
0000
,  // measure 449
0010
0000
0000
0000
,  // measure 450
0100
0000
0000
0000
,  // measure 451
0001
0000
0000
0000
,  // measure 452
1000
0000
0000
0000
,  // measure 453
0100
0000
0000
0000
,  // measure 454
0010
0000
0000
0000
,  // measure 455
0001
0000
0000
0000
,  // measure 456
1000
0000
0000
0000
,  // measure 457
0001
0000
0000
0000
,  // measure 458
1001
0000
0000
0000
,  // measure 459
0000
0000
0000
0000
,  // measure 460
1000
0000
0000
0000
,  // measure 461
0100
0000
0000
0000
,  // measure 462
1000
0000
0000
0000
,  // measure 463
0010
0000
0000
0000
,  // measure 464
1000
0000
0000
0000
,  // measure 465
0100
0000
0000
0000
,  // measure 466
1000
0000
0000
0000
,  // measure 467
0010
0000
0000
0000
,  // measure 468
1000
0000
0000
0000
,  // measure 469
0001
0000
0000
0000
,  // measure 470
0100
0000
0000
0000
,  // measure 471
0001
0000
0000
0000
,  // measure 472
1000
0000
0000
0000
,  // measure 473
0001
0000
0000
0000
,  // measure 474
0100
0000
0000
0000
,  // measure 475
0001
0000
0000
0000
,  // measure 476
1000
0000
0000
0000
,  // measure 477
1001
0000
0000
0000
,  // measure 478
0001
0000
0000
0000
,  // measure 479
0001
0000
0000
0000
,  // measure 480
1000
0000
0000
0000
,  // measure 481
0010
0000
0000
0000
,  // measure 482
1000
0000
0000
0000
,  // measure 483
0100
0000
0000
0000
,  // measure 484
1000
0000
0000
0000
,  // measure 485
0001
0000
0000
0000
,  // measure 486
0100
0000
0000
0000
,  // measure 487
0100
0000
0000
0000
,  // measure 488
0010
0000
0000
0000
,  // measure 489
1000
0000
0000
0000
,  // measure 490
0001
0000
0000
0000
,  // measure 491
0010
0000
0000
0000
,  // measure 492
0001
0000
0000
0000
,  // measure 493
0100
0000
0000
0000
,  // measure 494
0010
0000
0000
0000
,  // measure 495
1000
0000
0000
0000
,  // measure 496
0001
0000
0000
0000
,  // measure 497
0100
0000
0000
0000
,  // measure 498
0001
0000
0000
0000
,  // measure 499
0010
0000
0000
0000
,  // measure 500
0001
0000
0000
0000
,  // measure 501
1000
0000
0000
0000
,  // measure 502
0001
0000
0000
0000
,  // measure 503
0001
0000
0000
0000
,  // measure 504
1000
0000
0000
0000
,  // measure 505
1000
0000
0000
0000
,  // measure 506
0010
0000
0000
0000
,  // measure 507
0010
0000
0000
0000
,  // measure 508
0100
0000
0000
0000
,  // measure 509
0100
0000
0000
0000
,  // measure 510
0001
0000
0000
0000
,  // measure 511
1000
0000
0000
0000
,  // measure 512
0001
0000
0000
0000
,  // measure 513
1000
0000
0000
0000
,  // measure 514
0010
0000
0000
0000
,  // measure 515
0100
0000
0000
0000
,  // measure 516
0010
0000
0000
0000
,  // measure 517
0100
0000
0000
0000
,  // measure 518
0001
0000
0000
0000
,  // measure 519
0010
0000
0000
0000
,  // measure 520
0100
0000
0000
0000
,  // measure 521
0010
0000
0000
0000
,  // measure 522
0001
0000
0000
0000
,  // measure 523
0100
0000
0000
0000
,  // measure 524
0001
0000
0000
0000
,  // measure 525
1000
0000
0000
0000
,  // measure 526
0001
0000
0000
0000
,  // measure 527
1001
0000
0000
0000
,  // measure 528
0001
0000
0000
0000
,  // measure 529
1000
0000
0000
0000
,  // measure 530
0001
0000
0000
0000
,  // measure 531
0100
0000
0000
0000
,  // measure 532
0001
0000
0000
0000
,  // measure 533
1000
0000
0000
0000
,  // measure 534
0001
0000
0000
0000
,  // measure 535
0100
0000
0000
0000
,  // measure 536
0001
0000
0000
0000
,  // measure 537
0010
0000
0000
0000
,  // measure 538
0001
0000
0000
0000
,  // measure 539
1000
0000
0000
0000
,  // measure 540
0001
0000
0000
0000
,  // measure 541
0100
0000
0000
0000
,  // measure 542
0001
0000
0000
0000
,  // measure 543
0010
0000
0000
0000
,  // measure 544
0000
0000
0000
0000
,  // measure 545
0000
0000
0000
0000
,  // measure 546
0000
0000
0000
0000
,  // measure 547
0001
0000
0000
0000
,  // measure 548
0000
0000
0000
0000
,  // measure 549
1000
0000
0000
0000
,  // measure 550
0000
0000
0000
0000
,  // measure 551
0010
0000
0000
0000
,  // measure 552
0000
0000
0000
0000
,  // measure 553
0100
0000
0000
0000
,  // measure 554
0000
0000
0000
0000
,  // measure 555
0001
0000
0000
0000
,  // measure 556
0000
0000
0000
0000
,  // measure 557
0010
0000
0000
0000
,  // measure 558
0000
0000
0000
0000
,  // measure 559
0100
0000
0000
0000
,  // measure 560
0000
0000
0000
0000
,  // measure 561
1000
0000
0000
0000
,  // measure 562
0000
0000
0000
0000
,  // measure 563
0000
0000
0000
0000
,  // measure 564
0001
0000
0000
0000
,  // measure 565
0000
0000
0000
0000
,  // measure 566
1000
0000
0000
0000
,  // measure 567
0010
0000
0000
0000
,  // measure 568
0100
0000
0000
0000
,  // measure 569
0001
0000
0000
0000
,  // measure 570
1000
0000
0000
0000
,  // measure 571
0001
0000
0000
0000
,  // measure 572
1000
0000
0000
0000
,  // measure 573
0000
0000
0000
0000
,  // measure 574
0001
0000
0000
0000
,  // measure 575
0000
0000
0000
0000
,  // measure 576
1000
0000
0000
0000
,  // measure 577
0000
0000
0000
0000
,  // measure 578
0001
0000
0000
0000
,  // measure 579
0000
0000
0000
0000
,  // measure 580
1000
0000
0000
0000
,  // measure 581
0000
0000
0000
0000
,  // measure 582
0100
0000
0000
0000
,  // measure 583
0000
0000
0000
0000
,  // measure 584
0010
0000
0000
0000
,  // measure 585
0000
0000
0000
0000
,  // measure 586
0001
0000
0000
0000
,  // measure 587
1000
0000
0000
0000
,  // measure 588
0000
0000
0000
0000
,  // measure 589
0010
0000
0000
0000
,  // measure 590
0000
0000
0000
0000
,  // measure 591
0100
0000
0000
0000
,  // measure 592
0000
0000
0000
0000
,  // measure 593
0001
0000
0000
0000
,  // measure 594
0000
0000
0000
0000
,  // measure 595
0000
0000
0000
0000
,  // measure 596
0000
0000
0000
0000
,  // measure 597
1000
0000
0000
0000
,  // measure 598
0010
0000
0000
0000
,  // measure 599
1000
0000
0000
0000
,  // measure 600
0010
0000
0000
0000
,  // measure 601
1000
0000
0000
0000
,  // measure 602
0100
0000
0000
0000
,  // measure 603
1000
0000
0000
0000
,  // measure 604
0100
0000
0000
0000
,  // measure 605
0100
0000
0000
0000
,  // measure 606
0100
0000
0000
0000
,  // measure 607
0100
0000
0000
0000
,  // measure 608
1000
0000
0000
0000
,  // measure 609
0010
0000
0000
0000
,  // measure 610
0100
0000
0000
0000
,  // measure 611
0001
0000
0000
0000
,  // measure 612
0010
0000
0000
0000
,  // measure 613
0100
0000
0000
0000
,  // measure 614
1000
0000
0000
0000
,  // measure 615
0010
0000
0000
0000
,  // measure 616
0100
0000
0000
0000
,  // measure 617
0001
0000
0000
0000
,  // measure 618
0010
0000
0000
0000
,  // measure 619
0001
0000
0000
0000
,  // measure 620
0100
0000
0000
0000
,  // measure 621
0010
0000
0000
0000
,  // measure 622
1000
0000
0000
0000
,  // measure 623
0100
0000
0000
0000
,  // measure 624
1000
0000
0000
0000
,  // measure 625
0010
0000
0000
0000
,  // measure 626
0100
0000
0000
0000
,  // measure 627
0001
0000
0000
0000
,  // measure 628
0010
0000
0000
0000
,  // measure 629
0001
0000
0000
0000
,  // measure 630
0100
0000
0000
0000
,  // measure 631
0010
0000
0000
0000
,  // measure 632
1000
0000
0000
0000
,  // measure 633
0100
0000
0000
0000
,  // measure 634
1000
0000
0000
0000
,  // measure 635
0010
0000
0000
0000
,  // measure 636
0100
0000
0000
0000
,  // measure 637
0001
0000
0000
0000
,  // measure 638
1000
0000
0000
0000
,  // measure 639
0001
0000
0000
0000
,  // measure 640
0000
0000
0000
0000
,  // measure 641
1000
0000
0000
0000
,  // measure 642
0000
0000
0000
0000
,  // measure 643
0010
0000
0000
0000
,  // measure 644
0000
0000
0000
0000
,  // measure 645
0100
0000
0000
0000
,  // measure 646
0000
0000
0000
0000
,  // measure 647
0001
0000
0000
0000
,  // measure 648
0000
0000
0000
0000
,  // measure 649
0010
0000
0000
0000
,  // measure 650
0000
0000
0000
0000
,  // measure 651
0100
0000
0000
0000
,  // measure 652
0000
0000
0000
0000
,  // measure 653
1000
0000
0000
0000
,  // measure 654
0000
0000
0000
0000
,  // measure 655
0001
0000
0000
0000
,  // measure 656
0000
0000
0000
0000
,  // measure 657
0000
0000
0000
0000
,  // measure 658
0000
0000
0000
0000
,  // measure 659
1000
0000
0000
0000
;

//---------------dance-single - Lisek----------------
#NOTES:
     dance-single:
     Lisek:
     Easy:
     3:
     0.218,0.318,0.085,0.019,0: // measure 1
0000
0000
0000
0000
,  // measure 2
0000
0000
0000
0000
,  // measure 3
0000
0000
0000
0000
,  // measure 4
0000
0000
0000
0000
,  // measure 5
0000
0000
0000
0000
,  // measure 6
0000
0000
0000
0000
,  // measure 7
0000
0000
0000
0000
,  // measure 8
0000
0000
0000
0000
,  // measure 9
0000
0000
0000
0000
,  // measure 10
0000
0000
0000
0000
,  // measure 11
0000
0000
0000
0000
,  // measure 12
0000
0000
0000
0000
,  // measure 13
0000
0000
0000
0000
,  // measure 14
0000
0000
0000
0000
,  // measure 15
0000
0000
0000
0000
,  // measure 16
0000
0000
0000
0000
,  // measure 17
0000
0000
0000
0000
,  // measure 18
0000
0000
0000
0000
,  // measure 19
0000
0000
0000
0000
,  // measure 20
0000
0000
0000
0000
,  // measure 21
0000
0000
0000
0000
,  // measure 22
0000
0000
0000
0000
,  // measure 23
2000
0000
3000
0000
,  // measure 24
0002
0000
0003
0000
,  // measure 25
0100
0000
0010
0000
,  // measure 26
0100
0000
0000
0000
,  // measure 27
0002
0000
0003
0000
,  // measure 28
2000
0000
3000
0000
,  // measure 29
0010
0000
0100
0000
,  // measure 30
0010
0000
0000
0000
,  // measure 31
2000
0000
3000
0000
,  // measure 32
0200
0000
0300
0000
,  // measure 33
0010
0000
0001
0000
,  // measure 34
0010
0000
0000
0000
,  // measure 35
0002
0000
0003
0000
,  // measure 36
2000
0000
3000
0000
,  // measure 37
0001
0000
0100
0000
,  // measure 38
0001
0000
0000
0000
,  // measure 39
1000
0000
0001
0000
,  // measure 40
1000
0000
0001
0000
,  // measure 41
1000
0000
0000
0000
,  // measure 42
0010
0000
0000
0000
,  // measure 43
0100
0000
0010
0000
,  // measure 44
0100
0000
0010
0000
,  // measure 45
0100
0000
0000
0000
,  // measure 46
0001
0000
0000
0000
,  // measure 47
1000
0000
0100
0000
,  // measure 48
0010
0000
0100
0000
,  // measure 49
1000
0000
0000
0000
,  // measure 50
0001
0000
0000
0000
,  // measure 51
0100
0000
0010
0000
,  // measure 52
0100
0000
0001
0000
,  // measure 53
0100
0000
0000
0000
,  // measure 54
0010
0000
0000
0000
,  // measure 55
1000
0000
0100
0000
,  // measure 56
1000
0000
0100
0000
,  // measure 57
0010
0000
0001
0000
,  // measure 58
0010
0000
0001
0000
,  // measure 59
1000
0000
0100
0000
,  // measure 60
1000
0000
0010
0000
,  // measure 61
0100
0100
0100
0100
,  // measure 62
0100
0000
0000
0000
,  // measure 63
0010
0000
1000
0000
,  // measure 64
0001
0000
1000
0000
,  // measure 65
0100
0000
1000
0000
,  // measure 66
0001
0000
1000
0000
,  // measure 67
0001
0000
0100
0000
,  // measure 68
0001
0000
1000
0000
,  // measure 69
0001
0000
0010
0000
,  // measure 70
0100
0000
1000
0000
,  // measure 71
1001
0000
0001
0000
,  // measure 72
1000
0000
0001
0000
,  // measure 73
1001
0000
1000
0000
,  // measure 74
0001
0000
1000
0000
,  // measure 75
1001
0000
0001
0000
,  // measure 76
1000
1000
1000
0000
,  // measure 77
1001
0000
0001
0000
,  // measure 78
0100
0100
0100
0000
,  // measure 79
0001
0000
1000
0000
,  // measure 80
0100
0000
1000
0000
,  // measure 81
0010
0000
0100
0000
,  // measure 82
0001
0001
1000
1000
,  // measure 83
0001
0000
0100
0000
,  // measure 84
0010
0000
0100
0000
,  // measure 85
0001
0000
1000
0000
,  // measure 86
0100
0100
1000
1000
,  // measure 87
0100
0000
0100
0000
,  // measure 88
0010
0000
0010
0000
,  // measure 89
0001
0000
0001
0000
,  // measure 90
1000
0000
1000
0000
,  // measure 91
0010
0000
0010
0000
,  // measure 92
0100
0000
0100
0000
,  // measure 93
0001
0000
0001
0000
,  // measure 94
1000
0000
0001
0000
,  // measure 95
1001
0000
1000
0000
,  // measure 96
1001
0000
0001
0000
,  // measure 97
0110
0000
0100
0000
,  // measure 98
0110
0000
0010
0000
,  // measure 99
1001
0000
0100
0000
,  // measure 100
1001
0000
0100
0000
,  // measure 101
1001
0000
0010
0000
,  // measure 102
2002
0000
3003
0000
,  // measure 103
1000
1000
0001
0001
,  // measure 104
0000
0000
0000
0000
,  // measure 105
0100
0100
0010
0010
,  // measure 106
1000
0000
0001
0000
,  // measure 107
0100
0000
0001
0000
,  // measure 108
1000
0000
0100
0000
,  // measure 109
1000
0000
0010
0000
,  // measure 110
0100
0000
0100
0000
,  // measure 111
0001
0001
1000
1000
,  // measure 112
0000
0000
0000
0000
,  // measure 113
0001
0001
0010
0010
,  // measure 114
0001
0000
0100
0000
,  // measure 115
0001
0000
1000
0000
,  // measure 116
0010
0000
0100
0000
,  // measure 117
0001
0000
0100
0000
,  // measure 118
0001
0000
1000
0000
,  // measure 119
1001
0000
0000
0000
,  // measure 120
0000
0000
0000
0000
,  // measure 121
1000
0000
0001
0000
,  // measure 122
1000
0001
1001
0000
,  // measure 123
M000
0M00
M000
00M0
M000
0M00
M000
000M
,  // measure 124
1000
0000
0100
0000
,  // measure 125
1000
0100
0000
0000
,  // measure 126
0010
0000
0001
0000
,  // measure 127
0010
0000
0000
0000
,  // measure 128
0001
0000
1000
0000
,  // measure 129
0001
1000
0000
0000
,  // measure 130
0001
0000
0100
0000
,  // measure 131
0010
0000
0000
0000
,  // measure 132
1000
0000
0100
0000
,  // measure 133
1000
0000
0010
0000
,  // measure 134
0100
0000
0001
0000
,  // measure 135
0100
0000
0010
0000
,  // measure 136
1000
0000
0100
0000
,  // measure 137
1000
0000
0010
0000
,  // measure 138
0100
0000
0001
0000
,  // measure 139
0100
0000
0001
0000
,  // measure 140
1000
0000
0001
0000
,  // measure 141
0010
0000
0001
0000
,  // measure 142
0100
0000
0010
0000
,  // measure 143
1000
0000
0010
0000
,  // measure 144
0100
0000
0010
0000
,  // measure 145
1000
0000
0001
0000
,  // measure 146
1000
0000
0001
1000
,  // measure 147
1001
0000
0000
0000
,  // measure 148
1000
0000
0100
0000
,  // measure 149
0001
0000
0100
0000
,  // measure 150
1000
0000
0100
0000
,  // measure 151
0001
0000
0100
0000
,  // measure 152
1000
0000
0010
0000
,  // measure 153
0100
0000
0010
0000
,  // measure 154
1000
0000
0010
0000
,  // measure 155
0100
0000
0010
0000
,  // measure 156
1000
0000
0100
0000
,  // measure 157
0010
0000
0100
0000
,  // measure 158
1000
0000
0100
0000
,  // measure 159
0010
0000
0100
0000
,  // measure 160
1000
0000
0001
0000
,  // measure 161
0100
0000
0001
0000
,  // measure 162
1000
0000
0001
0000
,  // measure 163
0100
0000
0001
0000
,  // measure 164
1000
0000
0001
0000
,  // measure 165
1001
1001
1001
0000
,  // measure 166
0000
0000
0000
0000
,  // measure 167
1001
1001
1001
0000
,  // measure 168
0000
0000
0000
0000
,  // measure 169
1000
0000
0010
0000
,  // measure 170
1000
0000
0100
0100
,  // measure 171
1000
0000
0010
0000
,  // measure 172
0100
0000
0001
0001
,  // measure 173
1000
0000
0001
0000
,  // measure 174
0100
0000
0010
0000
,  // measure 175
1000
0000
0010
0000
,  // measure 176
0100
0000
0001
0000
,  // measure 177
1000
0000
0100
0000
,  // measure 178
0010
0000
0100
0000
,  // measure 179
1000
0000
0001
0000
,  // measure 180
0100
0000
0001
0000
,  // measure 181
1000
0000
0010
0000
,  // measure 182
0100
0000
0010
0000
,  // measure 183
1000
0000
0001
0000
,  // measure 184
0100
0000
0001
0000
,  // measure 185
1000
0000
0001
0000
,  // measure 186
0100
0000
0001
0000
,  // measure 187
1000
0010
0100
0001
,  // measure 188
1000
0000
1001
0000
,  // measure 189
0000
0000
0000
0000
,  // measure 190
0001
0000
0001
0000
,  // measure 191
1000
0000
1000
0000
,  // measure 192
0001
1000
0001
0000
,  // measure 193
1000
0000
0010
0000
,  // measure 194
1000
0000
0100
0000
,  // measure 195
1000
0000
0001
0000
,  // measure 196
0100
0000
0001
0000
,  // measure 197
1000
0000
0010
0000
,  // measure 198
1000
0010
1000
0000
,  // measure 199
0001
0000
0100
0000
,  // measure 200
0001
0000
1000
0000
,  // measure 201
0001
0000
1000
0000
,  // measure 202
0100
0000
0010
0000
,  // measure 203
0011
0000
0000
0000
,  // measure 204
0001
0000
0100
0000
,  // measure 205
0010
0000
1000
0000
,  // measure 206
0001
0001
0001
0000
,  // measure 207
0001
0000
0001
0000
,  // measure 208
1000
1000
1000
0000
,  // measure 209
1000
0000
1000
0000
,  // measure 210
1001
0000
0000
0000
,  // measure 211
0110
0000
0000
0000
,  // measure 212
1010
0000
0000
0000
,  // measure 213
0001
0000
0100
0000
,  // measure 214
0010
0000
0000
0000
,  // measure 215
1000
0000
0000
0000
,  // measure 216
0100
0000
0000
0000
,  // measure 217
0000
0000
0000
0000
,  // measure 218
0101
0000
0000
0000
,  // measure 219
1010
0000
0000
0000
,  // measure 220
1100
0000
0000
0000
,  // measure 221
1000
0000
0010
0000
,  // measure 222
0100
0000
0001
0000
,  // measure 223
1000
0000
0001
0000
,  // measure 224
1000
0001
1000
0001
,  // measure 225
1001
0000
0000
0000
,  // measure 226
1000
0100
1000
0000
,  // measure 227
1000
0001
1000
0000
,  // measure 228
0001
0100
0001
0000
,  // measure 229
1000
0000
0010
0000
,  // measure 230
0100
0000
0010
0000
,  // measure 231
1000
0000
0100
0000
,  // measure 232
1000
0000
0010
0000
,  // measure 233
1000
0000
0001
0000
,  // measure 234
1000
0001
1000
0000
,  // measure 235
0001
1000
0001
0000
,  // measure 236
1000
0001
1000
0000
,  // measure 237
0001
0000
0100
0000
,  // measure 238
0010
0000
1000
0000
,  // measure 239
0100
0000
1000
0000
,  // measure 240
2002
0000
0000
0000
,  // measure 241
0000
0000
3003
0000
,  // measure 242
1000
0000
0001
0000
,  // measure 243
0100
0000
0010
0000
,  // measure 244
0100
0000
0001
0000
,  // measure 245
1000
0000
0001
0000
,  // measure 246
1000
0000
0100
0000
,  // measure 247
0010
0000
0001
0000
,  // measure 248
0001
0000
0010
0000
,  // measure 249
0100
0000
1000
0000
,  // measure 250
0001
0001
0001
0000
,  // measure 251
1000
1000
1000
0000
,  // measure 252
0001
0001
0001
0000
,  // measure 253
1000
1000
1000
0000
,  // measure 254
0010
0010
0010
0000
,  // measure 255
0100
0100
0100
0000
,  // measure 256
0010
0010
0010
0000
,  // measure 257
0100
0100
0100
0000
,  // measure 258
0001
0001
0001
0000
,  // measure 259
0100
0100
0100
0000
,  // measure 260
0001
0001
0001
0000
,  // measure 261
0100
0100
0100
0000
,  // measure 262
0010
0010
0010
0000
,  // measure 263
1000
1000
1000
0000
,  // measure 264
0010
0010
0010
0000
,  // measure 265
1000
1000
1000
0000
,  // measure 266
0001
0000
1000
0000
,  // measure 267
0001
0000
1000
0000
,  // measure 268
1001
0000
0000
0000
,  // measure 269
0000
0000
0000
0000
,  // measure 270
1000
0000
0100
0000
,  // measure 271
1000
0000
0010
0000
,  // measure 272
0100
0000
0001
0000
,  // measure 273
0100
0000
0100
0000
,  // measure 274
0001
0000
1000
0000
,  // measure 275
0001
0000
0010
0000
,  // measure 276
0100
0000
1000
0000
,  // measure 277
0100
0000
0000
0000
,  // measure 278
0100
0000
1000
0000
,  // measure 279
0010
0000
0100
0000
,  // measure 280
0001
0000
1000
0000
,  // measure 281
0001
0000
0001
0000
,  // measure 282
1000
0000
0100
0000
,  // measure 283
1000
0000
0010
0000
,  // measure 284
0100
0000
0000
0000
,  // measure 285
0010
0000
0010
0000
,  // measure 286
0010
0000
0010
0000
,  // measure 287
0010
0000
0010
0000
,  // measure 288
0010
0000
0010
0000
,  // measure 289
1001
0000
0000
0000
,  // measure 290
1000
0000
0001
0000
,  // measure 291
0100
0000
0000
0000
,  // measure 292
0010
0000
1000
0000
,  // measure 293
0100
0000
0000
0000
,  // measure 294
0010
0000
0001
0000
,  // measure 295
1000
0000
0000
0000
,  // measure 296
0001
0000
1000
0000
,  // measure 297
0001
0000
1000
0000
,  // measure 298
0001
0000
0100
0000
,  // measure 299
0010
0000
0100
0000
,  // measure 300
0010
0000
0100
0000
,  // measure 301
0001
0000
0100
0000
,  // measure 302
0010
0000
1000
0000
,  // measure 303
0001
0000
0100
0000
,  // measure 304
0010
0000
0100
0000
,  // measure 305
0001
1000
0001
1000
,  // measure 306
0001
1000
0001
1000
,  // measure 307
0001
0000
0100
0000
,  // measure 308
0010
0000
1000
0000
,  // measure 309
0100
0000
1000
0000
,  // measure 310
0010
0000
0100
0000
,  // measure 311
0001
0000
0100
0000
,  // measure 312
0001
0000
0100
0000
,  // measure 313
0010
0000
1000
0000
,  // measure 314
0010
0000
0100
0000
,  // measure 315
0010
0000
1000
0000
,  // measure 316
0100
0000
1000
0000
,  // measure 317
0010
0000
0100
0000
,  // measure 318
0001
0000
1000
0000
,  // measure 319
0001
0000
0100
0000
,  // measure 320
0001
0000
1000
0000
,  // measure 321
0001
0000
1000
0000
,  // measure 322
0001
0000
1000
0000
,  // measure 323
0001
0001
0000
0000
,  // measure 324
1000
1000
0000
0000
,  // measure 325
0010
0000
0100
0000
,  // measure 326
0001
0000
1000
0000
,  // measure 327
0001
0001
0000
0000
,  // measure 328
1000
1000
0000
0000
,  // measure 329
0010
0000
0010
0000
,  // measure 330
0100
0000
0100
0000
,  // measure 331
0001
0000
0100
0000
,  // measure 332
0001
0000
1000
0000
,  // measure 333
0010
0000
0100
0000
,  // measure 334
0001
0000
0000
0000
,  // measure 335
1001
1001
1001
0000
,  // measure 336
0000
0000
0000
0000
,  // measure 337
1001
1001
1001
0000
,  // measure 338
0000
0000
0000
0000
,  // measure 339
1001
1001
1001
0000
,  // measure 340
0000
0000
0000
0000
,  // measure 341
1001
1001
1001
0000
,  // measure 342
0000
0000
0000
0000
,  // measure 343
1000
0000
0100
0000
,  // measure 344
0010
0000
0001
0000
,  // measure 345
0001
0000
0010
0000
,  // measure 346
0100
0000
1000
0000
,  // measure 347
1000
0000
0010
0000
,  // measure 348
0100
0000
0001
0000
,  // measure 349
0001
0000
0100
0000
,  // measure 350
0010
0000
0000
0000
,  // measure 351
1001
1001
1001
0000
,  // measure 352
0000
0000
0000
0000
,  // measure 353
1001
1001
1001
0000
,  // measure 354
0000
0000
0000
0000
,  // measure 355
1001
1001
1001
0000
,  // measure 356
0000
0000
0000
0000
,  // measure 357
1000
0000
0001
0000
,  // measure 358
1000
0001
0000
0000
,  // measure 359
1000
0000
0010
0000
,  // measure 360
1000
0000
0100
0000
,  // measure 361
1000
0000
0010
0000
,  // measure 362
1000
0000
0100
0000
,  // measure 363
1000
0000
0001
0000
,  // measure 364
1000
0000
0001
0000
,  // measure 365
1000
0000
0001
0000
,  // measure 366
1000
0000
0001
0000
,  // measure 367
1001
0000
0000
0000
,  // measure 368
0110
0000
0000
0000
,  // measure 369
1010
0000
0101
0000
,  // measure 370
1001
0000
0000
0000
,  // measure 371
0001
0000
0100
0000
,  // measure 372
0001
0000
0010
0000
,  // measure 373
0001
0000
0100
0000
,  // measure 374
0001
0000
0010
0000
,  // measure 375
0011
0000
0000
0000
,  // measure 376
1001
0000
0000
0000
,  // measure 377
1000
0000
0010
0000
,  // measure 378
0100
0000
0010
0000
,  // measure 379
1000
1000
0001
0001
,  // measure 380
1000
0000
0000
0000
,  // measure 381
0001
0001
0100
0100
,  // measure 382
0001
0000
0000
0000
,  // measure 383
0010
0010
0100
0100
,  // measure 384
1000
0000
0000
0000
,  // measure 385
1000
1000
0100
0100
,  // measure 386
0010
0000
0000
0000
,  // measure 387
0001
0001
0000
0000
,  // measure 388
1000
1000
0001
0000
,  // measure 389
1000
0001
0000
0000
,  // measure 390
0100
0100
0010
0000
,  // measure 391
1000
0000
0001
0000
,  // measure 392
0100
0000
0000
0000
,  // measure 393
0000
0000
0000
0000
,  // measure 394
1001
0000
0000
0000
,  // measure 395
1010
0000
0000
0000
,  // measure 396
0001
0100
0001
1000
,  // measure 397
0001
0000
1000
0000
,  // measure 398
0101
0000
0000
0000
,  // measure 399
1010
0000
0000
0000
,  // measure 400
1000
0100
1000
0010
,  // measure 401
1000
0000
0001
0000
,  // measure 402
1001
0000
0010
0000
,  // measure 403
1001
0000
0100
0000
,  // measure 404
0001
0100
0001
0100
,  // measure 405
0001
0000
1000
0000
,  // measure 406
1001
0000
0010
0000
,  // measure 407
1001
0000
1000
0000
,  // measure 408
0001
0100
0010
0100
,  // measure 409
0001
0000
1000
0000
,  // measure 410
0001
0000
0000
0000
,  // measure 411
0000
0000
0000
0000
,  // measure 412
0001
0001
0001
0001
,  // measure 413
0001
0000
0000
0000
,  // measure 414
1000
1000
1000
1000
,  // measure 415
1000
0000
0000
0000
,  // measure 416
0010
0010
0010
0010
,  // measure 417
0010
0000
0000
0000
,  // measure 418
0100
0000
0100
0000
,  // measure 419
0100
0000
0100
0000
,  // measure 420
0100
0100
0100
0100
,  // measure 421
0100
0000
0000
0000
,  // measure 422
0001
0001
0001
0001
,  // measure 423
0001
0000
0000
0000
,  // measure 424
1000
1000
1000
1000
,  // measure 425
1000
0000
0000
0000
,  // measure 426
0010
0000
0010
0000
,  // measure 427
0010
0000
0010
0000
,  // measure 428
0010
0000
0100
0000
,  // measure 429
0001
0000
1000
0000
,  // measure 430
1001
0000
0000
0000
,  // measure 431
1000
0000
0001
0000
,  // measure 432
1000
1000
1000
1000
,  // measure 433
0001
0001
0001
0001
,  // measure 434
1000
1000
1000
1000
,  // measure 435
0001
1000
0001
0000
,  // measure 436
1000
1000
1000
1000
,  // measure 437
0001
0001
0001
0001
,  // measure 438
1000
1000
1000
1000
,  // measure 439
0001
1000
0001
0000
,  // measure 440
1000
0000
0100
0000
,  // measure 441
1000
0000
1100
0000
,  // measure 442
1000
0000
0010
0000
,  // measure 443
1000
0000
1010
0000
,  // measure 444
1000
0000
0100
0000
,  // measure 445
0100
0000
1000
0000
,  // measure 446
0010
0000
0100
0000
,  // measure 447
0010
0000
0100
0000
,  // measure 448
0010
0000
0100
0000
,  // measure 449
0001
0000
0101
0000
,  // measure 450
0001
0000
0010
0000
,  // measure 451
0001
0000
0011
0000
,  // measure 452
0001
0000
0100
0000
,  // measure 453
0100
0000
0001
0000
,  // measure 454
1000
0000
0010
0000
,  // measure 455
0100
0000
0010
0000
,  // measure 456
1000
0000
1000
0000
,  // measure 457
0001
0000
0001
0000
,  // measure 458
1001
0000
0000
0000
,  // measure 459
0000
0000
0000
0000
,  // measure 460
1000
1000
1000
1000
,  // measure 461
0010
0010
0010
0010
,  // measure 462
0100
0100
0100
0100
,  // measure 463
0001
0001
0001
0001
,  // measure 464
1000
1000
1000
1000
,  // measure 465
0100
0100
0100
0100
,  // measure 466
0010
0010
0010
0010
,  // measure 467
0001
0001
0001
0001
,  // measure 468
1000
1000
1000
1000
,  // measure 469
0001
0001
0001
0001
,  // measure 470
0100
0100
0100
0100
,  // measure 471
0010
0010
0010
0010
,  // measure 472
1000
1000
1000
1000
,  // measure 473
0001
0001
0001
0001
,  // measure 474
1000
0001
1000
0001
,  // measure 475
0100
0010
0100
0010
,  // measure 476
1000
0000
0001
0000
,  // measure 477
1000
0000
0001
0000
,  // measure 478
2000
0000
3100
0000
,  // measure 479
2000
0000
3010
0000
,  // measure 480
1000
0001
1000
0001
,  // measure 481
2000
0000
3001
0000
,  // measure 482
0001
0000
1000
0000
,  // measure 483
0001
0000
0100
0000
,  // measure 484
0010
0000
1000
0000
,  // measure 485
0100
0000
1000
0000
,  // measure 486
0002
0000
0103
0000
,  // measure 487
0002
0000
0013
0000
,  // measure 488
0001
1000
0001
1000
,  // measure 489
0002
0000
1003
0000
,  // measure 490
0010
0000
0100
0000
,  // measure 491
0001
0000
1000
0000
,  // measure 492
0001
0000
1000
0000
,  // measure 493
0010
0000
0100
0000
,  // measure 494
0100
0000
0010
0000
,  // measure 495
0100
0000
0010
0000
,  // measure 496
0100
0000
0001
0000
,  // measure 497
0100
0000
0001
0000
,  // measure 498
1000
0000
0001
0000
,  // measure 499
1000
0000
0001
0000
,  // measure 500
1000
0000
0100
0000
,  // measure 501
1000
0000
0100
0000
,  // measure 502
1000
0000
1000
0000
,  // measure 503
1000
1000
1000
0000
,  // measure 504
0001
0000
0001
0000
,  // measure 505
0001
0000
0000
0000
,  // measure 506
0100
0010
0100
0010
,  // measure 507
0100
0000
0010
0000
,  // measure 508
0100
0000
0010
0000
,  // measure 509
1000
0000
0001
0000
,  // measure 510
1000
1000
1000
1000
,  // measure 511
1000
1000
1000
0000
,  // measure 512
0001
0001
0001
0001
,  // measure 513
0001
0001
0001
0000
,  // measure 514
0100
0100
0100
0100
,  // measure 515
0100
0100
0100
0000
,  // measure 516
0001
0001
0001
0000
,  // measure 517
1000
0001
1001
0000
,  // measure 518
1000
1000
1000
1000
,  // measure 519
1000
1000
1000
0000
,  // measure 520
0010
0010
0010
0010
,  // measure 521
0010
0010
0010
0000
,  // measure 522
0100
0100
0100
0100
,  // measure 523
0100
0100
0100
0000
,  // measure 524
0010
0000
1000
0000
,  // measure 525
1000
0000
1001
0000
,  // measure 526
0001
0000
1001
0000
,  // measure 527
1000
0000
1001
0000
,  // measure 528
1000
0000
0100
0000
,  // measure 529
1000
0000
0010
0000
,  // measure 530
0100
0000
0001
0000
,  // measure 531
0010
0000
0001
0000
,  // measure 532
0100
0000
0010
0000
,  // measure 533
1000
0000
0100
0000
,  // measure 534
1000
0000
0010
0000
,  // measure 535
1000
0000
0100
0000
,  // measure 536
1000
0000
0001
0000
,  // measure 537
0100
0000
0001
0000
,  // measure 538
1000
0000
0010
0000
,  // measure 539
0100
0000
0010
0000
,  // measure 540
1000
0000
0100
0000
,  // measure 541
1000
0000
0001
0000
,  // measure 542
0100
0000
0001
0000
,  // measure 543
1000
0000
0000
0000
,  // measure 544
0000
0000
0000
0000
,  // measure 545
0000
0000
0000
0000
,  // measure 546
0000
0000
0000
0000
,  // measure 547
0001
0000
0000
0000
,  // measure 548
0100
0000
0000
0000
,  // measure 549
0010
0000
0000
0000
,  // measure 550
1000
0000
0000
0000
,  // measure 551
0001
0000
0000
0000
,  // measure 552
1000
0000
0000
0000
,  // measure 553
0001
0000
0000
0000
,  // measure 554
1000
0000
0000
0000
,  // measure 555
0001
0000
0000
0000
,  // measure 556
0100
0000
0000
0000
,  // measure 557
0010
0000
0000
0000
,  // measure 558
0100
0000
0000
0000
,  // measure 559
0001
0000
0000
0000
,  // measure 560
1000
0000
0000
0000
,  // measure 561
0001
0000
1000
0000
,  // measure 562
0001
1000
0001
1000
,  // measure 563
0001
1000
0001
1000
,  // measure 564
0001
0000
0100
0000
,  // measure 565
0010
0000
0100
0000
,  // measure 566
0001
0000
0010
0000
,  // measure 567
0100
0000
1000
0000
,  // measure 568
0010
0000
0100
0000
,  // measure 569
0001
0000
0100
0000
,  // measure 570
0010
0000
1000
0000
,  // measure 571
0010
0000
1000
0000
,  // measure 572
0001
0000
0100
0000
,  // measure 573
0001
0000
1000
0000
,  // measure 574
0100
0000
1000
0000
,  // measure 575
0010
0000
0100
0000
,  // measure 576
0010
0000
1000
0000
,  // measure 577
0100
0000
1000
0000
,  // measure 578
0001
0000
0100
0000
,  // measure 579
0010
0000
0100
0000
,  // measure 580
0001
0100
0001
0100
,  // measure 581
0001
0100
0001
0000
,  // measure 582
1000
0010
1000
0010
,  // measure 583
1000
0010
1000
0000
,  // measure 584
0001
1000
0001
1000
,  // measure 585
0001
1000
0001
0000
,  // measure 586
1000
0000
0001
0000
,  // measure 587
1000
0000
0000
0000
,  // measure 588
0001
0100
0001
0100
,  // measure 589
0001
0100
0001
0000
,  // measure 590
1000
0010
1000
0010
,  // measure 591
1000
0010
1000
0000
,  // measure 592
0001
1000
0001
1000
,  // measure 593
0001
1000
0001
0000
,  // measure 594
1000
0000
0100
0000
,  // measure 595
1000
0000
0000
0000
,  // measure 596
0001
0000
1000
0000
,  // measure 597
0001
0001
1000
1000
,  // measure 598
0001
0001
1000
1000
,  // measure 599
0001
0001
0100
0100
,  // measure 600
0001
0001
0100
0100
,  // measure 601
0010
0010
0100
0100
,  // measure 602
0010
0010
0100
0100
,  // measure 603
0001
0000
0001
0000
,  // measure 604
1000
0000
1000
1000
,  // measure 605
1000
1000
1000
1000
,  // measure 606
1000
1000
1000
1000
,  // measure 607
0001
0000
0100
0000
,  // measure 608
0010
0000
0100
0000
,  // measure 609
0001
0000
1000
0000
,  // measure 610
0100
0000
1000
0000
,  // measure 611
0001
0000
1000
0000
,  // measure 612
0001
0000
0100
0000
,  // measure 613
0010
0000
0100
0000
,  // measure 614
0001
0000
1000
0000
,  // measure 615
0001
0000
1000
0000
,  // measure 616
0100
0000
1000
0000
,  // measure 617
0010
0000
0100
0000
,  // measure 618
0010
0000
1000
0000
,  // measure 619
0001
0000
1000
0000
,  // measure 620
0001
0000
1000
0000
,  // measure 621
0001
0000
0100
0000
,  // measure 622
0001
1000
0001
1000
,  // measure 623
0001
0000
0100
0000
,  // measure 624
0010
0000
1000
0000
,  // measure 625
0100
0000
0010
0000
,  // measure 626
0001
0000
0100
0000
,  // measure 627
0010
0000
1000
0000
,  // measure 628
0100
0000
1000
0000
,  // measure 629
0010
0000
0100
0000
,  // measure 630
0001
0000
1000
0000
,  // measure 631
0001
0000
0100
0000
,  // measure 632
0010
0000
1000
0000
,  // measure 633
0100
0000
1000
0000
,  // measure 634
0010
0000
0100
0000
,  // measure 635
0001
0000
0010
0000
,  // measure 636
0100
0000
1000
0000
,  // measure 637
0010
0000
0100
0000
,  // measure 638
0010
0000
1000
0000
,  // measure 639
0001
0000
0000
0000
,  // measure 640
0000
0000
1000
0000
,  // measure 641
0010
0000
0000
0000
,  // measure 642
0000
0000
0100
0000
,  // measure 643
0001
0000
0000
0000
,  // measure 644
1000
0000
0000
0000
,  // measure 645
0010
0000
0000
0000
,  // measure 646
1000
0000
0000
0000
,  // measure 647
0001
0000
0000
0000
,  // measure 648
0000
0000
0100
0000
,  // measure 649
0001
0000
0000
0000
,  // measure 650
0000
0000
1000
0000
,  // measure 651
0010
0000
0000
0000
,  // measure 652
0100
0000
0000
0000
,  // measure 653
0001
0000
0000
0000
,  // measure 654
1000
0000
0000
0000
,  // measure 655
0001
0000
0000
0000
,  // measure 656
0000
0000
0000
0000
,  // measure 657
0100
0000
0000
0000
,  // measure 658
0000
0000
0000
0000
,  // measure 659
0010
0000
0000
0000
;
