#TITLE:Five Nights at Freddy's Song;
#ARTIST:The Living Tombstone;
#BANNER:FNAF-bn.png;
#BACKGROUND:FNAF-bg.png;
#MUSIC:Five Nights at Freddy's Song.mp3;
#OFFSET:-0.020;
#SAMPLESTART:46.8;
#SAMPLELENGTH:12;
#BPMS:0=103;
#BGCHANGES:0=fnaf.avi=1=0=0=1=====,999=-=1=0=0=0;
#BGCHANGES2: 14.167=black.png=1=0=0=1=====,
15=boo.png=1=0=0=1=====,
15.063=boo3.png=1=0=0=1=====,
15.125=boo4.png=1=0=0=1=====,
15.188=static (1).jpg=1=0=0=1=====,
15.250=black.png=1=0=0=1=====,
16=white.png=1=0=0=1=====,
16.05=blank.png=1=0=0=1=====,
47=IT'S ME.png=1=0=0=1=====,
47.063=boo3.png=1=0=0=1=====,
47.125=static (2).jpg=1=0=0=1=====,
47.188=black.png=1=0=0=1=====,
48=white.png=2=0=0=1=====,
48.05=blank.png=1=0=0=1=====,
48.250=IT'S ME3.png=1=0=0=1=====,
48.667=IT'S ME3blur.png=1=0=0=1=====,
48.750=IT'S ME3blur2.png=1=0=0=1=====,
48.833=IT'S ME3blur.png=1=0=0=1=====,
48.917=IT'S ME3.png=1=0=0=1=====,
49.917=IT'S ME3bigblur.png=1=0=0=1=====,
50=IT'S ME3bigblur2.png=1=0=0=1=====,
50.083=IT'S ME3bigblur.png=1=0=0=1=====,
50.167=IT'S ME3.png=1=0=0=1=====,
50.667=IT'S ME3blur.png=1=0=0=1=====,
50.750=IT'S ME3blur2.png=1=0=0=1=====,
50.833=IT'S ME3blur.png=1=0=0=1=====,
50.917=IT'S ME3.png=1=0=0=1=====,
51.917=IT'S ME3bigblur.png=1=0=0=1=====,
52=IT'S ME3bigblur2.png=1=0=0=1=====,
52.083=IT'S ME3bigblur.png=1=0=0=1=====,
52.167=IT'S ME3.png=1=0=0=1=====,
52.667=IT'S ME3blur.png=1=0=0=1=====,
52.750=IT'S ME3blur2.png=1=0=0=1=====,
52.833=IT'S ME3blur.png=1=0=0=1=====,
52.917=IT'S ME3.png=1=0=0=1=====,
53.883=IT'S ME3bigblur.png=1=0=0=1=====,
53.917=IT'S ME3bigblur2.png=1=0=0=1=====,
54=blank.png=1=0=0=1=====,
56=IT'S ME2.png=1=0=0=1=====,
56.667=IT'S ME2blur.png=1=0=0=1=====,
56.750=IT'S ME2blur2.png=1=0=0=1=====,
56.833=IT'S ME2blur.png=1=0=0=1=====,
56.917=IT'S ME2.png=1=0=0=1=====,
57.917=IT'S ME2bigblur.png=1=0=0=1=====,
58=IT'S ME2bigblur2.png=1=0=0=1=====,
58.083=IT'S ME2bigblur.png=1=0=0=1=====,
58.167=IT'S ME2.png=1=0=0=1=====,
58.667=IT'S ME2blur.png=1=0=0=1=====,
58.750=IT'S ME2blur2.png=1=0=0=1=====,
58.833=IT'S ME2blur.png=1=0=0=1=====,
58.917=IT'S ME2.png=1=0=0=1=====,
59.917=IT'S ME2bigblur.png=1=0=0=1=====,
60=IT'S ME2bigblur2.png=1=0=0=1=====,
60.083=IT'S ME2bigblur.png=1=0=0=1=====,
60.167=IT'S ME2.png=1=0=0=1=====,
60.667=IT'S ME2blur.png=1=0=0=1=====,
60.750=IT'S ME2blur2.png=1=0=0=1=====,
60.833=IT'S ME2blur.png=1=0=0=1=====,
60.917=IT'S ME2.png=1=0=0=1=====,
61.883=IT'S ME2bigblur.png=1=0=0=1=====,
61.917=IT'S ME2bigblur2.png=1=0=0=1=====,
62=blank.png=1=0=0=1=====,
64=white.png=2=0=0=1=====,
64.05=blank.png=1=0=0=1=====,
64.250=IT'S ME1.png=1=0=0=1=====,
64.667=IT'S ME1blur.png=1=0=0=1=====,
64.750=IT'S ME1blur2.png=1=0=0=1=====,
64.833=IT'S ME1blur.png=1=0=0=1=====,
64.917=IT'S ME1.png=1=0=0=1=====,
65.917=IT'S ME1bigblur.png=1=0=0=1=====,
66=IT'S ME1bigblur2.png=1=0=0=1=====,
66.083=IT'S ME1bigblur.png=1=0=0=1=====,
66.167=IT'S ME1.png=1=0=0=1=====,
66.667=IT'S ME1blur.png=1=0=0=1=====,
66.750=IT'S ME1blur2.png=1=0=0=1=====,
66.833=IT'S ME1blur.png=1=0=0=1=====,
66.917=IT'S ME1.png=1=0=0=1=====,
67.917=IT'S ME1bigblur.png=1=0=0=1=====,
68=IT'S ME1bigblur2.png=1=0=0=1=====,
68.083=IT'S ME1bigblur.png=1=0=0=1=====,
68.167=IT'S ME1.png=1=0=0=1=====,
68.667=IT'S ME1blur.png=1=0=0=1=====,
68.750=IT'S ME1blur2.png=1=0=0=1=====,
68.833=IT'S ME1blur.png=1=0=0=1=====,
68.917=IT'S ME1.png=1=0=0=1=====,
69.883=IT'S ME1bigblur.png=1=0=0=1=====,
69.917=IT'S ME1bigblur2.png=1=0=0=1=====,
70=blank.png=1=0=0=1=====,
72=IT'S ME2.png=1=0=0=1=====,
72.667=IT'S ME2blur.png=1=0=0=1=====,
72.750=IT'S ME2blur2.png=1=0=0=1=====,
72.833=IT'S ME2blur.png=1=0=0=1=====,
72.917=IT'S ME2.png=1=0=0=1=====,
73.917=IT'S ME2bigblur.png=1=0=0=1=====,
74=IT'S ME2bigblur2.png=1=0=0=1=====,
74.083=IT'S ME2bigblur.png=1=0=0=1=====,
74.167=IT'S ME2.png=1=0=0=1=====,
74.667=IT'S ME2blur.png=1=0=0=1=====,
74.750=IT'S ME2blur2.png=1=0=0=1=====,
74.833=IT'S ME2blur.png=1=0=0=1=====,
74.917=IT'S ME2.png=1=0=0=1=====,
75.917=IT'S ME2bigblur.png=1=0=0=1=====,
76=IT'S ME2bigblur2.png=1=0=0=1=====,
76.083=IT'S ME2bigblur.png=1=0=0=1=====,
76.167=IT'S ME2.png=1=0=0=1=====,
76.667=IT'S ME2blur.png=1=0=0=1=====,
76.750=IT'S ME2blur2.png=1=0=0=1=====,
76.833=IT'S ME2blur.png=1=0=0=1=====,
76.917=IT'S ME2.png=1=0=0=1=====,
77.883=IT'S ME2bigblur.png=1=0=0=1=====,
77.917=IT'S ME2bigblur2.png=1=0=0=1=====,
78=blank.png=1=0=0=1=====,
78=boo4.png=1=0=0=1=====,
78.063=IT'S ME.png=1=0=0=1=====,
78.125=static (2).jpg=1=0=0=1=====,
78.18=blank.png=1=0=0=1=====,
80=white.png=1=0=0=1=====,
80.05=blank.png=1=0=0=1=====,
96=white.png=1=0=0=1=====,
96.05=blank.png=1=0=0=1=====,
110=IT'S ME1.png=1=0=0=1=====,
110.063=boo.png=1=0=0=1=====,
110.125=static (3).jpg=1=0=0=1=====,
110.188=black.png=1=0=0=1=====,
112=white.png=1=0=0=1=====,
112.05=blank.png=1=0=0=1=====,
128=white.png=1=0=0=1=====,
128.05=blank.png=1=0=0=1=====,
142.5=jumpscare.avi=1=0=0=1=====,
144=white.png=2=0=0=1=====,
144.05=blank.png=1=0=0=1=====,
175=boo4.png=1=0=0=1=====,
175.063=IT'S ME.png=1=0=0=1=====,
175.125=static (1).jpg=1=0=0=1=====,
175.188=black.png=1=0=0=1=====,
176=white.png=2=0=0=1=====,
176.05=blank.png=1=0=0=1=====,
176.250=IT'S ME1.png=1=0=0=1=====,
176.667=IT'S ME1blur.png=1=0=0=1=====,
176.750=IT'S ME1blur2.png=1=0=0=1=====,
176.833=IT'S ME1blur.png=1=0=0=1=====,
176.917=IT'S ME1.png=1=0=0=1=====,
177.917=IT'S ME1bigblur.png=1=0=0=1=====,
178=IT'S ME1bigblur2.png=1=0=0=1=====,
178.083=IT'S ME1bigblur.png=1=0=0=1=====,
178.167=IT'S ME1.png=1=0=0=1=====,
178.667=IT'S ME1blur.png=1=0=0=1=====,
178.750=IT'S ME1blur2.png=1=0=0=1=====,
178.833=IT'S ME1blur.png=1=0=0=1=====,
178.917=IT'S ME1.png=1=0=0=1=====,
179.917=IT'S ME1bigblur.png=1=0=0=1=====,
180=IT'S ME1bigblur2.png=1=0=0=1=====,
180.083=IT'S ME1bigblur.png=1=0=0=1=====,
180.167=IT'S ME1.png=1=0=0=1=====,
180.667=IT'S ME1blur.png=1=0=0=1=====,
180.750=IT'S ME1blur2.png=1=0=0=1=====,
180.833=IT'S ME1blur.png=1=0=0=1=====,
180.917=IT'S ME1.png=1=0=0=1=====,
181.883=IT'S ME1bigblur.png=1=0=0=1=====,
181.917=IT'S ME1bigblur2.png=1=0=0=1=====,
182=blank.png=1=0=0=1=====,
184=IT'S ME3.png=1=0=0=1=====,
184.667=IT'S ME3blur.png=1=0=0=1=====,
184.750=IT'S ME3blur2.png=1=0=0=1=====,
184.833=IT'S ME3blur.png=1=0=0=1=====,
184.917=IT'S ME3.png=1=0=0=1=====,
185.917=IT'S ME3bigblur.png=1=0=0=1=====,
186=IT'S ME3bigblur2.png=1=0=0=1=====,
186.083=IT'S ME3bigblur.png=1=0=0=1=====,
186.167=IT'S ME3.png=1=0=0=1=====,
186.667=IT'S ME3blur.png=1=0=0=1=====,
186.750=IT'S ME3blur2.png=1=0=0=1=====,
186.833=IT'S ME3blur.png=1=0=0=1=====,
186.917=IT'S ME3.png=1=0=0=1=====,
187.917=IT'S ME3bigblur.png=1=0=0=1=====,
188=IT'S ME3bigblur2.png=1=0=0=1=====,
188.083=IT'S ME3bigblur.png=1=0=0=1=====,
188.167=IT'S ME3.png=1=0=0=1=====,
188.667=IT'S ME3blur.png=1=0=0=1=====,
188.750=IT'S ME3blur2.png=1=0=0=1=====,
188.833=IT'S ME3blur.png=1=0=0=1=====,
188.917=IT'S ME3.png=1=0=0=1=====,
189.883=IT'S ME3bigblur.png=1=0=0=1=====,
189.917=IT'S ME3bigblur2.png=1=0=0=1=====,
190=blank.png=1=0=0=1=====,
192=white.png=2=0=0=1=====,
192.05=blank.png=1=0=0=1=====,
192.250=IT'S ME1.png=1=0=0=1=====,
192.667=IT'S ME1blur.png=1=0=0=1=====,
192.750=IT'S ME1blur2.png=1=0=0=1=====,
192.833=IT'S ME1blur.png=1=0=0=1=====,
192.917=IT'S ME1.png=1=0=0=1=====,
193.917=IT'S ME1bigblur.png=1=0=0=1=====,
194=IT'S ME1bigblur2.png=1=0=0=1=====,
194.083=IT'S ME1bigblur.png=1=0=0=1=====,
194.167=IT'S ME1.png=1=0=0=1=====,
194.667=IT'S ME1blur.png=1=0=0=1=====,
194.750=IT'S ME1blur2.png=1=0=0=1=====,
194.833=IT'S ME1blur.png=1=0=0=1=====,
194.917=IT'S ME1.png=1=0=0=1=====,
195.917=IT'S ME1bigblur.png=1=0=0=1=====,
196=IT'S ME1bigblur2.png=1=0=0=1=====,
196.083=IT'S ME1bigblur.png=1=0=0=1=====,
196.167=IT'S ME1.png=1=0=0=1=====,
196.667=IT'S ME1blur.png=1=0=0=1=====,
196.750=IT'S ME1blur2.png=1=0=0=1=====,
196.833=IT'S ME1blur.png=1=0=0=1=====,
196.917=IT'S ME1.png=1=0=0=1=====,
197.883=IT'S ME1bigblur.png=1=0=0=1=====,
197.917=IT'S ME1bigblur2.png=1=0=0=1=====,
198=blank.png=1=0=0=1=====,
200=IT'S ME2.png=1=0=0=1=====,
200.667=IT'S ME2blur.png=1=0=0=1=====,
200.750=IT'S ME2blur2.png=1=0=0=1=====,
200.833=IT'S ME2blur.png=1=0=0=1=====,
200.917=IT'S ME2.png=1=0=0=1=====,
201.917=IT'S ME2bigblur.png=1=0=0=1=====,
202=IT'S ME2bigblur2.png=1=0=0=1=====,
202.083=IT'S ME2bigblur.png=1=0=0=1=====,
202.167=IT'S ME2.png=1=0=0=1=====,
202.667=IT'S ME2blur.png=1=0=0=1=====,
202.750=IT'S ME2blur2.png=1=0=0=1=====,
202.833=IT'S ME2blur.png=1=0=0=1=====,
202.917=IT'S ME2.png=1=0=0=1=====,
203.917=IT'S ME2bigblur.png=1=0=0=1=====,
204=IT'S ME2bigblur2.png=1=0=0=1=====,
204.083=IT'S ME2bigblur.png=1=0=0=1=====,
204.167=IT'S ME2.png=1=0=0=1=====,
204.667=IT'S ME2blur.png=1=0=0=1=====,
204.750=IT'S ME2blur2.png=1=0=0=1=====,
204.833=IT'S ME2blur.png=1=0=0=1=====,
204.917=IT'S ME2.png=1=0=0=1=====,
205.883=IT'S ME2bigblur.png=1=0=0=1=====,
205.917=IT'S ME2bigblur2.png=1=0=0=1=====,
206=blank.png=1=0=0=1=====,
206.005=boo3.png=1=0=0=1=====,
206.063=boo4.png=1=0=0=1=====,
206.125=IT'S ME.png=1=0=0=1=====,
206.18=blank.png=1=0=0=1=====,
208=white.png=1=0=0=1=====,
208.05=blank.png=1=0=0=1=====,
224=white.png=1=0=0=1=====,
224.05=blank.png=1=0=0=1=====,
238=boo.png=1=0=0=1=====,
238.063=IT'S ME.png=1=0=0=1=====,
238.125=static (3).jpg=1=0=0=1=====,
238.188=black.png=1=0=0=1=====,
240=white.png=1=0=0=1=====,
240.05=blank.png=1=0=0=1=====,
269=black.png=1=1=0=1===CrossFade==, //I wish these below were #FGCHANGES but I couldn't figure out how to do that... -1=black.png=1=0=0=1=====,
0=EYES.png=1=0=0=1=====,
0.250=black.png=1=0=0=1=====,
1=EYES.png=1=0=0=1=====,
1.250=black.png=1=0=0=1=====,
1.667=EYES.png=1=0=0=1=====,
1.833=black.png=1=0=0=1=====,
2=EYES.png=1=0=0=1=====,
2.250=black.png=1=0=0=1=====,
3=EYES.png=1=0=0=1=====,
3.250=black.png=1=0=0=1=====,
4=EYES.png=1=0=0=1=====,
4.250=black.png=1=0=0=1=====,
4.667=EYES.png=1=0=0=1=====,
4.833=black.png=1=0=0=1=====,
5=EYES.png=1=0=0=1=====,
5.250=black.png=1=0=0=1=====,
5.667=EYES.png=1=0=0=1=====,
5.833=black.png=1=0=0=1=====,
6=EYES.png=1=0=0=1=====,
6.250=black.png=1=0=0=1=====,
8=EYES.png=1=0=0=1=====,
8.250=black.png=1=0=0=1=====,
9=EYES.png=1=0=0=1=====,
9.250=black.png=1=0=0=1=====,
9.667=EYES.png=1=0=0=1=====,
9.833=black.png=1=0=0=1=====,
10=EYES.png=1=0=0=1=====,
10.250=black.png=1=0=0=1=====,
12=EYES.png=1=0=0=1=====,
12.250=black.png=1=0=0=1=====,
13=EYES.png=1=0=0=1=====,
13.250=black.png=1=0=0=1=====,
13.667=EYES.png=1=0=0=1=====,
13.833=black.png=1=0=0=1=====,
14=EYES.png=1=0=0=1=====,
14.16==blank.png=1=0=0=1=====,
271.5=jumpscare2.avi=1=0=0=1=====,
274.5=static (2).jpg=1=0=0=1=====,
274.583=static (1).jpg=1=0=0=1=====,
274.667=static (3).jpg=1=0=0=1=====,
274.750=static (2).jpg=1=0=0=1=====,
274.833=static (2).jpg=1=0=0=1=====,
274.917=boo3.png=1=0=0=1=====,
275=boo.png=1=0=0=1=====,
275.083=IT'S ME.png=1=0=0=1=====,
275.167=static (1).jpg=1=0=0=1=====,
275.250=static (2).jpg=1=0=0=1=====,
275.333=boo3.png=1=0=0=1=====,
275.583=boo4.png=1=0=0=1=====,
276=boo.png=1=0=0=1=====,
276.167=IT'S ME.png=1=0=0=1=====,
276.333=boo3.png=1=0=0=1=====,
276.5=boo.png=1=0=0=1=====,
276.583=boo4.png=1=0=0=1=====,
276.667=boo.png=1=0=0=1=====,
276.750=boo3.png=1=0=0=1=====,
276.833=boo.png=1=0=0=1=====,
277.5=boo1.png=1=0=0=1===FadeRight==,
278.750=boo2.png=1=0=0=1===FadeRight==;

//---------------dance-single - Bayu E. N.----------------
#NOTES:
     dance-single:
     Bayu E. N.:
     Beginner:
     2:
     0.120,0.129,0.067,0.012,0:
0000
0000
0000
0000
,
0000
0000
0000
0000
,
0000
0000
0000
0000
,
0000
0000
0000
0000
,
0001
0000
0000
0000
,
0010
0000
0000
0000
,
1000
0000
0000
0000
,
0100
0000
0010
0010
,
0010
0000
0000
0000
,
0001
0000
0000
0000
,
1000
0000
0000
0000
,
0001
0000
0001
0000
,
1001
0000
0001
0000
,
1000
0000
0010
0000
,
0100
0000
0001
0000
,
0010
0000
0001
0001
,
1001
0000
1000
0000
,
0010
0000
0100
0000
,
0001
0000
0010
0000
,
0001
0000
1000
0000
,
1001
0000
0001
0000
,
0010
0010
0010
0000
,
1000
0000
1000
0000
,
0100
0000
0100
0000
,
0110
0000
0010
0000
,
0001
0001
0001
0000
,
1000
0000
1000
0000
,
0010
0001
0001
0000
,
1001
0010
0000
0001
,
0001
0000
0000
1000
,
1000
0000
0000
0010
,
0010
0000
0000
0000
,
1001
0000
0000
0001
,
0001
0000
0000
1000
,
1000
0000
0000
0010
,
0010
0000
0001
0000
,
1001
0000
0000
0000
,
0010
0000
0000
0000
,
1000
0000
0000
0000
,
0001
0000
0010
0010
,
0010
0000
0000
1000
,
0000
0001
0000
0010
,
0000
1000
0000
0001
,
0000
0010
0001
0001
,
1001
0000
0100
0000
,
0010
0000
0001
0001
,
0001
0000
1000
0000
,
1000
0000
0010
0010
,
0110
0000
0100
0000
,
0100
0000
0001
0001
,
1000
0000
1000
0000
,
0010
0000
0100
0000
,
0110
0010
0000
0010
,
0000
0001
0000
0001
,
1000
1000
0000
1000
,
0000
0100
0000
0100
,
0000
0010
0000
0010
,
0000
0001
0000
0001
,
0010
0001
0000
1000
,
0000
1000
1000
0000
,
0001
0000
0000
0000
,
1000
0000
0000
0000
,
0010
0000
0000
0000
,
0100
0000
0000
0000
,
0001
0000
0000
0000
,
1000
0000
0000
0000
,
0010
0000
0000
0000
,
0100
0000
0000
0000
,
2002
0000
0000
0000
,
0000
0000
0000
0000
,
0000
3003
0000
0000
;

//---------------dance-single - Bayu E. N.----------------
#NOTES:
     dance-single:
     Bayu E. N.:
     Easy:
     5:
     0.298,0.279,0.134,0.165,0:
0000
0000
0000
0000
,
0000
0000
0000
0000
,
0000
0000
0000
0000
,
0000
0000
0000
0001
,
0110
0010
0001
0001
,
1000
0100
0001
0100
,
0010
0010
1000
1000
,
0001
0000
0001
0000
0010
0010
0010
0001
,
0010
1000
0100
0100
,
1000
0010
0100
0001
,
0010
0010
0001
0001
,
1000
0000
1000
0000
0001
1000
0001
0000
,
1001
0000
0010
0001
0010
0000
1000
0100
,
1000
0000
0001
1000
0001
0000
0001
0000
,
0010
0000
0100
0010
0100
0000
0001
0001
,
0001
0000
1000
1000
1000
0010
1000
0000
,
1001
0000
0010
0010
0010
0000
0100
0100
,
0100
0000
0001
0001
0001
0000
0001
0000
,
0100
0000
1000
0010
1000
0000
0001
0001
,
0001
0000
0100
0010
0010
0000
0000
0000
,
1001
0010
0001
0010
,
1000
0000
1000
0000
0100
0000
0001
0001
,
0001
0010
0100
1000
,
0100
0000
0010
0000
0100
0000
0001
1000
,
0001
1000
0010
1000
,
0010
0000
0010
0000
0100
0000
0100
0001
,
0010
0010
0001
0001
,
1000
1000
0001
0000
,
1001
0010
0001
0010
,
1000
1000
0001
0100
,
0010
0010
0100
0100
,
0010
0010
2000
0100
,
0100
0000
3000
0000
0000
0000
0000
0000
0000
0000
0000
0000
0000
0000
0000
0000
0000
0000
0000
0000
0000
0000
0000
0000
0000
0000
0000
0000
0000
0000
0000
0000
0000
0000
0000
0000
0000
0000
0000
0000
0000
0000
0000
0000
0000
0000
0000
0000
1000
0000
0000
0000
0000
0000
0000
0000
0000
0000
0000
0000
0000
0000
0000
0000
0000
0000
0000
0000
0000
0000
0000
0000
0000
0000
0000
0000
0000
0000
0000
0000
0000
0000
0000
0000
0000
0000
0000
0000
0000
0000
0000
0000
0000
0000
0000
0000
0010
0000
0000
0000
0000
0000
0000
0000
0000
0000
0000
0000
0000
0000
0000
0000
0000
0000
0000
0000
0000
0000
0000
0000
0000
0000
0000
0000
0000
0000
0000
0000
0000
0000
0000
0000
0000
0000
0000
0000
0000
0000
0000
0000
0000
0000
0000
0000
0010
0000
0000
0000
0000
0000
0000
0000
0000
0000
0000
0000
0000
0000
0000
0000
0000
0000
0000
0000
0000
0000
0000
0000
0000
0000
0000
0000
0000
0000
0000
0000
0000
0000
0000
0000
0000
0000
0000
0000
0000
0000
0000
0000
0000
0000
0000
0000
,
0100
0100
0001
0010
,
0001
0001
0100
0010
,
1000
0000
0010
0000
0200
0000
0020
0330
,
1000
0000
0001
0000
0010
1000
0010
0000
,
1000
0000
1000
0000
0001
0100
0001
0000
,
1000
0000
1000
0000
0010
0001
0010
0000
,
0001
0000
0100
0010
1000
0010
0100
0000
,
0001
0000
0001
0000
0010
0001
0010
0000
,
0001
0000
1000
0000
0100
1000
0100
0000
,
0010
0000
0010
0000
0001
0010
0001
0000
,
1000
0000
1000
0000
0100
1000
0100
0000
,
0110
0000
0001
0010
0001
0000
0001
0100
,
0001
0000
0010
0100
0010
0000
0110
0000
,
1001
0000
0010
1000
0010
0000
0100
0001
,
0100
0000
0001
0010
0100
1000
1000
0000
,
0101
0000
0010
0001
0010
0000
1000
0100
,
1000
0000
0001
0010
0001
0000
1100
0000
,
1100
0000
1000
0001
1000
0000
0100
0001
,
0010
0000
1000
1000
0001
0000
0000
0000
,
1001
0000
1010
0000
0001
0010
0100
0000
,
1000
0100
0010
0000
0001
0000
0010
0000
,
1010
0000
0101
0000
0010
0001
0010
0000
,
1000
0000
1000
0000
0100
0010
0100
0000
,
0101
0000
1100
0000
1000
0010
1000
0000
,
0001
0100
0001
0000
0010
0000
0100
0000
,
0110
0000
0101
0000
0010
1000
0010
0000
,
0100
0001
0100
0000
1001
0000
0000
0000
,
1002
0000
2003
3020
,
0230
0000
0302
0023
,
0032
0000
2003
3200
,
0320
0000
0032
0000
,
2003
0000
3200
0320
,
0230
0000
2300
3002
,
0023
0000
0000
0000
0000
0000
0000
0000
0000
0000
0000
0000
0000
0000
0000
0000
0000
0000
0000
0000
0000
0000
0000
0000
0000
0000
0000
0000
0000
0000
0000
0000
0000
0000
0000
0000
0000
0000
0000
0000
0000
0000
0000
0000
0000
0000
0000
0000
0000
0000
0000
0000
0000
0000
0000
0000
0000
0000
0000
0000
0000
0000
0000
0000
0000
0000
0000
0000
0000
0000
0000
0000
0000
0000
0000
0000
0000
0000
0000
0000
0000
0000
0000
0000
0000
0000
0000
0000
0000
0000
0000
0000
0000
0000
0000
0000
0230
0000
0000
0000
0000
0000
0000
0000
0000
0000
0000
0000
0000
0000
0000
0000
0000
0000
0000
0000
0000
0000
0000
0000
0000
0000
0000
0000
0000
0000
0000
0000
0000
0000
0000
0000
0000
0000
0000
0000
0000
0000
0000
0000
0000
0000
0000
0000
0002
0300
0000
0000
0000
0000
0000
0000
0000
0000
0000
0000
0000
0000
0000
0000
0000
0000
0000
0000
0000
0000
0000
0000
0000
0000
0000
0000
0000
0000
0000
0000
0000
0000
0000
0000
0000
0000
0000
0000
0000
0000
0000
0000
0000
0000
0000
0000
,
0203
0000
0000
0000
2300
0000
0000
3000
,
2002
0000
0000
0000
,
0000
0000
0000
0000
,
0000
0000
0000
0000
0000
0000
0000
0000
0000
0000
0000
0000
0000
0000
0000
0000
0000
0000
0000
0000
0000
0000
0000
0000
0000
0000
0000
0000
0000
0000
0000
0000
0000
0000
0000
0000
0000
0000
0000
0000
0000
0000
0000
0000
0000
0000
0000
0000
0000
0000
0000
0000
3000
0000
0003
0000
0000
0000
0000
0000
0000
0000
0000
0000
0000
0000
0000
0000
0000
0000
0000
0000
0000
0000
0000
0000
0000
0000
0000
0000
0000
0000
0000
0000
0000
0000
0000
0000
0000
0000
0000
0000
0000
0000
0000
0000
0000
0000
0000
0000
0000
0000
0000
0000
0000
0000
0000
0000
0000
0000
0000
0000
0000
0000
0000
0000
0000
0000
0000
0000
0000
0000
0000
0000
0000
0000
0000
0000
0000
0000
0000
0000
0000
0000
0000
0000
0000
0000
0000
0000
0000
0000
0000
0000
0000
0000
0000
0000
0000
0000
0000
0000
0000
0000
0000
0000
0000
0000
0000
0000
0000
0000
0000
0000
0000
0000
0000
0000
0000
0000
0000
0000
0000
0000
0000
0000
0000
0000
0000
0000
0000
0000
0000
0000
0000
0000
0000
0000
0000
0000
0000
0000
;

//---------------dance-single - Bayu E. N.----------------
#NOTES:
     dance-single:
     Bayu E. N.:
     Medium:
     6:
     0.347,0.322,0.281,0.153,0:
0000
0000
0000
0000
,
0000
0000
0000
0000
,
0000
0000
0000
0000
,
0000
0000
0000
1000
,
0001
0010
0001
0000
1000
0100
1000
0000
,
0001
0010
0100
1000
0100
0010
0001
0000
,
1000
1000
1000
0000
0001
0001
0001
0000
,
0010
0000
0001
0000
0010
0010
0010
0000
,
0001
0000
0010
0000
1000
1000
1000
0000
,
0001
0001
0001
0000
0010
0000
1001
0000
,
0100
0000
0100
0000
0001
1000
0001
0000
,
0100
0001
0100
0001
0010
0000
1001
0000
,
1100
0000
0001
0001
0010
0000
1000
1000
,
0100
0000
0001
0001
0010
0000
1001
0000
,
0110
0000
0001
0010
0100
0000
1000
0100
,
0010
0000
0001
0001
1000
0001
1000
0000
,
1001
0000
0001
0010
0100
0000
1000
0100
,
0010
0000
0001
0100
0010
1000
0010
0000
,
1001
0000
0100
1000
0100
0000
0001
0001
,
0001
0000
0100
0100
0110
0000
0000
0000
,
1001
0000
0101
0000
0001
0010
0100
0000
,
1000
1000
1000
0000
0001
0001
0010
0100
,
1100
0000
1001
0000
0001
0010
0001
0000
,
0100
0100
0001
0010
0001
1000
1000
0001
,
1001
0000
0101
0000
0010
0010
1000
0000
,
0100
0100
0001
0000
0110
0000
0001
0010
,
0011
0000
1100
0000
1000
0100
1000
0000
,
0001
0010
0001
0000
1001
0000
0000
0000
,
0011
0000
0001
0000
0010
0001
0010
0000
,
1000
0000
0100
0000
1000
0100
1000
0000
,
0010
0000
0100
0000
0001
0010
0001
0000
,
1000
0100
1000
0000
0010
0000
1001
0000
,
0110
0000
0001
0000
1000
0100
1000
0000
,
0010
0000
0100
0000
0001
0010
0001
0000
,
1000
0000
0100
0000
1000
0010
1000
0000
,
0001
0000
0000
0000
0000
0000
0000
0000
0000
0000
0000
0000
0000
0000
0000
0000
0100
0000
0000
0000
0000
0000
0000
0000
0000
0000
0000
0000
0000
0000
0000
0000
0001
0000
0000
0000
0000
0000
0000
0000
0000
0000
0000
0000
0000
0000
0000
0000
0002
0000
0000
0000
0000
0000
0000
0000
0000
0000
0000
0000
0000
0000
0000
0003
,
0010
0001
0010
0000
1000
0100
1000
0000
,
0010
0010
0100
0001
0010
0000
1001
0000
,
1000
1000
1000
0000
0010
0000
0101
0000
,
0010
1000
0100
1000
,
0001
0010
0001
0000
1000
1000
0100
0000
,
0010
0100
0001
0000
0010
0000
0010
0000
,
0001
0001
0001
0000
1000
1000
1000
0000
,
0010
0000
0100
0000
0001
0010
0100
0000
,
1001
0000
0010
0001
0010
0000
0001
0010
,
0001
0000
1000
0100
1000
0010
0100
0010
,
1000
0000
0001
0001
0001
0000
0100
0100
,
0100
0000
0010
0010
0010
1000
0010
0000
,
1001
0000
0100
0010
1000
0000
0100
0010
,
1000
0000
0001
0100
0010
0000
0011
0000
,
0101
0000
0010
0010
0010
0000
0001
1000
,
0001
0000
0100
0010
0100
0000
0000
0000
,
1001
0101
1010
1001
,
0100
0010
1000
0000
0100
0001
0100
0000
,
0011
0110
1100
0110
,
0001
0010
0001
0000
1000
1000
0010
0100
,
0101
0011
1010
1100
,
0001
0010
0001
0000
1000
0100
1000
0010
,
0110
1010
0110
0101
,
0001
0010
0100
0000
1001
0000
0000
0000
,
0021
0000
0032
0023
,
0032
0000
2003
3200
,
2300
0000
3002
0023
,
0230
0000
2300
0000
,
3020
0000
0032
0023
,
2030
0000
3002
0203
,
0320
0000
2030
3200
,
0320
0000
0000
0000
0032
0000
0000
0003
,
0022
0000
0000
0000
,
0000
0000
0000
0000
,
0000
0000
0000
0000
0000
0000
0000
0000
0000
0000
0000
0000
0000
0000
0000
0000
0000
0000
0000
0000
0000
0000
0000
0000
0000
0000
0000
0000
0000
0000
0000
0000
0000
0000
0000
0000
0000
0000
0000
0000
0000
0000
0030
0000
0003
0000
0000
0000
0000
0000
0000
0000
0000
0000
0000
0000
0000
0000
0000
0000
0000
0000
0000
0000
0000
0000
0000
0000
0000
0000
0000
0000
0000
0000
0000
0000
0000
0000
0000
0000
0000
0000
0000
0000
0000
0000
0000
0000
0000
0000
0000
0000
0000
0000
0000
0000
0000
0000
0000
0000
0000
0000
0000
0000
0000
0000
0000
0000
0000
0000
0000
0000
0000
0000
0000
0000
0000
0000
0000
0000
0000
0000
0000
0000
0000
0000
0000
0000
0000
0000
0000
0000
0000
0000
0000
0000
0000
0000
0000
0000
0000
0000
0000
0000
0000
0000
0000
0000
0000
0000
0000
0000
0000
0000
0000
0000
0000
0000
0000
0000
0000
0000
0000
0000
0000
0000
0000
0000
0000
0000
0000
0000
0000
0000
0000
0000
0000
0000
0000
0000
0000
0000
0000
0000
0000
0000
0000
0000
0000
0000
0000
0000
;

//---------------dance-single - Bayu E. N.----------------
#NOTES:
     dance-single:
     Bayu E. N.:
     Hard:
     8:
     0.414,0.406,0.263,0.159,0.064:
0000
0000
0000
0000
,
0000
0000
0000
0000
,
0000
0000
0000
0000
,
0000
0000
0000
0010
,
0001
0010
0001
1000
0010
1000
0001
0000
,
0010
0100
0001
0100
0010
0010
1000
0000
,
0001
0100
0001
0100
0010
1000
0010
0000
,
1000
1000
0100
1000
0010
0010
0100
0001
,
0100
0010
0010
1000
0100
1000
0010
0000
,
0100
0001
0100
0000
0001
0001
0010
0000
,
0001
0100
1000
0100
0001
0010
0001
0000
,
1000
1000
0100
0010
0001
0001
1000
0000
,
1001
0000
1000
0000
0001
0000
0010
0001
0010
0000
0100
0000
1000
0000
0100
1000
,
0100
0000
1000
0000
0001
0000
0010
0000
0100
0000
0000
0100
0000
0000
0100
0000
,
1001
0001
0001
0001
0110
1000
1000
1000
,
0110
0001
0001
0001
0010
0100
1000
0000
,
1001
0000
0010
0000
1000
0000
0001
0100
0001
0000
0010
0000
0100
0000
1000
0001
,
1000
0010
0100
0001
0010
0001
0011
0000
,
1001
1000
0001
0100
0010
0010
0100
0010
,
0100
0001
0001
0010
0001
1000
1000
0001
,
1001
0110
0001
0101
,
1000
1000
0100
0000
0001
0001
0010
0100
,
0110
1010
0001
0101
,
0001
1000
0010
0000
1000
0100
0010
0001
,
1001
0000
0110
0000
0001
0100
1000
0000
,
1000
0100
0001
0000
0001
0010
0100
0010
,
0011
0000
1001
0000
0100
1000
0100
0000
,
0010
0010
0100
0010
0110
0000
0000
0000
,
0101
0000
0000
0001
1000
0000
0000
0000
0001
0000
0010
0000
0100
0000
0000
0000
,
1001
0000
0000
0100
0010
0000
0000
0000
0001
1000
0000
1000
0010
0000
0100
0000
,
0001
0000
0000
0001
1000
0000
0000
0000
1000
0000
0100
0000
0001
0000
0000
0000
,
1000
0100
0001
0000
1001
0000
0110
0000
,
0101
0000
0000
1000
0001
0000
0000
0000
0100
0000
0010
0000
1000
0000
0000
0000
,
0001
0000
0000
0010
0100
0000
0000
0000
0001
1000
0000
1000
0010
0000
0100
0000
,
0001
0000
0000
1000
0001
0000
1000
0000
0100
0000
0000
0000
1001
0000
0000
0000
,
0010
0000
0000
0000
0000
0000
0000
0000
0000
0000
0000
0000
0000
0000
0000
0000
0000
0000
0000
0000
0000
0000
0000
0000
0000
0000
0000
0000
0000
0000
0000
0000
0000
0000
0000
0000
0000
0000
0000
0000
0000
0000
0000
0000
0000
0000
0000
0000
0001
0000
0000
0000
0000
0000
0000
0000
0000
0000
0000
0000
0000
0000
0000
0000
0000
0000
0000
0000
0000
0000
0000
0000
0010
0000
0000
0000
0000
0000
0000
0000
0000
0000
0000
0000
0000
0000
0000
0000
0000
0000
0000
0000
0000
0000
0000
0000
0100
0000
0000
0000
0000
0000
0000
0000
0000
0000
0000
0000
0000
0000
0000
0000
0000
0000
0000
0000
0000
0000
0000
0000
0000
0000
0000
0000
0000
0000
0000
0000
0000
0000
0000
0000
0000
0000
0000
0000
0000
0000
0000
0000
0000
0000
0000
0000
2002
0000
0000
0000
0000
0000
0000
0000
0000
0000
0000
0000
0000
0000
0000
0000
0000
0000
0000
0000
0000
0000
0000
0000
0000
0003
0000
3000
0000
0000
0000
0000
0000
0000
0000
0000
0000
0000
0000
0000
0000
0000
0000
0000
0000
0000
0000
0000
,
1001
0001
0010
0100
1000
0100
0010
0000
,
1000
0100
0010
0100
0001
0100
0010
0000
,
1000
0100
0001
0100
1000
0010
0001
0000
,
0001
0010
1000
0001
0010
0001
0001
1000
,
0001
0001
0010
0000
1000
1000
0100
0000
,
0001
0010
1000
0000
1000
0010
0001
0000
,
0100
0100
0010
0100
0001
0010
1000
0000
,
1000
0010
0001
1000
0010
0001
0011
0000
,
1001
0000
1000
0000
0001
0000
1000
0100
1000
0000
0001
0000
0100
0000
0001
0010
,
0001
0000
1000
0000
0100
0000
1000
0000
0001
0000
0000
0001
0000
0000
0001
0000
,
1001
0001
0010
0001
0010
1000
0010
1000
,
0010
0100
0010
0100
0010
0001
0011
0000
,
1001
0000
0010
0000
0100
0000
0010
1000
0010
0000
1000
0000
0100
0000
1000
0010
,
1000
0000
0010
0000
0100
0000
0010
0000
0100
0000
0000
0100
0000
0000
0100
0000
,
1010
1000
0100
1000
0010
0100
0010
0100
,
0001
0010
0001
0010
0011
0001
1000
0001
,
1001
0000
0110
0000
0001
0010
0001
0000
,
1000
0001
1000
0001
0010
0010
0010
0010
,
0110
0000
0101
0000
0010
0001
0010
0000
,
1000
0100
0010
0100
0010
0100
0001
0000
,
0011
0000
0101
0000
0001
0010
0001
0000
,
0001
0010
1000
0000
1000
0010
0001
0100
,
0010
0000
0110
0000
1000
0100
0010
0000
,
0100
0010
0001
0010
0011
0000
0000
0000
,
1020
0000
2030
3200
,
0320
0000
0032
0203
,
0320
0000
2030
3020
,
0032
0000
0023
0000
,
2030
0000
3020
0230
,
0302
0000
0203
0302
,
0203
0000
2300
3002
,
0023
0000
0000
0000
0032
0000
0000
0003
,
2020
0000
0000
0000
,
0000
0000
0000
0000
,
3030
0000
0000
0000
;

//---------------dance-single - Bayu E. N.----------------
#NOTES:
     dance-single:
     Bayu E. N.:
     Challenge:
     10:
     0.651,0.705,0.366,0.226,0.687:
0000
0000
0000
0000
,
0000
0000
0000
0000
,
0000
0000
0000
0000
,
0000
0000
0000
0010
,
1001
0001
0010
0100
1000
0100
0110
0001
,
0100
0010
0100
0001
0010
0100
1100
0000
,
1000
0001
0100
0001
0010
0001
0011
0100
,
1000
0000
1000
0000
0001
0000
0001
0000
0100
0001
0100
0000
0010
0000
0100
0010
,
1000
0000
0010
0000
0100
0000
0010
1000
0100
0000
1000
0001
0010
0000
0001
0100
,
1000
0000
0100
0000
0001
0000
0100
0000
1000
0000
0001
0000
0010
0000
1000
0001
,
1000
1000
0100
0010
0100
0001
0100
0010
,
0100
1000
0100
0010
0100
1000
1100
0000
,
1001
0000
0001
0100
0010
0100
0001
0010
0001
0000
1000
0010
0100
0010
1000
0100
,
1000
0000
0001
0100
0010
0100
1000
0100
0010
0100
0001
0010
0000
0010
0001
1000
,
1100
0000
1000
0010
0100
0001
0010
0001
0000
1000
0100
1000
0100
1000
0100
1000
,
0000
0010
1000
0010
0100
0010
0001
0010
0100
0000
0010
0100
0020
0200
0000
0330
,
0110
0100
0010
1000
0010
0100
0010
1000
0010
0100
0001
0010
0001
0100
0001
0010
,
0001
1000
0100
1000
0010
0100
0010
1000
0100
1000
0001
0200
0000
0301
0100
0001
,
0101
0100
0001
1000
0010
1000
0001
0100
0010
1000
0001
0010
0001
1000
0010
0100
,
0001
1000
0100
1000
0010
0100
0010
0100
0110
0000
0000
0000
MMMM
0000
0000
0000
,
1001
0000
0001
1000
0001
0000
1000
0010
1000
0000
0001
0100
0010
0000
1000
0010
,
0100
0000
0001
0010
0100
1000
0000
2200
0000
3300
1010
0000
0101
0000
0011
0000
,
1010
0000
1000
0100
0001
0000
0001
0100
1000
0000
0001
0100
1000
0000
1000
0100
,
0001
0100
0010
0100
0001
0010
0001
0010
0000
0011
0000
0101
0000
1001
0000
0000
,
1100
0000
1000
0100
0010
0000
0100
0010
0001
0000
1000
0001
0100
0000
0001
0010
,
0001
0100
0010
0100
0001
0010
0000
0011
0000
0110
0000
1100
0000
1010
0000
0000
,
0001
0000
0100
0001
0010
0000
0001
0100
1000
0000
1000
0100
0001
0000
0001
0100
,
0010
0100
0001
0010
0100
1000
0100
1000
1100
0000
0000
0000
MMMM
0000
0000
0000
,
1001
0000
0001
0100
0010
0000
0100
0000
0110
0000
0010
1000
0001
0000
0100
0000
,
0101
0000
0000
0000
0000
0000
0001
0000
0000
1000
0000
0000
0100
0000
0000
0000
0000
0000
1000
0000
0000
0001
0000
0000
1000
0000
0000
0001
0000
0000
0000
0000
0000
0001
0000
0000
1000
0000
0000
0000
0000
0000
0001
0000
0100
0000
0001
0000
,
0100
0000
0001
0100
1000
0000
0100
0000
1100
0000
1000
0100
0001
0000
0100
0000
,
0101
0000
0000
0000
0001
0000
0010
0000
0100
0000
0000
0000
1000
0000
0100
1000
0100
0000
1000
0000
0001
0000
0100
0000
0001
0000
0000
0000
0010
0000
0000
0000
,
0011
0000
1000
0001
0100
0000
0001
1000
0100
0000
0010
0001
0100
0000
0010
1000
,
0100
0000
0000
0000
0000
0000
1000
0000
0000
0100
0000
0000
0010
0000
0000
0000
0000
0000
0100
0000
0000
0010
0000
0000
0001
0000
0000
0010
0000
0000
0000
0000
0000
0001
0000
0000
0010
0000
0000
0000
0000
0000
0001
0000
1000
0000
0001
0000
,
1000
0000
0001
0010
0001
0000
1000
0010
0100
0010
0100
0001
0010
0000
0001
0100
,
0010
0000
0000
0000
1000
0000
0010
0000
1000
0000
0000
0000
0001
0000
0100
0001
0100
0000
0010
0000
0010
0000
1000
0000
2020
0000
0000
0000
0000
0000
3030
0000
,
1010
1000
0001
0100
0001
0010
0011
0001
,
0100
0000
0010
0000
1010
0000
0100
0000
1000
0000
0001
0000
1001
0000
0001
1000
,
0001
0000
1000
0000
1100
0000
0100
1000
0001
0000
0100
0000
0101
0000
1000
0001
,
0100
0001
0100
0010
0002
0023
0230
2300
,
3100
0000
0001
1000
0001
0000
0010
0000
0100
0000
1000
0001
0100
0000
0100
0001
,
0010
0000
0001
0000
0011
0000
0010
0001
1000
0000
0100
0000
1100
0000
0000
0000
,
0001
0000
1000
0000
0001
0100
0001
0000
0010
0000
0001
0000
0101
0000
0100
0000
,
0010
1000
0100
1000
0010
0100
0110
0000
,
1100
0000
1000
0100
1000
0010
0100
0010
1000
0000
0001
0100
0010
0100
0001
0010
,
0100
0000
1000
0100
1000
0001
0100
0001
0010
0001
0100
0010
0000
0010
1000
0100
,
1100
0000
1000
0100
0010
0100
0010
0001
0000
0001
0010
0100
0010
0100
1000
0100
,
0000
1000
0100
0010
0001
0010
0100
1000
0010
0000
1000
0000
0020
2000
0000
3030
,
1010
1000
0010
1000
0010
0100
0001
0100
0001
0010
0100
0010
0100
1000
0100
1000
,
0100
0010
0001
0010
0001
0100
0010
1000
0100
1000
0001
0200
0000
0301
0010
0001
,
0011
0010
0001
0100
0010
0100
0001
0010
0001
1000
0100
1000
0010
0100
0001
0010
,
0001
0100
0010
0100
0001
0010
0001
1000
1001
0000
0000
0000
MMMM
0000
0000
0000
,
0110
0000
0100
0010
1000
0000
0010
0000
0100
0000
0001
0010
0001
0000
0100
0000
,
0010
0000
1000
0100
1000
0000
0010
0100
0001
0000
0010
0001
0100
0010
0100
0000
,
0101
0000
0001
1000
0100
0000
1000
0000
0010
0000
0100
0001
0010
0000
0001
0100
,
0010
0000
0010
1000
0010
0100
0010
0001
0000
0011
0000
1001
0000
1100
0000
0000
,
0101
0000
0001
0100
0010
0000
1000
0000
0010
0000
0100
0001
0010
0000
0001
0100
,
0010
0000
0010
1000
0100
1000
0000
1010
0000
0110
0000
0101
0000
0011
0000
0000
,
1001
0000
0100
1000
0100
0000
1000
0100
1000
0000
0010
0100
0010
1000
0100
1000
,
0001
0000
0001
1000
0100
1000
0010
0100
0110
0000
0000
0000
MMMM
0000
0000
0000
,
0002
0000
0000
0000
0020
0003
2000
0030
,
0002
0000
3000
0000
0200
0003
0020
0300
,
2000
0000
0030
0000
0002
3000
0200
0003
,
2000
0300
0000
0000
0020
0000
0000
3030
,
0020
0000
0000
0000
0200
0030
2000
0300
,
0002
3000
0000
0000
2000
0003
0200
3000
,
0020
0300
0000
0000
0002
0030
2000
0003
,
0200
3000
0000
0000
0002
0000
0300
0003
,
2111
0000
0000
0000
,
0000
0000
0000
0000
,
3000
0000
0000
0000
;
