#TITLE:Chandelier;
#SUBTITLE:~AoREdit~;
#ARTIST:Sia;
#GENRE:Perfection;
#BANNER:chandelier bn.png;
#BACKGROUND:chandelier bg.png;
#MUSIC:Chandelier.ogg;
#OFFSET:0.009;
#SAMPLESTART:27.5;
#SAMPLELENGTH:12;
#BPMS:0=226.2;

//---------------dance-single - ----------------
#NOTES:
     dance-single:
     :
     Medium:
     8:
     0.598,0.602,0.078,0.120,0.169:
0000
0000
0000
0000
,
0000
0000
0000
0000
,
1000
0010
1000
0100
,
0010
0000
0100
0000
1000
0001
1000
0000
,
0010
1000
0001
1000
,
0100
0000
0010
0000
0100
0000
1000
0001
,
0100
0010
0100
0010
,
0100
0000
0001
0000
0010
0000
0001
1000
,
0100
0000
0110
0000
,
1100
0000
1010
0000
,
1000
0100
1000
0010
,
1000
0000
0001
0000
1000
0010
1000
0000
,
0100
0010
0001
0010
,
0001
0000
1000
0000
0010
0000
1000
0100
,
0010
0001
1000
0001
,
1000
0000
0100
0000
0010
0000
0100
0010
,
0100
0000
0110
0000
,
0011
0000
1001
0000
,
1000
1000
1000
0001
,
0001
0001
2002
3003
,
0010
0010
0010
0100
,
0100
0100
0220
0330
,
1000
1000
1000
0010
,
0010
0010
2020
3030
,
1000
0000
0001
0000
,
0100
0001
1001
0001
,
1000
0010
1000
0000
0010
0000
0100
0000
,
0010
1000
0100
0010
,
0100
0010
0100
0000
0010
0000
0001
0000
,
1000
0001
1000
0010
,
1000
0001
1000
0000
0010
0000
0100
0000
,
0010
0100
0001
1000
,
0010
0100
0001
0000
1000
0000
0001
1000
,
0002
0000
0000
0003
,
0001
0010
0100
0000
0100
0000
0010
0000
,
0100
1000
0010
0100
,
0010
1000
0100
0000
0010
0000
0100
0000
,
0010
0100
1000
0001
,
0100
0010
1000
0000
0010
0000
0100
0000
,
0001
0100
0001
1000
,
0001
1000
0001
0010
0002
0000
0000
0000
,
0000
0000
0000
0003
,
0001
0100
0010
0000
1000
0000
0001
0000
,
1000
0001
0010
0001
,
1000
0010
0100
0000
0001
0000
1000
0000
,
0001
0010
0100
0010
,
0001
0100
0010
0000
0100
0000
0001
0000
,
0010
0001
1000
0010
,
1000
0010
0100
0000
0010
0000
1000
0010
,
0200
0000
0000
0300
,
0001
1000
0001
0000
0001
0000
0100
0000
,
0001
0100
0001
1000
,
0001
0010
0001
0000
1000
0000
0010
0000
,
0100
0010
1000
0001
,
0100
0001
0100
0000
0001
0000
0100
0000
,
0010
0100
0010
1000
,
0100
0010
0100
1000
0020
0000
0000
0000
,
0000
0000
0000
0030
,
0100
0000
0001
1000
0001
0000
0000
0000
,
0000
0000
1000
0000
0001
0000
0010
0000
0001
0000
0100
0000
,
0010
0000
1000
0010
1000
0000
0000
0000
,
0000
0000
0100
0000
0010
0000
0001
0000
0001
0000
0100
0000
,
0010
0000
1000
0100
0010
0000
0000
0000
,
0000
0000
0001
0000
1000
0000
0100
0000
1000
0000
0010
0000
,
0100
0000
0100
0001
0100
0000
0000
0000
,
0000
0000
0010
0000
0100
0000
0001
0000
1000
0000
0010
0000
,
0100
0000
0001
0010
0100
0000
0000
0000
,
0000
0000
1000
0000
1000
0000
0100
0000
0010
0000
0001
0000
,
1000
0000
1000
0001
0100
0000
0000
0000
,
0000
0000
0001
0000
0010
0000
0100
0000
1000
0000
0001
0000
,
0010
0000
0010
0100
0010
0000
0000
0000
,
0000
0000
0001
0000
1000
0000
0010
0000
0100
0000
0001
0000
,
0010
0000
0010
0001
1000
0000
0010
0000
,
0100
0000
0001
0010
0100
0000
1000
0000
,
0010
0100
0001
0000
0010
0000
0001
0000
,
0100
0000
0001
0000
0001
0100
0010
0000
,
1000
0001
0100
0000
0001
0000
0100
0000
,
0010
0000
0100
0000
0001
0000
0010
0001
,
0010
0100
0010
0001
,
0100
0000
0010
0000
0100
0000
0001
1000
,
0010
0000
0100
0000
0001
0000
0100
0010
,
1000
0000
0100
0000
1000
0010
0100
0000
,
0001
0100
0001
1000
,
0100
1000
2002
3003
,
0010
1000
0010
0100
,
0001
0100
2002
3003
,
1000
0001
1000
0001
,
1000
0001
2002
3003
,
1000
0000
0001
0000
,
1000
0001
0100
0001
,
1000
0010
1000
0000
0010
0000
0100
0000
,
0010
1000
0100
0010
,
0100
0010
0100
0000
0010
0000
0001
0000
,
1000
0001
1000
0010
,
1000
0001
1000
0000
0010
0000
0100
0000
,
0010
0100
0001
1000
,
0010
0100
0001
0000
1000
0000
0001
1000
,
0002
0000
0000
0003
,
0001
0010
0100
0000
0100
0000
0010
0000
,
0100
1000
0010
0100
,
0010
1000
0100
0000
0010
0000
0100
0000
,
0010
0100
1000
0001
,
0100
0010
1000
0000
0010
0000
0100
0000
,
0001
0100
0001
1000
,
0001
1000
0001
0010
0002
0000
0000
0000
,
0000
0000
0000
0003
,
0001
0100
0010
0000
1000
0000
0001
0000
,
1000
0001
0010
0001
,
1000
0010
0100
0000
0001
0000
1000
0000
,
0001
0010
0100
0010
,
0001
0100
0010
0000
0100
0000
0001
0000
,
0010
0001
1000
0010
,
1000
0010
0100
0000
0010
0000
1000
0010
,
0200
0000
0000
0300
,
0001
1000
0001
0000
0001
0000
0100
0000
,
0001
0100
0001
1000
,
0001
0010
0001
0000
1000
0000
0010
0000
,
0100
0010
1000
0001
,
0100
0001
0100
0000
0001
0000
0100
0000
,
0010
0100
0010
1000
,
0100
0010
0100
1000
0020
0000
0000
0000
,
0000
0000
0000
0030
,
0100
0000
0001
1000
0001
0000
0000
0000
,
0000
0000
1000
0000
0001
0000
0010
0000
0001
0000
0100
0000
,
0010
0000
1000
0010
1000
0000
0000
0000
,
0000
0000
0100
0000
0010
0000
0001
0000
0001
0000
0100
0000
,
0010
0000
1000
0100
0010
0000
0000
0000
,
0000
0000
0001
0000
1000
0000
0100
0000
1000
0000
0010
0000
,
0100
0000
0100
0001
0100
0000
0000
0000
,
0000
0000
0010
0000
0100
0000
0001
0000
1000
0000
0010
0000
,
0100
0000
0001
0010
0100
0000
0000
0000
,
0000
0000
1000
0000
1000
0000
0100
0000
0010
0000
0001
0000
,
1000
0000
1000
0001
0100
0000
0000
0000
,
0000
0000
0001
0000
0010
0000
0100
0000
1000
0000
0001
0000
,
0010
0000
0010
0100
0010
0000
0000
0000
,
0000
0000
0001
0000
1000
0000
0010
0000
0100
0000
0001
0000
,
0010
0000
0010
0001
1000
0000
0010
0000
,
0100
0000
0001
0010
0100
0000
1000
0000
,
1000
0001
0010
0000
0001
1000
0010
0000
,
1000
0001
1000
0000
0001
1000
0001
0000
,
1000
0010
0100
0000
0100
0010
1000
0000
,
0100
0010
0001
0000
0001
0100
0010
0000
,
1000
0100
1000
0000
0001
0100
0001
0000
,
0100
0010
1000
0000
0100
0010
0001
0000
,
0100
0001
0100
0000
0010
1000
0010
0000
,
0100
0010
0100
0000
0010
0100
0010
0000
,
1000
0001
0100
0000
0010
0100
0001
0000
,
0010
0100
1000
0000
0001
1000
0001
0000
,
0010
0001
1000
0000
0010
0100
0001
0000
,
1000
0010
1000
0000
0001
0100
0001
0000
,
0010
0001
0010
0000
0100
0010
0100
0000
,
1000
0100
1000
0000
0100
0010
0100
0000
,
1000
0100
1000
0000
0010
1000
0010
0000
,
1000
0010
0100
0000
0001
0010
0001
0010
;

//---------------dance-single - ----------------
#NOTES:
     dance-single:
     :
     Easy:
     5:
     0.335,0.370,0.054,0.060,0:
0000
0000
0000
0000
,
0000
0000
0000
0000
,
1000
0000
1000
0000
,
0010
0000
1000
0010
,
1000
0000
0001
0000
,
0100
0000
0100
0001
,
0100
0000
0100
0000
,
0100
0000
0010
1000
,
0100
0000
1001
0000
,
1001
0000
1001
0000
,
1000
0000
1000
0000
,
1000
0000
1000
0010
,
0100
0000
0001
0000
,
0001
0000
0010
0100
,
0010
0000
0001
0000
,
0001
0000
0010
0100
,
0010
0000
0110
0000
,
0110
0000
0110
0000
,
1000
0000
1000
0000
,
0001
0000
1001
0000
,
0010
0000
0010
0000
,
0100
0000
0110
0000
,
1000
0000
1000
0000
,
0010
0000
2020
3030
,
1000
0000
0001
0000
,
0100
0000
0001
0000
,
1000
0010
0100
0000
,
0010
0000
0100
0000
,
0100
0010
0100
0000
,
0001
0000
1000
0000
,
1000
0010
0100
0000
,
0010
0000
1000
0000
,
0010
1000
0001
1000
,
0002
0000
0003
0000
,
0001
0010
0100
0000
,
0100
0000
0010
0000
,
0010
0001
0010
0000
,
0010
0000
0001
0000
,
0100
0010
0100
0000
,
0001
0000
0001
0000
,
0001
0010
0002
0000
,
0000
0000
0003
0000
,
0001
0100
0001
0000
,
1000
0000
0010
0000
,
1000
0010
1000
0000
,
0001
0000
0100
0000
,
0001
0100
0001
0000
,
0010
0000
0001
0000
,
1000
0010
1000
0010
,
0200
0000
0300
0000
,
0001
1000
0001
0000
,
0001
0000
1000
0000
,
0001
0010
0001
0000
,
0100
0000
0001
0000
,
0100
0001
0100
0000
,
0010
0000
0010
0000
,
0100
0010
2000
0000
,
0000
0000
3000
0000
,
0100
1000
0001
0000
,
0001
0000
0100
0000
,
0001
0010
0001
0000
,
1000
0000
0001
0000
,
0100
0001
0100
0000
,
0001
0000
0001
0000
,
1000
0100
0010
0000
,
0010
0000
0100
0000
,
1000
0010
0100
0000
,
0100
0000
0010
0000
,
1000
0001
1000
0000
,
1000
0000
0001
0000
,
0100
0010
1000
0000
,
1000
0000
0010
0000
,
0100
0010
1000
0000
,
1000
0001
0010
0000
,
0001
0000
1000
0000
,
0001
0100
0001
0000
,
1000
0000
0001
0000
,
0010
0100
0010
0000
,
0010
0000
0010
0000
,
0100
0010
0100
0000
,
0010
0000
0001
0000
,
1000
0100
1000
0000
,
0001
0000
0001
0000
,
1000
0001
1000
0000
,
0010
0000
0010
0000
,
1000
0100
1000
0000
,
1000
0000
1000
0000
,
1000
0001
1000
0000
,
1000
0000
0001
0000
,
1000
0000
0100
0000
,
1000
0010
0100
0000
,
0010
0000
0100
0000
,
0100
0010
0100
0000
,
0001
0000
1000
0000
,
1000
0010
0100
0000
,
0010
0000
1000
0000
,
0010
1000
0001
1000
,
0002
0000
0003
0000
,
0001
0010
0100
0000
,
0100
0000
0010
0000
,
0010
0001
0010
0000
,
0010
0000
0001
0000
,
0100
0010
0100
0000
,
0001
0000
0001
0000
,
0001
0010
0002
0000
,
0000
0000
0003
0000
,
0001
0100
0001
0000
,
1000
0000
0010
0000
,
1000
0010
1000
0000
,
0001
0000
0100
0000
,
0001
0100
0001
0000
,
0010
0000
0001
0000
,
1000
0010
1000
0010
,
0200
0000
0300
0000
,
0001
1000
0001
0000
,
0001
0000
0001
0000
,
0001
0010
0001
0000
,
0100
0000
0010
0000
,
0100
0001
0100
0000
,
0010
0000
0010
0000
,
0100
0010
2000
0000
,
0000
0000
3000
0000
,
0100
1000
0001
0000
,
0001
0000
0100
0000
,
0001
0010
0001
0000
,
1000
0000
0001
0000
,
0100
0001
0100
0000
,
0001
0000
0001
0000
,
1000
0100
0010
0000
,
0010
0000
0100
0000
,
1000
0010
0100
0000
,
0100
0000
0010
0000
,
1000
0001
1000
0000
,
1000
0000
0001
0000
,
0100
0010
1000
0000
,
1000
0000
0010
0000
,
0100
0010
1000
0000
,
0001
0010
0001
0000
,
1000
0001
1000
0000
,
1000
0000
1000
0000
,
1000
0010
0100
0000
,
0100
0000
0001
0000
,
1000
0100
1000
0000
,
0010
0100
0010
0000
,
0100
0010
1000
0000
,
0100
0000
0100
0000
,
1000
0001
0010
0000
,
0010
0000
0001
0000
,
0010
0001
0010
0000
,
0001
0000
0100
0000
,
0010
1000
0100
0000
,
1000
0100
0010
0000
,
0001
0010
0100
0000
,
1000
0000
0001
0001
;

//---------------dance-single - ----------------
#NOTES:
     dance-single:
     :
     Beginner:
     3:
     0.199,0.231,0.048,0.042,0:
0000
0000
0000
0000
,
0000
0000
0000
0000
,
1000
0000
0000
0000
,
0010
0000
1000
0000
,
0001
0000
0000
0000
,
0100
0000
0001
0000
,
0100
0000
0000
0000
,
0001
0000
0001
0000
,
0100
0000
0000
0000
,
1001
0000
0000
0000
,
1000
0000
0000
0000
,
1000
0000
0010
0000
,
0100
0000
0000
0000
,
0001
0000
0100
0000
,
0010
0000
0000
0000
,
1000
0000
0010
0000
,
0010
0000
0000
0000
,
0110
0000
0000
0000
,
1000
0000
0000
0000
,
0001
0000
1001
0000
,
0010
0000
0000
0000
,
0100
0000
0110
0000
,
0010
0000
0000
0000
,
0010
0000
1010
0000
,
1000
0000
0000
0000
,
0100
0000
0000
0000
,
1000
0000
0100
0000
,
0010
0000
0000
0000
,
0100
0000
0100
0000
,
1000
0000
0000
0000
,
1000
0000
0100
0000
,
0010
0000
0000
0000
,
0010
0000
0001
0000
,
0002
0000
0003
0000
,
0001
0000
0100
0000
,
0100
0000
0000
0000
,
0010
0000
1000
0000
,
0010
0000
0000
0000
,
0100
0000
0100
0000
,
0001
0000
0000
0000
,
0001
0000
1000
0000
,
0001
0000
0000
0000
,
0001
0000
0001
0000
,
1000
0000
0000
0000
,
1000
0000
1000
0000
,
0001
0000
0000
0000
,
0001
0000
0001
0000
,
0010
0000
0000
0000
,
0001
0000
1000
0000
,
0200
0000
0300
0000
,
1000
0000
1000
0000
,
0001
0000
0000
0000
,
0001
0000
0010
0000
,
0100
0000
0000
0000
,
0100
0000
0100
0000
,
0010
0000
0000
0000
,
0100
0000
1000
0000
,
2000
0000
3000
0000
,
0001
0000
0000
0000
,
0001
0000
0000
0000
,
0001
0000
0000
0000
,
1000
0000
0000
0000
,
0100
0000
0000
0000
,
1000
0000
0000
0000
,
1000
0000
0000
0000
,
0010
0000
0000
0000
,
1000
0000
0000
0000
,
0100
0000
0000
0000
,
1000
0000
0000
0000
,
1000
0000
0000
0000
,
0100
0000
0000
0000
,
1000
0000
0000
0000
,
0100
0000
0000
0000
,
1000
0000
0000
0000
,
0001
0000
0000
0000
,
0001
0000
0001
0000
,
1000
0000
0000
0000
,
0010
0000
0100
0000
,
0010
0000
0000
0000
,
0100
0000
0010
0000
,
0010
0000
0000
0000
,
1000
0000
0000
0000
,
0001
0000
0000
0000
,
1000
0000
1010
0000
,
0010
0000
0000
0000
,
1000
0000
1001
0000
,
1000
0000
0000
0000
,
0001
0000
0101
0000
,
0100
0000
0000
0000
,
0001
0000
0000
0000
,
1000
0000
0100
0000
,
0010
0000
0000
0000
,
0100
0000
0100
0000
,
0010
0000
0000
0000
,
0001
0000
0100
0000
,
0010
0000
0000
0000
,
0010
0000
1000
0000
,
0002
0000
0003
0000
,
0001
0000
0010
0000
,
0100
0000
0000
0000
,
0010
0000
0001
0000
,
0010
0000
0000
0000
,
0100
0000
0100
0000
,
1000
0000
0000
0000
,
0001
0000
0100
0000
,
0002
0000
0003
0000
,
0001
0000
0001
0000
,
1000
0000
0000
0000
,
1000
0000
0010
0000
,
0100
0000
0000
0000
,
0001
0000
0010
0000
,
0001
0000
0000
0000
,
1000
0000
0010
0000
,
0200
0000
0300
0000
,
0001
0000
1000
0000
,
0001
0000
0000
0000
,
0001
0000
0010
0000
,
0100
0000
0000
0000
,
0100
0000
0100
0000
,
0010
0000
0000
0000
,
0100
0000
0010
0000
,
0002
0000
0003
0000
,
0100
0000
0000
0000
,
0001
0000
0000
0000
,
0001
0000
0000
0000
,
1000
0000
0000
0000
,
0100
0000
0000
0000
,
1000
0000
0000
0000
,
1000
0000
0010
0000
,
0010
0000
0000
0000
,
1000
0000
0100
0000
,
0100
0000
0000
0000
,
1000
0000
0001
0000
,
1000
0000
0000
0000
,
0100
0000
0000
0000
,
1000
0000
0000
0000
,
0100
0000
0010
0000
,
0001
0000
0001
0000
,
1000
0000
0001
0000
,
1000
0000
0000
0000
,
1000
0000
0010
0000
,
0100
0000
0000
0000
,
0010
0000
0100
0000
,
0010
0000
0100
0000
,
0010
0000
1000
0000
,
0000
0000
0100
0000
,
1000
0000
0001
0000
,
0000
0000
0001
0000
,
0010
0000
0010
0000
,
0000
0000
0100
0000
,
0010
0000
0100
0000
,
1000
0000
0010
0000
,
0100
0000
0010
0000
,
1000
0000
0001
0001
;

//---------------dance-single - ITGAlex & Aoreo----------------
#NOTES:
     dance-single:
     ITGAlex & Aoreo:
     Edit:
     18:
     1,1,0.193,0.132,1:
0000
0000
0000
0000
,
0000
0000
0000
0000
,
1000
0001
0010
0001
1000
0010
0100
0001
,
0100
0000
0010
0000
1000
0000
0001
0000
1000
0000
0100
0010
0001
0000
1000
0000
,
0010
1000
0001
0100
0001
1000
0010
0010
,
1000
0000
0001
0000
0010
0000
0100
0000
1000
0000
0010
0000
0100
0000
0001
0010
,
0100
0000
1000
0000
0010
1000
0100
0000
0010
0000
0001
1000
0001
0000
0010
0000
,
0001
0000
1000
0000
0001
0000
0100
0000
0010
0000
0010
0000
1000
0000
1000
0001
,
0100
0000
0101
0000
,
0110
0000
1010
1100
,
1000
0010
0100
0001
1000
0010
1000
0001
,
0010
0000
0100
0000
0010
0000
0001
0000
1000
0000
0010
1000
0001
0000
0010
0000
,
0100
0010
0001
1000
0001
0100
0010
0010
,
1000
0000
0001
0000
1000
0000
0100
0000
0010
0000
0001
0000
1000
0000
0010
0100
,
0001
0000
1000
0000
0001
0010
0100
0000
1000
0000
0001
1000
0010
0000
1000
0000
,
0001
0000
0010
0000
0100
0000
0010
0000
0001
0000
0001
0000
1000
0000
1000
0010
,
0100
0000
0101
0000
,
0011
0000
0010
0100
1000
0000
0001
0000
,
1000
0000
0001
1000
0100
0000
1000
0000
,
0001
1000
0010
0000
2020
0000
0000
3030
,
1000
0000
0001
0010
0100
0000
0010
0000
,
0001
0100
0010
0000
0220
0000
0000
0330
,
0100
0000
0001
1000
0010
0000
1000
0000
,
0001
1000
0100
0000
2200
0000
0000
3300
,
1000
0000
0001
0000
,
0100
0000
0001
1000
1001
0000
0001
0000
,
1000
0100
0010
0001
1000
0100
1000
0001
0010
0100
1000
0001
0010
0001
1000
0100
,
1000
0010
0100
0001
0010
0100
1000
0001
0010
0001
1000
0001
0100
0010
1000
0001
,
0010
0100
0010
0001
1000
0010
1000
0001
0100
0010
0100
0001
1000
0010
1000
0001
,
0010
0001
0100
0010
1000
0001
0100
0001
1000
0100
0010
0001
1000
0100
1000
0001
,
0100
0001
1000
0010
1000
0001
0010
0001
1000
0100
1000
0001
0100
0010
0100
0001
,
0010
0001
1000
0010
0100
0001
1000
0010
1000
0001
0100
0001
1000
0100
1000
0001
,
0100
0001
1000
0010
1000
0001
0010
0100
0010
0001
1000
0010
0100
0001
1000
0010
,
1000
0100
0010
0001
0100
0001
0010
0100
1000
0010
0100
0001
0010
0100
1000
0010
,
1000
0001
0010
0100
0010
0001
1000
0100
0010
0001
1000
0100
1000
0001
0010
0100
,
1000
0010
1000
0001
0010
0100
0010
0001
1000
0100
1000
0001
0100
0010
1000
0001
,
0010
0001
1000
0010
1000
0001
0100
0010
1000
0001
0100
0001
1000
0010
0100
0001
,
0010
0001
1000
0100
0010
0001
1000
0010
1000
0001
0010
0100
1000
0001
0100
0010
,
0100
0001
1000
0100
0010
0001
1000
0001
0100
0010
0100
0001
1000
0100
0010
0001
,
0100
0001
1000
0100
1000
0001
0010
0100
0010
0001
1000
0010
1000
0001
0010
0100
,
1000
0001
0100
0010
1000
0001
0010
0001
1000
0010
0100
0001
0010
0100
0010
0001
,
0100
0010
1000
0001
0010
0001
1000
0010
0100
0001
0010
0100
1000
0010
0100
0001
,
1000
0100
0010
0001
1000
0001
0010
0100
1000
0001
0010
0100
0010
0001
1000
0100
,
1000
0010
0100
0001
1000
0100
0010
0100
1000
0001
0010
0001
1000
0010
1000
0001
,
0100
0001
1000
0100
0010
0001
1000
0001
0010
0100
1000
0001
0010
0001
1000
0100
,
1000
0010
0100
0001
1000
0010
1000
0001
0010
0100
1000
0001
0010
0001
1000
0001
,
0100
0010
1000
0001
0100
0001
1000
0100
1000
0001
0100
0010
1000
0001
0010
0100
,
1000
0010
1000
0001
0010
0100
0010
0001
1000
0001
0100
0010
1000
0001
0010
0001
,
1000
0010
0100
0001
1000
0100
1000
0001
0100
0010
1000
0001
0010
0001
1000
0010
,
0100
0001
0010
0100
0010
0001
0100
0010
1000
0100
0010
0100
1000
0010
0100
0001
,
1000
0100
0010
0001
1000
0100
1000
0001
0010
0100
1000
0001
0010
0001
1000
0100
,
1000
0010
0100
0001
0010
0100
1000
0001
0010
0001
1000
0001
0100
0010
1000
0001
,
0010
0100
0010
0001
1000
0010
1000
0001
0100
0010
0100
0001
1000
0010
1000
0001
,
0010
0001
0100
0010
1000
0001
0100
0001
1000
0100
0010
0001
1000
0100
1000
0001
,
0100
0001
1000
0010
1000
0001
0010
0001
1000
0100
1000
0001
0100
0010
0100
0001
,
0010
0001
1000
0010
0100
0001
1000
0010
1000
0001
0100
0001
1000
0100
1000
0001
,
0100
0001
1000
0010
1000
0001
0010
0100
1000
0010
0100
0010
1000
0100
0010
0001
,
0100
0010
0100
0001
1000
0100
1000
0010
0100
0001
1000
0100
0010
0001
0100
0010
,
2000
0000
0000
3000
1001
0000
0000
0000
,
0000
0000
0002
0000
1003
0000
0100
0000
1000
0000
0010
0000
,
0100
0000
0010
1000
1010
0000
0000
0000
,
0000
0000
0020
0000
0130
0000
0001
0000
1000
0000
0010
0000
,
0100
0000
0010
0010
0101
0000
0000
0000
,
0000
0000
0002
0000
1003
0000
0001
0000
1000
0000
0100
0000
,
0010
0000
0100
1000
1001
0000
0000
0000
,
0000
0000
0200
0000
0310
0000
1000
0000
0001
0000
1000
0000
,
0100
0000
0100
0010
0011
0000
0001
0000
,
0100
0000
0001
0000
1000
0000
0010
0000
0100
0000
0001
0000
,
1000
0000
0100
0010
0011
0000
0001
0000
,
1000
0000
0100
0000
0010
0000
0001
0000
1000
0000
0010
0000
,
0100
0000
0001
0010
0011
0000
0100
0000
,
1000
0000
0001
0000
0100
0000
0010
0000
1000
0000
0010
0000
,
0100
0000
0001
1000
1001
0000
0100
0000
,
0010
0000
0001
1000
1010
1000
0001
0100
,
0100
0010
1000
0001
0100
0001
1000
0100
,
0010
0000
0001
0000
1000
0000
0010
0000
1000
0000
0001
0010
0100
0000
0010
0000
,
0001
1000
0010
0100
0001
1000
0001
0001
,
0010
0000
0100
0000
0010
0000
0001
0000
1000
0000
0010
0000
0100
0000
0001
1000
,
0100
0000
0010
0000
0100
1000
0001
0000
0100
0000
0010
0100
0001
0000
1000
0000
,
0010
0000
1000
0000
0001
0000
1000
0000
0010
0000
0010
0000
1000
0000
1000
0001
,
0100
0000
0000
0000
0010
0000
1000
0000
0001
0000
0000
0000
0010
0000
0100
1000
,
0002
0000
2003
0000
3020
0000
0230
0000
0301
1000
0100
0000
0010
0000
0001
0000
,
1000
0000
0010
0100
0001
0000
1000
0000
,
0100
0010
0001
0000
0022
0000
0000
0033
,
0010
0000
0100
1000
0001
0000
0100
0000
,
0010
1000
0001
0000
2002
0000
0000
3003
,
1000
0000
0100
0010
0001
0000
1000
0000
,
0010
0100
0001
0000
0202
0000
0000
0303
,
0001
0000
1000
0000
,
0001
0000
1000
0010
0110
0000
1000
0000
,
0001
0100
0010
1000
0001
0100
0001
1000
0010
0100
0001
1000
0010
1000
0001
0100
,
0001
0010
0100
1000
0010
0100
0001
1000
0010
1000
0001
1000
0100
0010
0001
1000
,
0010
0100
0010
1000
0001
0010
0001
1000
0100
0010
0100
1000
0001
0010
0001
1000
,
0010
1000
0100
0010
0001
1000
0100
1000
0001
0100
0010
1000
0001
0100
0001
1000
,
0100
1000
0001
0010
0001
1000
0010
1000
0001
0100
0001
1000
0100
0010
0100
1000
,
0010
1000
0001
0010
0100
1000
0001
0010
0001
1000
0100
1000
0001
0100
0001
1000
,
0100
1000
0001
0010
0001
1000
0010
0100
0010
1000
0001
0010
0100
1000
0001
0010
,
0001
0100
0010
1000
0100
1000
0010
0100
0001
0010
0100
1000
0010
0100
0001
0010
,
0001
1000
0010
0100
0010
1000
0001
0100
0010
1000
0001
0100
0001
1000
0010
0100
,
0001
0010
0001
1000
0010
0100
0010
1000
0001
0100
0001
1000
0100
0010
0001
1000
,
0010
1000
0001
0010
0001
1000
0100
0010
0001
1000
0100
1000
0001
0010
0100
1000
,
0010
1000
0001
0100
0010
1000
0001
0010
0001
1000
0010
0100
0001
1000
0100
0010
,
0100
1000
0001
0100
0010
1000
0001
1000
0100
0010
0100
1000
0001
0100
0010
1000
,
0100
1000
0001
0100
0001
1000
0010
0100
0010
1000
0001
0010
0001
1000
0010
0100
,
0001
1000
0100
0010
0001
1000
0010
1000
0001
0010
0100
1000
0010
0100
0010
1000
,
0100
0010
0001
1000
0010
1000
0001
0010
0100
1000
0010
0100
0001
0010
0100
1000
,
0001
0100
0010
1000
0001
1000
0010
0100
0001
1000
0010
0100
0010
1000
0001
0100
,
0001
0010
0100
1000
0001
0100
0010
0100
0001
1000
0010
1000
0001
0010
0001
1000
,
0100
1000
0001
0100
0010
1000
0001
1000
0010
0100
0001
1000
0010
1000
0001
0100
,
0001
0010
0100
1000
0001
0010
0001
1000
0010
0100
0001
1000
0010
1000
0001
1000
,
0100
0010
0001
1000
0100
1000
0001
0100
0001
1000
0100
0010
0001
1000
0010
0100
,
0001
0010
0001
1000
0010
0100
0010
1000
0001
1000
0100
0010
0001
1000
0010
1000
,
0001
0010
0100
1000
0001
0100
0001
1000
0100
0010
0001
1000
0010
1000
0001
0010
,
0100
1000
0010
0100
0010
1000
0100
0010
0001
0100
0010
0100
0001
0010
0100
1000
,
0001
0100
0010
1000
0001
0100
0001
1000
0010
0100
0001
1000
0010
1000
0001
0100
,
0001
0010
0100
1000
0010
0100
0001
1000
0010
1000
0001
1000
0100
0010
0001
1000
,
0010
0100
0010
1000
0001
0010
0001
1000
0100
0010
0100
1000
0001
0010
0001
1000
,
0010
1000
0100
0010
0001
1000
0100
1000
0001
0100
0010
1000
0001
0100
0001
1000
,
0100
1000
0001
0010
0001
1000
0010
1000
0001
0100
0001
1000
0100
0010
0100
1000
,
0010
1000
0001
0010
0100
1000
0001
0010
0001
1000
0100
1000
0001
0100
0001
1000
,
0100
1000
0001
0010
0001
1000
0010
0100
0001
0010
0100
0010
0001
0100
0010
1000
,
0100
0010
0100
1000
0001
0100
0001
0010
0100
1000
0001
0100
0010
1000
0100
0010
,
0002
0000
1000
1003
1001
0000
0000
0000
,
0000
0000
1000
0000
0100
0000
1000
0000
0001
0000
1000
0000
,
0010
0000
0100
0010
0110
0000
0000
0000
,
0000
0000
0010
0000
1000
0000
0100
0000
0010
0000
0100
0000
,
1000
0000
0001
1000
1001
0000
0000
0000
,
0000
0000
1000
0000
0100
0000
1000
0000
0001
0000
1000
0000
,
0010
0000
0100
0010
0110
0000
0000
0000
,
0000
0000
0010
0000
1000
0000
0100
0000
0010
0000
0100
0000
,
1000
0000
0001
0010
1001
0000
1000
0000
,
0000
0000
0001
0000
0100
0000
0100
0000
0010
0000
0010
0000
,
1000
0000
0001
0010
0110
0000
1000
0000
,
0000
0000
0010
0000
0100
0000
0100
0000
0001
0000
0001
0000
,
1000
0000
0100
0010
0110
0000
1000
0000
,
0000
0000
0010
0000
0100
0000
0100
0000
0001
0000
0001
0000
,
1000
0000
0001
1000
1100
0000
0010
0000
,
0001
0000
1000
1000
1001
0000
0100
0000
,
0001
0000
1000
0000
0100
0000
0010
0001
1000
0000
0001
0000
0100
0000
0010
0000
,
1000
0000
0001
0000
1000
0100
1000
0100
0010
0000
0001
0000
0001
0000
0010
0000
,
0001
0000
1000
0100
1000
0000
0000
0000
0001
0000
1000
0100
1000
0000
0000
0000
,
0010
0000
0100
0001
1000
0000
0001
0000
0010
0000
0100
0000
1000
0000
1000
0000
,
0001
0100
0010
0100
0001
0000
1000
0000
0100
0000
0010
0000
0001
0000
1000
0001
,
0100
0010
1000
0000
0001
0010
0100
0000
,
0010
0001
0010
0001
1000
0000
0010
0000
0100
0001
0100
0001
1000
0000
0100
0010
,
0001
0000
1000
0000
0010
0000
1000
0000
0001
0000
0001
0000
1000
0100
1000
0001
,
0100
0000
0010
0000
1000
0000
0001
0010
0100
0000
0010
0000
0001
0000
1000
0000
,
0010
0000
0100
0000
0001
0100
0001
0100
0010
0000
1000
0000
1000
0000
0001
0000
,
0100
0000
0010
1000
0001
0000
0000
0000
0100
0000
0010
1000
0001
0000
0000
0000
,
1000
0000
0100
0010
0001
0000
1000
0000
0010
0000
0100
0000
0001
0000
0001
0000
,
1000
0100
0010
0100
1000
0000
0001
0000
0100
0000
0010
0000
0100
0000
0001
1000
,
0100
0010
0100
0000
1000
0001
0100
0000
,
0010
1000
0010
1000
0001
0000
0010
0000
0100
1000
0100
1000
0001
0000
0100
0010
,
1000
0000
0001
0000
0010
0000
0100
0000
1000
0000
1000
0000
0001
1000
0001
0100
;

//---------------dance-single - oh----------------
#NOTES:
     dance-single:
     oh:
     Edit:
     20:
     1,1,0.151,0.126,1:
0000
0000
0000
0000
,
0000
0000
0000
0000
,
1000
0001
0010
0001
1000
0010
0100
0001
,
0100
0000
0010
0000
1000
0000
0001
0000
1000
0000
0100
0010
0001
0000
1000
0000
,
0010
1000
0001
0100
0001
1000
0010
0010
,
1000
0000
0001
0000
0010
0000
0100
0000
1000
0000
0001
0000
0100
0000
0010
1000
,
0001
0000
0100
0000
0001
1000
0100
0000
0010
0000
0001
1000
0001
0000
0010
0000
,
0001
0000
1000
0000
0001
0000
0100
0000
0010
0000
0100
0000
0100
0000
0001
1000
,
0100
0000
0000
0000
0100
0000
0010
0000
0001
0000
0000
0000
0001
0000
1000
0010
,
0100
0000
0000
0000
0100
0000
0000
0000
0001
1000
0001
0000
0010
0000
0001
0000
,
1000
0010
0100
0001
1000
0010
1000
0001
,
0010
0000
0100
0000
0010
0000
0001
0000
1000
0000
0010
1000
0001
0000
0010
0000
,
0100
0010
0001
1000
0001
0100
0010
0010
,
1000
0000
0001
0000
1000
0000
0100
0000
0010
0000
0001
0000
1000
0000
0010
0100
,
0001
0000
1000
0000
0001
0010
0100
0000
1000
0000
0001
1000
0010
0000
1000
0000
,
0001
0000
0010
0000
0100
0000
0010
0000
0001
0000
1000
0000
1000
0000
0010
0100
,
0001
0000
0000
0000
1000
0000
0001
0000
0010
0000
0000
0000
0001
0000
1000
0001
,
0100
0000
0000
0000
0100
0000
0010
0000
1000
0010
1000
0000
0001
0000
1000
0000
,
0100
0000
1000
0001
0010
0000
0001
0000
,
1000
0001
0100
0000
0202
0000
0000
0303
,
0001
0000
1000
0100
0010
0000
0100
0000
,
1000
0010
0100
0000
0220
0000
0000
0330
,
0010
0000
1000
0001
0100
0000
0001
0000
,
1000
0001
0010
0000
0022
0000
0000
0033
,
0001
0000
1000
0000
,
0010
0000
1000
1000
1001
0000
0001
0000
,
1000
0100
0010
0001
1000
0100
1000
0001
0010
0100
1000
0001
0010
0001
1000
0100
,
0001
0100
0010
0001
0010
0100
1000
0001
0010
0001
1000
0001
0100
0010
1000
0001
,
0010
0100
0010
0001
1000
0010
1000
0001
0100
0010
0100
0001
1000
0010
1000
0001
,
0100
1000
0100
0010
1000
0001
0100
0001
1000
0100
0010
0001
1000
0100
1000
0001
,
0100
0001
1000
0010
1000
0001
0010
0001
1000
0100
1000
0001
0100
0001
1000
0100
,
0001
0100
0010
0001
1000
0001
0100
0010
1000
0001
0100
0001
1000
0100
1000
0001
,
0100
0001
1000
0010
1000
0001
0010
0100
0010
0001
1000
0010
0100
0001
1000
0010
,
1000
0100
0001
0100
0001
1000
0010
1000
0010
0001
0100
1000
0100
1000
0001
0010
,
1000
0001
0010
0100
0010
0001
1000
0100
0010
0001
1000
0100
1000
0001
0100
0010
,
0001
0010
1000
0001
0010
0100
0010
0001
1000
0100
1000
0001
0100
0010
1000
0001
,
0010
0001
1000
0010
1000
0001
0100
0010
1000
0001
0100
0001
1000
0010
1000
0001
,
0010
1000
0010
0100
1000
0001
1000
0010
1000
0001
0010
0100
1000
0001
0100
0010
,
0100
0001
1000
0100
0010
0001
1000
0001
0100
0010
0100
0001
1000
0001
0100
0010
,
0001
0010
1000
0001
1000
0010
0100
0001
1000
0001
0100
0010
1000
0001
0010
0100
,
1000
0001
0100
0010
1000
0001
0010
0001
1000
0100
0001
0100
1000
0100
0010
1000
,
0010
0001
1000
0010
0001
0010
0100
0010
1000
0100
0001
0100
0001
1000
0010
0001
,
1000
0100
0010
0001
1000
0001
0010
0100
1000
0001
0010
0100
0010
0001
1000
0100
,
0001
0100
1000
0001
1000
0010
0100
0010
1000
0001
0010
0001
1000
0010
1000
0001
,
0100
0001
1000
0100
0010
0001
1000
0001
0010
0100
1000
0001
0010
0001
1000
0010
,
0100
1000
0100
0001
1000
0010
1000
0001
0010
0100
1000
0001
0010
0001
1000
0001
,
0100
0010
1000
0001
0100
0001
1000
0100
1000
0001
0100
0010
1000
0001
0010
0100
,
0001
0100
1000
0001
0010
0100
0010
0001
1000
0001
0100
0010
1000
0001
0010
0001
,
1000
0010
0100
0001
1000
0100
1000
0001
0100
0010
1000
0001
0010
0001
1000
0010
,
0100
1000
0100
0001
0010
0100
0001
0100
0010
1000
0010
0001
1000
0010
0001
0010
,
1000
0100
0010
0001
1000
0100
1000
0001
0010
0100
1000
0001
0010
0001
1000
0010
,
0001
0010
0100
0001
0010
0100
1000
0001
0010
0001
1000
0001
0100
0010
1000
0001
,
0010
0100
0010
0001
1000
0010
1000
0001
0100
0010
0100
0001
1000
0010
1000
0001
,
0010
1000
0010
0100
1000
0001
0100
0001
1000
0100
0010
0001
1000
0100
1000
0001
,
0100
0001
1000
0010
1000
0001
0010
0001
1000
0100
1000
0001
0100
0010
1000
0010
,
0001
0010
1000
0001
0100
0001
1000
0010
1000
0001
0100
0001
1000
0100
1000
0001
,
0100
0001
1000
0010
1000
0001
0010
0100
0001
0100
0010
1000
0001
0100
1000
0001
,
0100
1000
0100
0010
0001
0010
1000
0100
0010
1000
0010
0001
0100
0010
0001
0010
,
1000
0000
0001
0000
1000
1000
0100
0000
,
0000
0000
0002
0000
1003
0000
0100
0000
1000
0000
0010
0000
,
0100
0000
0010
1000
1010
0000
0000
0000
,
0000
0000
0020
0000
0130
0000
0001
0000
1000
0000
0010
0000
,
0100
0000
0010
0010
0101
0000
0000
0000
,
0000
0000
0002
0000
1003
0000
0001
0000
1000
0000
0100
0000
,
0010
0000
0100
1000
1001
0000
0000
0000
,
0000
0000
0200
0000
0310
0000
1000
0000
0001
0000
1000
0000
,
0100
0000
0100
0010
0011
0000
0001
0000
,
0100
0000
0001
0000
1000
0000
0010
0000
0100
0000
0001
0000
,
1000
0000
0100
0010
0011
0000
0001
0000
,
1000
0000
0100
0000
0010
0000
0001
0000
1000
0000
0010
0000
,
0100
0000
0001
0010
0011
0000
0100
0000
,
1000
0000
0001
0000
0100
0000
0010
0000
1000
0000
0010
0000
,
0100
0000
0001
1000
1001
0000
0100
0000
,
0010
0000
0001
1000
1010
1000
0001
0100
,
0100
0010
1000
0001
0100
0001
1000
0100
,
0010
0000
0001
0000
1000
0000
0010
0000
1000
0000
0001
0010
0100
0000
0010
0000
,
0001
1000
0010
0100
0001
1000
0001
0001
,
0010
0000
0100
0000
0010
0000
0001
0000
1000
0000
0010
0000
0100
0000
0001
1000
,
0100
0000
0010
0000
0100
1000
0001
0000
0100
0000
0010
0100
0001
0000
1000
0000
,
0010
0000
1000
0000
0001
0000
1000
0000
0100
0000
0010
0000
0010
0000
0001
1000
,
0010
0000
0000
0000
0100
0000
0001
0000
1000
0000
0000
0000
0100
0000
0010
0001
,
2000
0000
3002
0000
0203
0000
0320
0000
1030
0001
0010
0000
0100
0000
1000
0000
,
0001
0000
0100
0010
1000
0000
0001
0000
,
0010
0100
1000
0000
2200
0000
0000
3300
,
0100
0000
0010
0001
1000
0000
0010
0000
,
0100
0001
1000
0000
2002
0000
0000
3003
,
0001
0000
0010
0100
1000
0000
0001
0000
,
0100
0010
1000
0000
2020
0000
0000
3030
,
1000
0000
0001
0000
,
1000
0000
0010
0010
0110
0000
0100
0000
,
0001
0100
0010
1000
0001
0100
0001
1000
0010
0100
0001
1000
0010
1000
0001
0100
,
1000
0100
0010
1000
0010
0100
0001
1000
0010
1000
0001
1000
0100
0010
0001
1000
,
0010
0100
0010
1000
0001
0010
0001
1000
0100
0010
0100
1000
0001
0010
0001
1000
,
0100
0001
0100
0010
0001
1000
0100
1000
0001
0100
0010
1000
0001
0100
0001
1000
,
0100
1000
0001
0010
0001
1000
0010
1000
0001
0100
0001
1000
0100
1000
0001
0100
,
1000
0100
0010
1000
0001
1000
0100
0010
0001
1000
0100
1000
0001
0100
0001
1000
,
0100
1000
0001
0010
0001
1000
0010
0100
0010
1000
0001
0010
0100
1000
0001
0010
,
0001
0100
1000
0100
1000
0001
0010
0001
0010
1000
0100
0001
0100
0001
1000
0010
,
0001
1000
0010
0100
0010
1000
0001
0100
0010
1000
0001
0100
0001
1000
0100
0010
,
1000
0010
0001
1000
0010
0100
0010
1000
0001
0100
0001
1000
0100
0010
0001
1000
,
0010
1000
0001
0010
0001
1000
0100
0010
0001
1000
0100
1000
0001
0010
0001
1000
,
0010
0001
0010
0100
0001
1000
0001
0010
0001
1000
0010
0100
0001
1000
0100
0010
,
0100
1000
0001
0100
0010
1000
0001
1000
0100
0010
0100
1000
0001
1000
0100
0010
,
1000
0010
0001
1000
0001
0010
0100
1000
0001
1000
0100
0010
0001
1000
0010
0100
,
0001
1000
0100
0010
0001
1000
0010
1000
0001
0100
1000
0100
0001
0100
0010
0001
,
0010
1000
0001
0010
1000
0010
0100
0010
0001
0100
1000
0100
1000
0001
0010
1000
,
0001
0100
0010
1000
0001
1000
0010
0100
0001
1000
0010
0100
0010
1000
0001
0100
,
1000
0100
0001
1000
0001
0010
0100
0010
0001
1000
0010
1000
0001
0010
0001
1000
,
0100
1000
0001
0100
0010
1000
0001
1000
0010
0100
0001
1000
0010
1000
0001
0010
,
0100
0001
0100
1000
0001
0010
0001
1000
0010
0100
0001
1000
0010
1000
0001
1000
,
0100
0010
0001
1000
0100
1000
0001
0100
0001
1000
0100
0010
0001
1000
0010
0100
,
1000
0100
0001
1000
0010
0100
0010
1000
0001
1000
0100
0010
0001
1000
0010
1000
,
0001
0010
0100
1000
0001
0100
0001
1000
0100
0010
0001
1000
0010
1000
0001
0010
,
0100
0001
0100
1000
0010
0100
1000
0100
0010
0001
0010
1000
0001
0010
1000
0010
,
0001
0100
0010
1000
0001
0100
0001
1000
0010
0100
0001
1000
0010
1000
0001
0010
,
1000
0010
0100
1000
0010
0100
0001
1000
0010
1000
0001
1000
0100
0010
0001
1000
,
0010
0100
0010
1000
0001
0010
0001
1000
0100
0010
0100
1000
0001
0010
0001
1000
,
0010
0001
0010
0100
0001
1000
0100
1000
0001
0100
0010
1000
0001
0100
0001
1000
,
0100
1000
0001
0010
0001
1000
0010
1000
0001
0100
0001
1000
0100
0010
0001
0010
,
1000
0010
0001
1000
0100
1000
0001
0010
0001
1000
0100
1000
0001
0100
0001
1000
,
0100
1000
0001
0010
0001
1000
0010
0100
1000
0100
0010
0001
1000
0100
0001
1000
,
0100
0001
0100
0010
1000
0010
0001
0100
0010
0001
0010
1000
0100
0010
1000
0010
,
0002
0000
1000
1003
1001
0000
0000
0000
,
0000
0000
1000
0000
0100
0000
1000
0000
0001
0000
1000
0000
,
0010
0000
0100
0010
0110
0000
0000
0000
,
0000
0000
0010
0000
1000
0000
0100
0000
0010
0000
0100
0000
,
1000
0000
0001
1000
1001
0000
0000
0000
,
0000
0000
1000
0000
0100
0000
1000
0000
0001
0000
1000
0000
,
0010
0000
0100
0010
0110
0000
0000
0000
,
0000
0000
0010
0000
1000
0000
0100
0000
0010
0000
0100
0000
,
1000
0000
0001
0010
1001
0000
1000
0000
,
0000
0000
0001
0000
0100
0000
0100
0000
0010
0000
0010
0000
,
1000
0000
0001
0010
0110
0000
1000
0000
,
0000
0000
0010
0000
0100
0000
0100
0000
0001
0000
0001
0000
,
1000
0000
0100
0010
0110
0000
1000
0000
,
0000
0000
0010
0000
0100
0000
0100
0000
0001
0000
0001
0000
,
1000
0000
0001
1000
1100
0000
0010
0000
,
0001
0000
1000
1000
1001
0000
0100
0000
,
0001
0000
1000
0000
0100
0000
0010
0001
1000
0000
0001
0000
0100
0000
0010
0000
,
1000
0000
0001
0000
1000
0100
1000
0100
0010
0000
0001
0000
0001
0000
1000
0000
,
0010
0000
0100
0001
1000
0000
0000
0000
0100
0000
0010
0001
1000
0000
0000
0000
,
0010
0000
0100
0001
1000
0000
0001
0000
0010
0000
0100
0000
1000
0000
1000
0000
,
0001
0100
0010
0100
0001
0000
1000
0000
0100
0000
0010
0000
0001
0000
1000
0001
,
0100
0010
1000
0000
0001
1000
0100
0000
,
0010
0001
0010
0001
1000
0000
0010
0000
0100
0001
0100
0001
1000
0000
0100
0010
,
0001
0000
1000
0000
0010
0000
1000
0000
0001
0000
0001
0000
1000
0100
1000
0001
,
0100
0000
0010
0000
1000
0000
0001
0010
0100
0000
0010
0000
0001
0000
1000
0000
,
0010
0000
0100
0000
0001
0100
0001
0100
0010
0000
1000
0000
1000
0000
0001
0000
,
0010
0000
0100
0010
0001
0000
0000
0000
1000
0000
0010
0100
0001
0000
0000
0000
,
1000
0000
0100
0010
0001
0000
1000
0000
0010
0000
0100
0000
0001
0000
0001
0000
,
1000
0100
0010
0100
1000
0000
0001
0000
0100
0000
0010
0000
0100
0000
0001
1000
,
0100
0010
0100
0000
1000
0001
0100
0000
,
0010
1000
0010
1000
0001
0000
0010
0000
0100
1000
0100
1000
0001
0000
0100
0010
,
1000
0000
0001
0000
0010
0000
0100
0000
1000
0000
1000
0000
0010
0100
0001
1000
;

//---------------dance-single - ITGAlex & TYLR----------------
#NOTES:
     dance-single:
     ITGAlex & TYLR:
     Challenge:
     17:
     1,1,0.193,0.181,1:
0000
0000
0000
0000
,
0000
0000
0000
0000
,
1000
0001
0010
0001
1000
0010
0100
0001
,
0100
0000
0010
0000
1000
0000
0001
0000
1000
0000
0100
0010
0001
0000
1000
0000
,
0010
1000
0001
0100
0001
1000
0010
0010
,
1000
0000
0001
0000
0010
0000
0100
0000
1000
0000
0010
0000
0100
0000
0001
0010
,
0100
0000
1000
0000
0010
1000
0100
0000
0010
0000
0001
1000
0001
0000
0010
0000
,
0001
0000
1000
0000
0001
0000
0100
0000
0010
0000
0010
0000
1000
0000
1000
0001
,
0100
0000
0101
0000
,
0110
0000
1010
1100
,
1000
0010
0100
0001
1000
0010
1000
0001
,
0010
0000
0100
0000
0010
0000
0001
0000
1000
0000
0010
1000
0001
0000
0010
0000
,
0100
0010
0001
1000
0001
0100
0010
0010
,
1000
0000
0001
0000
1000
0000
0100
0000
0010
0000
0001
0000
1000
0000
0010
0100
,
0001
0000
1000
0000
0001
0010
0100
0000
1000
0000
0001
1000
0010
0000
1000
0000
,
0001
0000
0010
0000
0100
0000
0010
0000
0001
0000
0001
0000
1000
0000
1000
0010
,
0100
0000
0101
0000
,
0011
0000
0010
0100
1000
0000
0001
0000
,
1000
0000
0001
1000
0100
0000
1000
0000
,
0001
1000
0010
0000
2020
0000
0000
3030
,
1000
0000
0001
0010
0100
0000
0010
0000
,
0001
0100
0010
0000
0220
0000
0000
0330
,
0100
0000
0001
1000
0010
0000
1000
0000
,
0001
1000
0100
0000
2200
0000
0000
3300
,
1000
0000
0001
0000
,
0100
0000
0001
1000
1001
0000
0001
0000
,
1000
0100
0010
0001
1000
0100
1000
0001
0010
0100
1000
0001
0010
0001
1000
0100
,
1000
0010
0100
0001
0010
0100
1000
0001
0010
0001
1000
0001
0100
0010
1000
0001
,
0010
0100
0010
0001
1000
0010
1000
0001
0100
0010
0100
0001
1000
0010
1000
0001
,
0010
0001
0100
0010
1000
0001
0100
0001
1000
0100
0010
0001
1000
0100
1000
0001
,
0100
0001
1000
0010
1000
0001
0010
0001
1000
0100
1000
0001
0100
0010
0100
0001
,
0010
0001
1000
0010
0100
0001
1000
0010
1000
0001
0100
0001
1000
0100
1000
0001
,
0100
0001
1000
0010
1000
0001
0010
0100
0010
0001
1000
0010
0100
0001
0010
0100
,
4000
0000
0000
0000
,
3001
0010
0100
1000
0001
0100
0001
1000
0100
1000
0001
0010
0001
1000
0100
0010
,
0001
0100
0001
1000
0100
0010
0100
1000
0001
0010
0001
1000
0010
0100
0001
1000
,
0100
1000
0001
0100
0001
1000
0010
0100
0001
1000
0010
1000
0001
0100
0010
1000
,
0100
1000
0001
0010
0100
1000
0001
0100
0001
1000
0100
0010
0001
1000
0010
0100
,
0010
1000
0001
0010
0100
1000
0001
1000
0010
0100
0010
1000
0001
0010
0100
1000
,
0010
1000
0001
0010
0001
1000
0100
0010
0100
1000
0001
0100
0001
1000
0100
0010
,
0001
1000
0010
0100
0001
1000
0100
0010
0004
0000
0000
0000
0000
0000
0000
0000
,
0000
0000
0000
0000
,
1003
0100
0010
0001
1000
0001
0010
0100
1000
0001
0010
0100
0010
0001
1000
0100
,
1000
0010
0100
0001
1000
0100
0010
0100
1000
0001
0010
0001
1000
0010
1000
0001
,
0100
0001
1000
0100
0010
0001
1000
0001
0010
0100
1000
0001
0010
0001
1000
0100
,
1000
0010
0100
0001
1000
0010
1000
0001
0010
0100
1000
0001
0010
0001
1000
0001
,
0100
0010
1000
0001
0100
0001
1000
0100
1000
0001
0100
0010
1000
0001
0010
0100
,
1000
0010
1000
0001
0010
0100
0010
0001
1000
0001
0100
0010
1000
0001
0010
0001
,
1000
0010
0100
0001
1000
0100
1000
0001
0100
0010
1000
0001
0010
0001
1000
0010
,
0400
0000
0000
0000
,
0301
1000
0010
1000
0001
0010
0001
1000
0100
0010
0001
1000
0100
1000
0001
0010
,
0001
0100
0010
1000
0100
0010
0001
1000
0100
1000
0001
1000
0010
0100
0001
1000
,
0100
0010
0100
1000
0001
0100
0001
1000
0010
0100
0010
1000
0001
0100
0001
1000
,
0100
1000
0010
0100
0001
1000
0010
1000
0001
0010
0100
1000
0001
0010
0001
1000
,
0010
1000
0001
0100
0001
1000
0100
1000
0001
0010
0001
1000
0010
0100
0010
1000
,
0100
1000
0001
0100
0010
1000
0001
0100
0001
1000
0010
1000
0001
0010
0001
1000
,
0010
1000
0001
0100
0001
1000
0100
0010
0004
0000
0000
0000
0000
0000
0000
0000
,
0000
0000
0000
0000
,
2003
0000
0000
3000
1001
0000
0000
0000
,
0000
0000
0002
0000
1003
0000
0100
0000
1000
0000
0010
0000
,
0100
0000
0010
1000
1010
0000
0000
0000
,
0000
0000
0020
0000
0130
0000
0001
0000
1000
0000
0010
0000
,
0100
0000
0010
0010
0101
0000
0000
0000
,
0000
0000
0002
0000
1003
0000
0001
0000
1000
0000
0100
0000
,
0010
0000
0100
1000
1001
0000
0000
0000
,
0000
0000
0200
0000
0310
0000
1000
0000
0001
0000
1000
0000
,
0100
0000
0100
0010
0011
0000
0001
0000
,
0100
0000
0001
0000
1000
0000
0010
0000
0100
0000
0001
0000
,
1000
0000
0100
0010
0011
0000
0001
0000
,
1000
0000
0100
0000
0010
0000
0001
0000
1000
0000
0010
0000
,
0100
0000
0001
0010
0011
0000
0100
0000
,
1000
0000
0001
0000
0100
0000
0010
0000
1000
0000
0010
0000
,
0100
0000
0001
1000
1001
0000
0100
0000
,
0010
0000
0001
1000
1010
0000
0001
0100
,
0100
0010
1000
0001
0100
0001
1000
0100
,
0010
0000
0001
0000
1000
0000
0010
0000
1000
0000
0001
0010
0100
0000
0010
0000
,
0001
1000
0010
0100
0001
1000
0001
0001
,
0010
0000
0100
0000
0010
0000
0001
0000
1000
0000
0010
0000
0100
0000
0001
1000
,
0100
0000
0010
0000
0100
1000
0001
0000
0100
0000
0010
0100
0001
0000
1000
0000
,
0010
0000
1000
0000
0001
0000
1000
0000
0010
0000
0010
0000
1000
0000
1000
0001
,
0100
0000
0000
0000
0010
0000
1000
0000
0001
0000
0000
0000
0010
0000
0100
1000
,
0002
0000
2003
0000
3020
0000
0230
0000
0301
1000
0100
0000
0010
0000
0001
0000
,
1000
0000
0010
0100
0001
0000
1000
0000
,
0100
0010
0001
0000
0022
0000
0000
0033
,
0010
0000
0100
1000
0001
0000
0100
0000
,
0010
1000
0001
0000
2002
0000
0000
3003
,
1000
0000
0100
0010
0001
0000
1000
0000
,
0010
0100
0001
0000
0202
0000
0000
0303
,
0001
0000
1000
0000
,
0001
0000
1000
0010
0110
0000
1000
0000
,
0001
0100
0010
1000
0001
0100
0001
1000
0010
0100
0001
1000
0010
1000
0001
0100
,
0001
0010
0100
1000
0010
0100
0001
1000
0010
1000
0001
1000
0100
0010
0001
1000
,
0010
0100
0010
1000
0001
0010
0001
1000
0100
0010
0100
1000
0001
0010
0001
1000
,
0010
1000
0100
0010
0001
1000
0100
1000
0001
0100
0010
1000
0001
0100
0001
1000
,
0100
1000
0001
0010
0001
1000
0010
1000
0001
0100
0001
1000
0100
0010
0100
1000
,
0010
1000
0001
0010
0100
1000
0001
0010
0001
1000
0100
1000
0001
0100
0001
1000
,
0100
1000
0001
0010
0001
1000
0010
0100
0010
1000
0001
0010
0100
1000
0010
0100
,
0004
0000
0000
0000
,
1003
0010
1000
0001
0100
0001
1000
0010
0100
0001
1000
0010
1000
0001
0100
0010
,
1000
0100
1000
0001
0100
0010
0100
0001
1000
0010
1000
0001
0010
0100
1000
0001
,
0100
0001
1000
0100
1000
0001
0010
0100
1000
0001
0010
0001
1000
0100
0010
0001
,
0100
0001
1000
0010
0100
0001
1000
0100
1000
0001
0100
0010
1000
0001
0010
0100
,
0010
0001
1000
0010
0100
0001
1000
0001
0010
0100
0010
0001
1000
0010
0100
0001
,
0010
0001
1000
0010
1000
0001
0100
0010
0100
0001
1000
0100
1000
0001
0100
0010
,
1000
0001
0010
0100
1000
0001
0100
0001
0040
0000
0000
0000
0000
0000
0000
0000
,
0000
0000
0000
0000
,
0031
1000
0100
1000
0001
1000
0010
0100
0001
1000
0010
0100
0010
1000
0001
0100
,
0001
0010
0100
1000
0001
0100
0010
0100
0001
1000
0010
1000
0001
0010
0001
1000
,
0100
1000
0001
0100
0010
1000
0001
1000
0010
0100
0001
1000
0010
1000
0001
0100
,
0001
0010
0100
1000
0001
0010
0001
1000
0010
0100
0001
1000
0010
1000
0001
1000
,
0100
0010
0001
1000
0100
1000
0001
0100
0001
1000
0100
0010
0001
1000
0010
0100
,
0001
0010
0001
1000
0010
0100
0010
1000
0001
1000
0100
0010
0001
1000
0010
1000
,
0001
0010
0100
1000
0001
0100
0001
1000
0100
0010
0001
1000
0010
1000
0001
0010
,
0400
0000
0000
0000
,
1300
0001
0010
0001
1000
0010
1000
0001
0100
0010
1000
0001
0100
0001
1000
0010
,
1000
0100
0010
0001
0100
0010
1000
0001
0100
0001
1000
0001
0010
0100
1000
0001
,
0100
0010
0100
0001
1000
0100
1000
0001
0010
0100
0010
0001
1000
0100
1000
0001
,
0100
0001
0010
0100
1000
0001
0010
0001
1000
0010
0100
0001
1000
0010
1000
0001
,
0010
0001
1000
0100
1000
0001
0100
0001
1000
0010
1000
0001
0010
0100
0010
0001
,
0100
0001
1000
0100
0010
0001
1000
0100
1000
0001
0010
0001
1000
0010
1000
0001
,
0010
0001
1000
0100
1000
0001
0100
0001
0040
0000
0000
0000
0000
0000
0000
0000
,
0000
0000
0000
0000
,
0032
0000
1000
1003
1001
0000
0000
0000
,
0000
0000
1000
0000
0100
0000
1000
0000
0001
0000
1000
0000
,
0010
0000
0100
0010
0110
0000
0000
0000
,
0000
0000
0010
0000
1000
0000
0100
0000
0010
0000
0100
0000
,
1000
0000
0001
1000
1001
0000
0000
0000
,
0000
0000
1000
0000
0100
0000
1000
0000
0001
0000
1000
0000
,
0010
0000
0100
0010
0110
0000
0000
0000
,
0000
0000
0010
0000
1000
0000
0100
0000
0010
0000
0100
0000
,
1000
0000
0001
0010
1001
0000
1000
0000
,
0000
0000
0001
0000
0100
0000
0100
0000
0010
0000
0010
0000
,
1000
0000
0001
0010
0110
0000
1000
0000
,
0000
0000
0010
0000
0100
0000
0100
0000
0001
0000
0001
0000
,
1000
0000
0100
0010
0110
0000
1000
0000
,
0000
0000
0010
0000
0100
0000
0100
0000
0001
0000
0001
0000
,
1000
0000
0001
1000
1100
0000
0010
0000
,
0001
0000
1000
1000
1001
0000
0100
0000
,
0001
0000
1000
0000
0100
0000
0010
0001
1000
0000
0001
0000
0100
0000
0010
0000
,
1000
0000
0001
0000
1000
0100
1000
0100
0010
0000
0001
0000
0001
0000
0010
0000
,
0001
0000
1000
0100
1000
0000
0000
0000
0001
0000
1000
0100
1000
0000
0000
0000
,
0010
0000
0100
0001
1000
0000
0001
0000
0010
0000
0100
0000
1000
0000
1000
0000
,
0001
0100
0010
0100
0001
0000
1000
0000
0100
0000
0010
0000
0001
0000
1000
0001
,
0100
0010
1000
0000
0001
0010
0100
0000
,
0010
0001
0010
0001
1000
0000
0010
0000
0100
0001
0100
0001
1000
0000
0100
0010
,
0001
0000
1000
0000
0010
0000
1000
0000
0001
0000
0001
0000
1000
0100
1000
0001
,
0100
0000
0010
0000
1000
0000
0001
0010
0100
0000
0010
0000
0001
0000
1000
0000
,
0010
0000
0100
0000
0001
0100
0001
0100
0010
0000
1000
0000
1000
0000
0001
0000
,
0100
0000
0010
1000
0001
0000
0000
0000
0100
0000
0010
1000
0001
0000
0000
0000
,
1000
0000
0100
0010
0001
0000
1000
0000
0010
0000
0100
0000
0001
0000
0001
0000
,
1000
0100
0010
0100
1000
0000
0001
0000
0100
0000
0010
0000
0100
0000
0001
1000
,
0100
0010
0100
0000
1000
0001
0100
0000
,
0010
1000
0010
1000
0001
0000
0010
0000
0100
1000
0100
1000
0001
0000
0100
0010
,
1000
0000
0001
0000
0010
0000
0100
0000
1000
0000
1000
0000
0001
1000
0001
0100
;

//---------------dance-single - ----------------
#NOTES:
     dance-single:
     :
     Hard:
     11:
     0.884,1,0.096,0.132,0.322:
0000
0000
0000
0000
,
0000
0000
0000
0000
,
1000
0001
0010
0001
1000
0010
0100
0001
,
0100
0000
0010
0000
1000
0000
0001
0000
1000
0000
0100
0010
0001
0000
1000
0000
,
0010
1000
0001
0100
0001
1000
0010
0010
,
1000
0000
0001
0000
0010
0000
0100
0000
1000
0000
0010
0000
0100
0000
0001
0010
,
0100
1000
0010
0100
0010
1000
0001
0010
,
0001
0000
1000
0000
0001
0000
0100
0000
0010
0000
1000
0000
0001
0000
1000
0001
,
0100
0000
0101
0000
,
0110
0000
1010
1100
,
1000
0010
0100
0001
1000
0010
1000
0001
,
0010
0000
0100
0000
0010
0000
0001
0000
1000
0000
0010
1000
0001
0000
0010
0000
,
0100
0010
0001
1000
0001
0100
0010
0010
,
1000
0000
0001
0000
1000
0000
0100
0000
0010
0000
0001
0000
1000
0000
0010
0100
,
0001
1000
0001
1000
0001
0010
0001
1000
,
0001
0000
0010
0000
0100
0000
0010
0000
0001
0000
0001
0000
1000
0000
1000
0010
,
0100
0000
0101
0000
,
0011
0000
0010
0100
1000
0000
0001
0000
,
1000
0001
0100
0001
,
0010
0000
0001
0000
2002
0000
0000
3003
,
1000
0001
0100
0010
,
1000
0000
0010
0000
0220
0000
0000
0330
,
0100
0001
0010
0001
,
0100
0000
0010
0000
2020
0000
0000
3030
,
1000
0000
0001
0000
,
0100
0001
1001
0001
,
1000
0010
1000
0001
0010
0001
0010
0100
,
0010
0100
0010
0001
1000
0010
0100
0010
,
1000
0010
0100
0001
0100
0010
0100
0001
,
0010
0100
1000
0100
1000
0010
1000
0100
,
0010
0001
1000
0010
1000
0100
0010
0100
,
1000
0001
0100
0010
0100
0010
1000
0100
,
0010
0000
0100
0000
1000
0000
0010
0000
1000
0000
0001
0000
0001
0000
1000
0010
,
4000
0000
0000
0000
,
3001
0010
0100
0010
0100
1000
0001
0100
,
0010
0100
0001
0100
0010
1000
0010
0100
,
0010
1000
0100
0010
0001
0010
0001
0100
,
0001
0010
0100
1000
0001
0100
0001
0010
,
0100
0010
0001
1000
0010
0100
0010
0100
,
0001
0010
0100
0010
0001
0100
0001
1000
,
0001
0000
1000
0000
0001
0000
0010
0100
4000
0000
0000
0000
0000
0000
0000
0000
,
0000
0000
0000
0000
,
3001
0100
0010
0100
0001
0100
0001
1000
,
0001
1000
0001
0100
0010
1000
0001
1000
,
0010
1000
0001
0100
0001
1000
0001
0100
,
0001
1000
0010
1000
0010
0001
0010
1000
,
0001
0100
0010
0001
0010
1000
0001
1000
,
0010
0100
0001
1000
0001
1000
0010
1000
,
0001
0000
1000
0000
0010
0000
0001
0000
0010
0000
0100
0000
0010
0000
1000
0001
,
0040
0000
0000
0000
,
0031
1000
0001
1000
0001
0010
0100
1000
,
0001
1000
0100
1000
0001
0010
0001
1000
,
0001
0010
0001
1000
0001
0100
0010
0100
,
0001
1000
0010
0100
0010
1000
0100
0010
,
0100
0001
0100
0010
0001
1000
0001
1000
,
0100
1000
0010
0100
0010
1000
0001
1000
,
0100
0000
0010
0000
0100
0000
1000
0100
0040
0000
0000
0000
0000
0000
0000
0000
,
0000
0000
0000
0000
,
0230
0000
0301
1000
1001
0000
0000
0000
,
0000
0000
1000
0000
0001
0000
0010
0000
0001
0000
0100
0000
,
0010
0000
1000
0010
1000
0000
0000
0000
,
0000
0000
0100
0000
0010
0000
0001
0000
0001
0000
0100
0000
,
0010
0000
1000
0100
0010
0000
0000
0000
,
0000
0000
0001
0000
1000
0000
0100
0000
1000
0000
0010
0000
,
0100
0000
0100
0001
0100
0000
0000
0000
,
0000
0000
0010
0000
0100
0000
0001
0000
1000
0000
0010
0000
,
0100
0000
0001
0010
0100
0000
0000
0000
,
0000
0000
1000
0000
1000
0000
0100
0000
0010
0000
0001
0000
,
1000
0000
1000
0001
0100
0000
0000
0000
,
0000
0000
0001
0000
0010
0000
0100
0000
1000
0000
0001
0000
,
0010
0000
0010
0100
0010
0000
0000
0000
,
0000
0000
0001
0000
1000
0000
0010
0000
0100
0000
0001
0000
,
0010
0000
0010
0001
1000
0000
0010
0000
,
0100
0000
0001
0010
0100
0000
1000
0010
,
0010
0100
0001
1000
0010
1000
0001
0010
,
0100
0000
1000
0000
0001
0000
0100
0000
0001
0000
1000
0100
0010
0000
0100
0000
,
1000
0001
0100
0010
1000
0001
1000
1000
,
0100
0000
0010
0000
0100
0000
1000
0000
0001
0000
0100
0000
0010
0000
1000
0001
,
0010
0100
0010
1000
0010
0100
1000
0001
,
0100
0000
0001
0000
1000
0000
0001
0000
0100
0000
0100
0000
0001
0000
0001
1000
,
0010
0000
0000
0000
0100
0000
0001
0000
1000
0000
0000
0000
0100
0000
0010
0001
,
1000
0000
0001
0000
0100
0000
0010
0000
1000
0001
0010
0000
0100
0000
1000
0000
,
0001
0000
0100
0010
1000
0000
0001
0000
,
0010
0100
1000
0000
2200
0000
0000
3300
,
0100
0000
0010
0001
1000
0000
0010
0000
,
0100
0001
1000
0000
2002
0000
0000
3003
,
0001
0000
0010
0100
1000
0000
0001
0000
,
0100
0010
1000
0000
2020
0000
0000
3030
,
1000
0000
0001
0000
,
1000
0001
0110
0001
,
1000
0010
1000
0001
0010
0001
0010
0100
,
0010
0100
0010
0001
1000
0010
0100
0010
,
1000
0010
0100
0001
0100
0010
0100
0001
,
0010
0100
1000
0100
1000
0010
1000
0100
,
0010
0001
1000
0010
1000
0100
0010
0100
,
1000
0001
0100
0010
0100
0010
1000
0100
,
0010
0000
0100
0000
1000
0000
0010
0000
1000
0000
0001
0000
0001
0000
1000
0010
,
4000
0000
0000
0000
,
3001
0010
0100
0010
0100
1000
0001
0100
,
0010
0100
0001
0100
0010
1000
0010
0100
,
0010
1000
0100
0010
0001
0010
0001
0100
,
0001
0010
0100
1000
0001
0100
0001
0010
,
0100
0010
0001
1000
0010
0100
0010
0100
,
0001
0010
0100
0010
0001
0100
0001
1000
,
0001
0000
1000
0000
0001
0000
0010
0100
4000
0000
0000
0000
0000
0000
0000
0000
,
0000
0000
0000
0000
,
3001
0100
0010
0100
0001
0100
0001
1000
,
0001
1000
0001
0100
0010
1000
0001
1000
,
0010
1000
0001
0100
0001
1000
0001
0100
,
0001
1000
0010
1000
0010
0001
0010
1000
,
0001
0100
0010
0001
0010
1000
0001
1000
,
0010
0100
0001
1000
0001
1000
0010
1000
,
0001
0000
1000
0000
0010
0000
0001
0000
0010
0000
0100
0000
0010
0000
1000
0001
,
0040
0000
0000
0000
,
0031
1000
0001
1000
0001
0010
0100
1000
,
0001
1000
0100
1000
0001
0010
0001
1000
,
0001
0010
0001
1000
0001
0100
0010
0100
,
0001
1000
0010
0100
0010
1000
0100
0010
,
0100
0001
0100
0010
0001
1000
0001
1000
,
0100
1000
0010
0100
0010
1000
0001
1000
,
0100
0000
0010
0000
0100
0000
1000
0100
0040
0000
0000
0000
0000
0000
0000
0000
,
0000
0000
0000
0000
,
0230
0000
0301
1000
1001
0000
0000
0000
,
0000
0000
1000
0000
0001
0000
0010
0000
0001
0000
0100
0000
,
0010
0000
1000
0010
1000
0000
0000
0000
,
0000
0000
0100
0000
0010
0000
0001
0000
0001
0000
0100
0000
,
0010
0000
1000
0100
0010
0000
0000
0000
,
0000
0000
0001
0000
1000
0000
0100
0000
1000
0000
0010
0000
,
0100
0000
0100
0001
0100
0000
0000
0000
,
0000
0000
0010
0000
0100
0000
0001
0000
1000
0000
0010
0000
,
0100
0000
0001
0010
0100
0000
0000
0000
,
0000
0000
1000
0000
1000
0000
0100
0000
0010
0000
0001
0000
,
1000
0000
1000
0001
0100
0000
0000
0000
,
0000
0000
0001
0000
0010
0000
0100
0000
1000
0000
0001
0000
,
0010
0000
0010
0100
0010
0000
0000
0000
,
0000
0000
0001
0000
1000
0000
0010
0000
0100
0000
0001
0000
,
0010
0000
0010
0001
1000
0000
0010
0000
,
0100
0000
0001
0010
0100
0000
1000
0010
,
1000
0000
0001
0000
0010
0000
0100
1000
0001
0000
1000
0000
0010
0000
0100
0000
,
0001
0000
1000
0000
0001
0010
0001
0010
0100
0000
1000
0000
1000
0000
0100
0000
,
1000
0000
0001
0010
0001
0000
0000
0000
1000
0000
0001
0010
0001
0000
0000
0000
,
0100
0000
0010
1000
0001
0000
1000
0000
0100
0000
0010
0000
0001
0000
0001
0000
,
1000
0010
0100
0010
1000
0000
0001
0000
0010
0000
0100
0000
1000
0000
0001
1000
,
0010
0100
0001
0000
1000
0100
0010
0000
,
0100
1000
0100
1000
0001
0000
0100
0000
0010
1000
0010
1000
0001
0000
0010
0100
,
1000
0000
0001
0000
0100
0000
0001
0000
1000
0000
1000
0000
0001
0010
0001
1000
,
0010
0000
0100
0000
0001
0000
1000
0100
0010
0000
0100
0000
1000
0000
0001
0000
,
0100
0000
0010
0000
1000
0010
1000
0010
0100
0000
0001
0000
0001
0000
1000
0000
,
0010
0000
0100
0001
1000
0000
0000
0000
0010
0000
0100
0001
1000
0000
0000
0000
,
0001
0000
0010
0100
1000
0000
0001
0000
0100
0000
0010
0000
1000
0000
1000
0000
,
0001
0010
0100
0010
0001
0000
1000
0000
0010
0000
0100
0000
0010
0000
1000
0001
,
0010
0100
0010
0000
0001
1000
0010
0000
,
0100
0001
0100
0001
1000
0000
0100
0000
0010
0001
0010
0001
1000
0000
0010
0100
,
0001
0000
1000
0000
0100
0000
0010
0000
0001
0000
0001
0000
1000
0001
1000
0010
;
