#TITLE:Broken Diamonds;
#ARTIST:Lord Of Sp33d;
#BANNER:diamonds-bn.png;
#BACKGROUND:diamonds-bg.png;
#MUSIC:broken diamonds - lord of sp33d.ogg;
#OFFSET:-0.175;
#SAMPLESTART:120.2;
#SAMPLELENGTH:12;
#BPMS:0=200;

//---------------dance-single----------------
#NOTES:
     dance-single:
     :
     Medium:
     7:
     0.453,0.488,0.006,0.062,0.012:
0000
0000
0000
0000
,
0000
0000
0000
0000
,
0000
0000
0000
0000
,
0000
0000
0000
0000
,
0000
0000
0000
0000
,
0000
0000
0000
0000
,
0000
0000
0000
0000
,
0000
0000
0000
0000
,
0000
0000
0000
0000
,
0000
0001
0100
0001
,
0010
0001
1000
0001
,
0100
0001
0010
0001
,
0100
0010
1000
0001
,
1000
0010
0100
0001
,
1000
0100
0010
0100
,
0010
0001
1000
0010
,
0100
0010
0100
0010
,
1000
0001
1000
0100
,
0010
0001
1000
0010
,
1000
0001
1000
0100
,
1000
0010
0100
0001
,
1000
0001
0100
0001
,
0010
0100
0010
0100
,
1000
0001
1000
0100
,
1000
0010
0100
0001
,
1000
0010
1000
0010
,
0100
0001
1000
0001
,
1000
0100
1000
0010
,
0100
0010
1000
0001
,
0010
0001
1000
0010
1000
0000
0010
0000
,
0100
0010
0100
0010
,
1000
0001
0010
0001
1000
0000
0100
0000
,
1000
0010
1000
0100
,
1000
0001
1000
0010
0100
0000
0010
0000
,
0100
0001
1000
0001
,
0001
0100
0010
1000
0100
0000
0010
0000
,
0001
1000
0001
0100
,
0010
1000
0010
0100
,
0001
0010
0100
1000
,
0100
1000
0001
0010
,
0100
1000
0001
0100
,
0001
1000
0100
1000
,
0001
0100
0010
0100
,
0100
0001
0001
0100
,
0100
0010
1000
0010
,
1000
0001
0010
0001
1000
0000
0100
0000
,
0010
0001
0100
0010
,
1000
0001
1000
0100
0010
0000
0001
0000
,
0010
0100
0010
0001
,
0001
0100
0001
0010
0001
0000
1000
0000
,
1000
0100
0010
0001
,
1000
0001
1000
0010
0100
0000
0100
0000
,
0001
0001
0010
0100
,
1000
0100
0010
0100
1000
0000
0010
0000
,
1000
0010
1000
0100
,
1000
0001
1000
0010
0100
0000
0001
0000
,
0100
0010
0100
0001
,
0001
1000
0100
0010
0100
0000
0010
0000
,
0100
0100
0010
0001
,
1000
0001
1000
0010
1000
0000
0100
0000
,
1000
0010
1000
0001
,
1000
0010
1000
0010
,
1000
0010
0100
0001
,
0100
0010
0100
0001
,
1000
0100
0010
0100
,
1000
0001
1000
0010
,
0100
0010
1000
0001
,
0010
0100
1000
0010
,
0100
0010
1000
0100
,
0010
0001
0100
0010
1000
0000
0010
0000
,
1000
0100
0010
0001
,
1000
0001
1000
0010
1000
0000
0001
0000
,
0010
0001
0001
0100
,
0001
1000
0100
0010
0001
0000
0010
0000
,
0100
0100
0010
0001
,
1000
0001
1000
0010
0100
0000
0010
0000
,
1000
0001
0010
0100
,
1000
0001
0100
0000
0010
0000
1000
0000
,
0100
1000
0010
0100
,
0010
1000
0100
0000
0010
0000
0001
0000
,
0100
0010
0100
0001
,
1000
0100
0010
0000
0010
0001
0000
0000
,
0100
0010
1000
0100
,
0010
0001
1000
0100
,
1000
0010
1000
0100
,
0010
0100
1000
0010
,
1000
0001
0010
0001
,
1000
0010
0100
0010
,
1000
0001
0010
0010
,
0001
0100
0100
0001
,
0010
0001
1000
0001
,
0100
0200
0000
0000
,
0000
0000
0000
0000
,
0000
0000
0000
0000
,
0300
0000
0001
0010
0000
0000
0001
0000
,
0000
0001
0000
0001
,
0000
1000
0000
0001
,
1000
0100
0000
2002
,
3003
0001
1000
0001
,
0000
0001
0000
0010
,
0001
1000
0001
0000
1000
0001
0000
0000
,
0001
0000
1000
0001
1000
0000
0001
1000
,
0001
0000
0200
0000
0000
0300
0000
0000
,
0000
0000
0001
0001
,
0000
2000
0000
3000
,
0000
0000
0000
0010
,
0000
0100
0020
0000
0000
0000
1030
0000
,
0000
1000
0002
0000
0000
0000
0003
0000
,
1000
0000
0001
2000
0000
0000
0000
0000
,
0000
0000
0000
3000
0000
0000
0001
0000
0000
0000
0100
0000
0000
0000
0010
0000
0000
0000
0100
0000
0000
0000
0001
0000
,
0000
0000
1000
0000
0000
0000
0001
0000
0000
0010
0000
0000
0001
0000
0000
0000
0000
0000
0010
0000
0000
0000
0000
0000
,
0100
0100
0010
0010
,
0010
0000
0010
0001
0010
0000
0001
0000
,
0001
0001
0010
0100
,
0100
0000
0100
1000
0010
0000
0010
0000
,
0010
0100
0100
0100
,
0100
0000
0010
0100
0010
0000
0100
0000
,
0001
0001
0010
0002
,
0000
0000
1003
0001
0100
0000
0010
0000
,
1000
0100
0010
0100
,
1000
0000
0001
1000
0010
0000
0100
0000
,
0010
0010
1000
0001
,
0010
0000
0100
0010
0100
0000
1000
0000
,
0010
1000
0100
0100
,
1000
0000
0100
1000
0100
0000
1000
0000
,
1000
0010
0010
1000
,
0010
0000
1000
0010
1000
0000
0100
0000
,
1000
1000
1000
0010
,
0100
0000
0100
0001
1000
0000
0001
0000
,
0001
2000
0000
0000
,
0000
3001
0000
0000
;

//---------------dance-single----------------
#NOTES:
     dance-single:
     :
     Easy:
     4:
     0.291,0.366,0.006,0.062,0.012:
0000
0000
0000
0000
,
0000
0000
0000
0000
,
0000
0000
0000
0000
,
0000
0000
0000
0000
,
0000
0000
0000
0000
,
0000
0000
0000
0000
,
0000
0000
0000
0000
,
0000
0000
0000
0000
,
0000
0000
0000
0000
,
0000
0001
0000
1000
,
0000
0001
0000
1000
,
0001
1000
0000
0001
,
0000
0010
0000
0001
,
1000
0010
0000
0100
,
0000
0010
0000
0100
,
0001
0001
0000
0010
,
0000
0100
0000
0010
,
0001
1000
0000
0100
,
0000
0010
0000
0100
,
1000
0001
0000
0100
,
0000
0010
0000
0100
,
0001
1000
0000
0001
,
0000
0100
0000
0010
,
0100
0001
0000
1000
,
0000
0100
0000
0010
,
0100
1000
0000
0010
,
0000
0100
0000
0010
,
1000
0001
0000
0010
,
0000
0100
0000
0010
,
0001
1000
0010
0100
,
0000
0010
0000
0010
,
1000
0010
1000
0100
,
0000
0010
0000
0100
,
1000
0100
0010
0001
,
0000
1000
0000
0001
,
0010
0100
0010
0001
,
0000
1000
0000
0100
,
1000
0001
0000
0100
,
0000
0010
0000
1000
,
0100
1000
0000
0010
,
0000
1000
0000
0100
,
1000
0001
0000
1000
,
0000
0100
0000
0010
,
0100
1000
0000
0010
,
0000
0100
0000
0010
,
1000
0001
1000
0100
,
0000
0010
0000
0100
,
1000
0001
0010
0001
,
0000
0100
0000
0010
,
0100
0001
1000
0100
,
0000
0010
0000
0001
,
1000
0001
0100
0010
,
0000
1000
0000
0001
,
1000
0010
0100
0010
,
0000
1000
0000
0100
,
0010
0100
1000
0001
,
0000
0010
0000
0001
,
1000
0100
0010
0100
,
0000
1000
0000
0001
,
1000
0010
0100
0010
,
0000
1000
0000
0001
,
0100
0010
0000
0100
,
0000
0010
0000
0100
,
0010
1000
0000
0001
,
0000
0100
0000
0001
,
1000
0100
0000
0010
,
0000
0100
0000
0010
,
0100
1000
0000
0010
,
0000
0100
0000
0010
,
0100
0001
1000
0100
,
0000
0010
0000
0001
,
1000
0001
1000
0001
,
0000
0100
0000
0010
,
0100
0001
1000
0100
,
0000
0010
0000
0001
,
1000
0001
0100
0010
,
0000
1000
0000
0100
,
0010
0100
0000
1000
,
0000
0010
0000
0100
,
0010
0100
0000
0010
,
0000
1000
0000
0001
,
1000
0000
0010
0000
0000
0100
0000
0000
,
0010
1000
0001
0010
,
0001
1000
0000
0001
,
0000
0010
0000
0100
,
0010
0100
0000
1000
,
0000
0001
0000
1000
,
0010
0100
0000
0010
,
0000
0100
0000
0010
,
1000
0100
0000
0010
,
0000
0001
0000
1000
,
0001
0200
0000
0000
,
0000
0000
0000
0000
,
0000
0000
0000
0000
,
0300
0000
0001
0010
0000
0000
0001
0000
,
0000
0001
0000
0001
,
0000
1000
0000
0001
,
1000
0100
0000
2002
,
3003
0001
1000
0001
,
0000
0001
0000
0010
,
0001
0000
0001
0000
1000
0001
0000
0000
,
0001
1000
1000
0001
,
0001
0000
0200
0000
0000
0300
0000
0000
,
0000
0000
0001
0001
,
0000
2000
0000
3000
,
0000
0000
0000
0010
,
0000
0020
0000
1030
,
0000
0002
0000
0003
,
1000
0000
0001
2000
0000
0000
0000
0000
,
0000
0000
0000
3000
0000
0000
0001
0000
0000
0000
1000
0000
0000
0000
0001
0000
0000
0000
1000
0000
0000
0000
0001
0000
,
0000
1000
0000
0001
0000
0000
0001
0000
0000
0010
0000
0000
,
0000
0100
0000
0010
,
0000
0010
0010
0001
,
0000
0001
0000
0100
,
0000
0100
0010
0010
,
0000
0100
0000
0100
,
0000
0010
0010
0100
,
0000
0001
0000
0002
,
0000
1003
0100
0010
,
0000
0100
0000
0100
,
0000
0010
0010
0100
,
0000
0010
0000
0001
,
0000
0100
0100
0010
,
0000
1000
0000
0100
,
0000
0100
0100
1000
,
0000
0010
0000
1000
,
0000
1000
1000
0100
,
0000
1000
0000
0010
,
0000
0100
0001
0001
,
0000
2000
0000
0000
,
0000
3001
0000
0000
;

//---------------dance-single----------------
#NOTES:
     dance-single:
     :
     Beginner:
     2:
     0.138,0.244,0,0.044,0:
0000
0000
0000
0000
,
0000
0000
0000
0000
,
0000
0000
0000
0000
,
0000
0000
0000
0000
,
0000
0000
0000
0000
,
0000
0000
0000
0000
,
0000
0000
0000
0000
,
0000
0000
0000
0000
,
0000
0000
0000
0000
,
0000
0001
0000
0100
,
0000
0001
0000
0000
,
0000
1000
0000
0000
,
0000
0010
0000
0000
,
0000
0010
0000
0100
,
0000
0010
0000
0000
,
0000
1000
0000
0000
,
0000
0100
0000
0000
,
0000
1000
0000
0010
,
0000
0010
0000
0000
,
0000
0100
0000
0000
,
0000
0010
0000
0000
,
0000
1000
0000
0010
,
0000
0100
0000
0000
,
0000
0001
0000
0000
,
0000
0100
0000
0000
,
0000
0010
0000
0100
,
0000
0100
0000
0000
,
0000
0001
0000
0000
,
0000
0100
0000
0000
,
0000
0010
0000
0100
,
0000
0010
0000
0000
,
0000
0010
0000
0000
,
0000
1000
0000
0000
,
0000
0001
0000
1000
,
0000
1000
0000
0000
,
0000
0100
0000
0000
,
0000
1000
0000
0000
,
0000
0001
0000
0010
,
0000
0010
0000
0000
,
0000
0001
0000
0000
,
0000
1000
0000
0000
,
0000
0001
0000
0100
,
0000
0100
0000
0000
,
0000
0010
0000
0000
,
0000
0100
0000
0000
,
0000
0001
0000
0001
,
0000
0010
0000
0000
,
0000
0001
0000
0000
,
0000
0100
0000
0000
,
0000
0001
0000
0010
,
0000
0010
0000
0000
,
0000
0001
0000
0000
,
0000
1000
0000
0000
,
0000
0010
0000
1000
,
0000
1000
0000
0000
,
0000
0100
0000
0000
,
0000
0010
0000
0000
,
0000
0100
0000
1000
,
0000
1000
0000
0000
,
0000
0010
0000
0000
,
0000
1000
0000
0000
,
0000
0010
0000
0100
,
0000
0010
0000
0000
,
0000
1000
0000
0000
,
0000
0100
0000
0000
,
0000
0100
0000
0010
,
0000
0100
0000
0000
,
0000
1000
0000
0000
,
0000
0100
0000
0000
,
0000
1000
0000
0010
,
0000
0010
0000
0000
,
0000
1000
0000
0000
,
0000
0100
0000
0000
,
0000
1000
0000
0010
,
0000
0010
0000
0000
,
0000
1000
0000
0000
,
0000
1000
0000
0000
,
0000
0100
0000
0010
,
0000
0010
0000
0000
,
0000
0100
0000
0000
,
0000
1000
0000
0000
,
0000
0010
0000
0100
,
0000
0001
0000
0000
,
0000
1000
0000
0000
,
0000
0010
0000
0000
,
0000
0100
0000
0001
,
0000
0001
0000
0000
,
0000
0100
0000
0000
,
0000
0100
0000
0000
,
0000
0100
0000
0010
,
0000
1000
0000
0000
,
0000
0200
0000
0000
,
0000
0000
0000
0000
,
0000
0000
0000
0000
,
0300
1000
0000
0000
,
0000
0001
0000
0000
,
0000
1000
0000
0000
,
0000
0100
0000
0000
,
0000
0010
0000
0000
,
0000
0001
0000
0000
,
0000
0001
0000
0000
,
0000
1000
0000
0000
,
0000
0000
0200
0000
0000
0300
0000
0000
,
0000
1000
0000
0000
,
0000
2000
0000
3000
,
0000
0010
0000
0000
,
0000
0020
0000
0030
,
0000
0200
0000
0300
,
0000
0200
0000
0300
,
0000
0001
1000
0001
,
1000
0001
0000
0000
,
0000
0100
0000
0000
,
0000
0010
0000
0000
,
0000
1000
0000
0100
,
0000
0100
0000
0000
,
0000
0100
0000
0000
,
0000
0010
0000
0000
,
0000
0001
0000
1000
,
0000
1000
0000
0000
,
0000
0100
0000
0000
,
0000
0010
0000
0000
,
0000
0010
0000
0010
,
0000
0100
0000
0000
,
0000
1000
0000
0000
,
0000
0100
0000
0000
,
0000
0010
0000
0001
,
0000
1000
0000
0000
,
0000
1000
0000
0000
,
0000
0100
0000
0000
,
0000
2000
0000
0000
,
0000
3001
0000
0000
;

//---------------dance-single - Rynker & Aoreo----------------
#NOTES:
     dance-single:
     Rynker & Aoreo:
     Challenge:
     15:
     1,1,0.006,0.150,1:
0000
0000
0000
0000
,
0000
0000
0000
0000
,
0000
0000
0000
0000
,
0000
0000
0000
0000
,
0000
0000
0000
0000
,
0000
0000
0000
0000
,
0000
0000
0000
0000
,
0000
0000
0000
0000
,
0000
0000
0000
0000
,
0000
0000
0000
0000
0001
0100
0010
0100
0001
1000
0100
0010
0001
0010
0100
1000
,
0001
1000
0001
0100
0010
0100
0001
1000
0100
0010
0001
1000
0001
0100
0010
1000
,
0100
0010
0100
1000
0010
1000
0001
0010
0100
1000
0100
0010
0001
0100
0010
1000
,
0100
1000
0001
0010
0001
1000
0010
1000
0100
0010
0001
0100
0001
0010
0100
1000
,
0100
0010
0001
1000
0001
0100
0010
0100
0001
1000
0100
0010
0001
1000
0001
0100
,
0010
0100
0001
0010
0100
1000
0100
0010
0001
1000
0010
0100
0001
0010
0001
1000
,
0001
0100
0010
0100
0001
0010
0100
1000
0100
0010
0001
1000
0010
0100
0010
1000
,
0100
0010
0001
1000
0001
0000
0100
0000
0001
0000
0010
0000
0100
0000
1000
0000
,
0010
0100
0001
0000
1000
0000
0100
0000
,
0010
0001
1000
0020
,
2030
0000
3004
0000
1003
0100
1000
0001
0100
0010
1000
0100
0010
0100
1000
0001
,
1000
0010
0100
0010
1000
0001
0010
0100
0010
0001
0100
0010
1000
0001
0100
0010
,
1000
0001
0010
0100
1000
0100
0010
0001
1000
0010
0100
0010
1000
0001
0010
0100
,
0010
0001
0100
0010
1000
0010
0100
0001
1000
0001
0010
0100
1000
0100
0010
0001
,
1000
0010
0100
0010
1000
0001
0100
0010
1000
0100
0010
0001
0010
0100
1000
0001
,
1000
0010
0100
0010
1000
0001
0010
0100
0010
0001
0100
0010
0100
0001
1000
0001
,
0010
0001
1000
0100
1000
0001
1000
0010
1000
0100
1000
0001
0100
0001
1000
0010
,
0100
0001
0010
0001
0100
0001
1000
0001
0010
0001
0100
0001
1000
0100
0010
0100
,
1000
0001
0100
0010
1000
0000
0010
0000
0100
0000
0001
0000
1000
0000
0100
0000
,
0010
0100
1000
0010
0100
0001
1000
0100
,
1000
0000
0000
0000
0000
0000
0000
0000
0000
0000
0001
0000
0000
0000
0000
0000
0000
0000
0000
1000
0000
0000
0000
0000
0000
0000
0000
0000
0000
0100
0000
0000
0000
0000
0000
0000
0000
0000
0010
0000
0000
0000
0000
0000
0000
0000
0000
0000
0001
0000
0000
0000
0000
0000
0000
0000
0000
0000
0000
0000
0000
0000
0000
0000
0000
0000
0000
0000
0000
0000
0000
0000
1000
0000
0000
0000
0000
0000
0000
0000
0000
0000
0000
0000
0000
0000
0000
0000
0000
0000
0000
0000
0000
0000
0000
0000
0001
0000
0000
0000
0000
0000
0000
0000
0000
0000
0000
0000
0000
0000
0000
0000
0000
0000
0000
0000
0000
0000
0000
0000
0100
0000
0000
0000
0000
0000
0000
0000
0000
0000
0000
0000
0000
0000
0000
0000
0000
0000
0000
0000
0000
0000
0000
0000
0010
0000
0000
0000
0000
0000
0000
0000
0000
0000
0000
0000
0000
0000
0000
0000
0000
0000
0000
0000
0000
0000
0000
0000
0100
0000
0000
0000
0000
0000
0000
0000
0000
0000
0000
0000
0000
0000
0000
0000
0000
0000
0000
0000
0000
0000
0000
0000
,
0001
1000
0100
0010
0100
1000
0010
0100
,
0001
0000
0000
0000
0000
0000
0000
0000
0000
0000
1000
0000
0000
0000
0000
0000
0000
0000
0000
0001
0000
0000
0000
0000
0000
0000
0000
0000
0000
0010
0000
0000
0000
0000
0000
0000
0000
0000
0100
0000
0000
0000
0000
0000
0000
0000
0000
0000
1000
0000
0000
0000
0000
0000
0000
0000
0000
0000
0000
0000
0000
0000
0000
0000
0000
0000
0000
0000
0000
0000
0000
0000
0100
0000
0000
0000
0000
0000
0000
0000
0000
0000
0000
0000
0000
0000
0000
0000
0000
0000
0000
0000
0000
0000
0000
0000
1000
0000
0000
0000
0000
0000
0000
0000
0000
0000
0000
0000
0000
0000
0000
0000
0000
0000
0000
0000
0000
0000
0000
0000
0010
0000
0000
0000
0000
0000
0000
0000
0000
0000
0000
0000
0000
0000
0000
0000
0000
0000
0000
0000
0000
0000
0000
0000
0100
0000
0000
0000
0000
0000
0000
0000
0000
0000
0000
0000
0000
0000
0000
0000
0000
0000
0000
0000
0000
0000
0000
0000
0001
0000
0000
0000
0000
0000
0000
0000
0000
0000
0000
0000
0000
0000
0000
0000
0000
0000
0000
0000
0000
0000
0000
0000
,
1000
0100
0010
0100
1000
0001
0100
0010
,
1000
0000
0000
0000
0000
0000
0000
0000
0000
0000
0001
0000
0000
0000
0000
0000
0000
0000
0000
1000
0000
0000
0000
0000
0000
0000
0000
0000
0000
0100
0000
0000
0000
0000
0000
0000
0000
0000
0010
0000
0000
0000
0000
0000
0000
0000
0000
0000
0001
0000
0000
0000
0000
0000
0000
0000
0000
0000
0000
0000
0000
0000
0000
0000
0000
0000
0000
0000
0000
0000
0000
0000
0100
0000
0000
0000
0000
0000
0000
0000
0000
0000
0000
0000
0000
0000
0000
0000
0000
0000
0000
0000
0000
0000
0000
0000
0001
0000
0000
0000
0000
0000
0000
0000
0000
0000
0000
0000
0000
0000
0000
0000
0000
0000
0000
0000
0000
0000
0000
0000
0010
0000
0000
0000
0000
0000
0000
0000
0000
0000
0000
0000
0000
0000
0000
0000
0000
0000
0000
0000
0000
0000
0000
0000
0100
0000
0000
0000
0000
0000
0000
0000
0000
0000
0000
0000
0000
0000
0000
0000
0000
0000
0000
0000
0000
0000
0000
0000
1000
0000
0000
0000
0000
0000
0000
0000
0000
0000
0000
0000
0000
0000
0000
0000
0000
0000
0000
0000
0000
0000
0000
0000
,
0010
1000
0100
0010
0001
1000
0001
0100
,
0001
0000
0000
0000
0000
0000
0000
0000
0000
0000
0100
0000
0000
0000
0000
0000
0000
0000
0000
0010
0000
0000
0000
0000
0000
0000
0000
0000
0000
1000
0000
0000
0000
0000
0000
0000
0000
0000
0001
0000
0000
0000
0000
0000
0000
0000
0000
0000
1000
0000
0000
0000
0000
0000
0000
0000
0000
0000
0000
0000
0000
0000
0000
0000
0000
0000
0000
0000
0000
0000
0000
0000
0000
0000
0000
0000
0000
0000
0000
0000
0000
0000
0000
0000
0000
0000
0000
0000
0000
0000
0000
0000
0000
0000
0000
0000
0100
0000
0000
0000
0000
0000
0000
0000
0000
0000
0000
0000
0000
0000
0000
0000
0000
0000
0000
0000
0000
0000
0000
0000
0000
0000
0000
0000
0000
0000
0000
0000
0000
0000
0000
0000
0000
0000
0000
0000
0000
0000
0000
0000
0000
0000
0000
0000
0010
0000
0000
0000
0000
0000
0000
0000
0000
0000
0000
0000
0000
0000
0000
0000
0000
0000
0000
0000
0000
0000
0000
0000
0000
0000
0000
0000
0000
0000
0000
0000
0000
0000
0000
0000
0000
0000
0000
0000
0000
0000
0000
0000
0000
0000
0000
0000
,
0001
1000
0001
0200
,
0310
1000
0002
0000
1003
0000
0010
0000
,
0100
0001
0010
0200
,
2300
0001
3200
0000
0301
0000
0010
0000
,
0100
1000
0001
0100
,
0001
0001
1000
0000
0100
1000
0000
0000
,
0001
0000
0000
0000
0100
0000
0000
0000
0010
1000
0001
1000
0100
0010
0100
1000
,
0010
0100
0010
1000
0001
0000
0100
0000
0001
0000
1000
0000
0100
0000
0010
0000
,
0100
1000
0010
0100
0001
1000
0010
0100
,
0001
0000
0000
0000
0000
0000
0000
0000
0000
0000
1000
0000
0000
0000
0000
0000
0000
0000
0000
0100
0000
0000
0000
0000
0000
0000
0000
0000
0000
0010
0000
0000
0000
0000
0000
0000
0000
0000
0001
0000
0000
0000
0000
0000
0000
0000
0000
0000
1000
0000
0000
0000
0000
0000
0000
0000
0000
0000
0000
0000
0000
0000
0000
0000
0000
0000
0000
0000
0000
0000
0000
0000
0001
0000
0000
0000
0000
0000
0000
0000
0000
0000
0000
0000
0000
0000
0000
0000
0000
0000
0000
0000
0000
0000
0000
0000
0100
0000
0000
0000
0000
0000
0000
0000
0000
0000
0000
0000
0000
0000
0000
0000
0000
0000
0000
0000
0000
0000
0000
0000
0010
0000
0000
0000
0000
0000
0000
0000
0000
0000
0000
0000
0000
0000
0000
0000
0000
0000
0000
0000
0000
0000
0000
0000
0100
0000
0000
0000
0000
0000
0000
0000
0000
0000
0000
0000
0000
0000
0000
0000
0000
0000
0000
0000
0000
0000
0000
0000
0001
0000
0000
0000
0000
0000
0000
0000
0000
0000
0000
0000
0000
0000
0000
0000
0000
0000
0000
0000
0000
0000
0000
0000
,
0010
0100
1000
0001
0100
0010
0100
0001
,
1000
0000
0000
0000
0000
0000
0000
0000
0000
0000
0001
0000
0000
0000
0000
0000
0000
0000
0000
1000
0000
0000
0000
0000
0000
0000
0000
0000
0000
0100
0000
0000
0000
0000
0000
0000
0000
0000
0010
0000
0000
0000
0000
0000
0000
0000
0000
0000
0001
0000
0000
0000
0000
0000
0000
0000
0000
0000
0000
0000
0000
0000
0000
0000
0000
0000
0000
0000
0000
0000
0000
0000
0100
0000
0000
0000
0000
0000
0000
0000
0000
0000
0000
0000
0000
0000
0000
0000
0000
0000
0000
0000
0000
0000
0000
0000
0001
0000
0000
0000
0000
0000
0000
0000
0000
0000
0000
0000
0000
0000
0000
0000
0000
0000
0000
0000
0000
0000
0000
0000
0010
0000
0000
0000
0000
0000
0000
0000
0000
0000
0000
0000
0000
0000
0000
0000
0000
0000
0000
0000
0000
0000
0000
0000
0001
0000
0000
0000
0000
0000
0000
0000
0000
0000
0000
0000
0000
0000
0000
0000
0000
0000
0000
0000
0000
0000
0000
0000
1000
0000
0000
0000
0000
0000
0000
0000
0000
0000
0000
0000
0000
0000
0000
0000
0000
0000
0000
0000
0000
0000
0000
0000
,
0010
0100
0010
1000
0100
0010
0001
1000
,
0001
0000
0000
0000
0000
0000
0000
0000
0000
0000
0100
0000
0000
0000
0000
0000
0000
0000
0000
0001
0000
0000
0000
0000
0000
0000
0000
0000
0000
1000
0000
0000
0000
0000
0000
0000
0000
0000
0100
0000
0000
0000
0000
0000
0000
0000
0000
0000
0010
0000
0000
0000
0000
0000
0000
0000
0000
0000
0000
0000
0000
0000
0000
0000
0000
0000
0000
0000
0000
0000
0000
0000
0001
0000
0000
0000
0000
0000
0000
0000
0000
0000
0000
0000
0000
0000
0000
0000
0000
0000
0000
0000
0000
0000
0000
0000
0100
0000
0000
0000
0000
0000
0000
0000
0000
0000
0000
0000
0000
0000
0000
0000
0000
0000
0000
0000
0000
0000
0000
0000
0010
0000
0000
0000
0000
0000
0000
0000
0000
0000
0000
0000
0000
0000
0000
0000
0000
0000
0000
0000
0000
0000
0000
0000
1000
0000
0000
0000
0000
0000
0000
0000
0000
0000
0000
0000
0000
0000
0000
0000
0000
0000
0000
0000
0000
0000
0000
0000
0100
0000
0000
0000
0000
0000
0000
0000
0000
0000
0000
0000
0000
0000
0000
0000
0000
0000
0000
0000
0000
0000
0000
0000
,
1000
0001
0100
0001
0010
0100
1000
0001
,
1000
0000
0000
0000
0000
0000
0000
0000
0000
0000
0001
0000
0000
0000
0000
0000
0000
0000
0000
0010
0000
0000
0000
0000
0000
0000
0000
0000
0000
0100
0000
0000
0000
0000
0000
0000
0000
0000
1000
0000
0000
0000
0000
0000
0000
0000
0000
0000
0001
0000
0000
0000
0000
0000
0000
0000
0000
0000
0000
0000
0000
0000
0000
0000
0000
0000
0000
0000
0000
0000
0000
0000
1000
0000
0000
0000
0000
0000
0000
0000
0000
0000
0000
0000
0000
0000
0000
0000
0000
0000
0000
0000
0000
0000
0000
0000
0100
0000
0000
0000
0000
0000
0000
0000
0000
0000
0000
0000
0000
0000
0000
0000
0000
0000
0000
0000
0000
0000
0000
0000
0010
0000
0000
0000
0000
0000
0000
0000
0000
0000
0000
0000
0000
0000
0000
0000
0000
0000
0000
0000
0000
0000
0000
0000
0100
0000
0000
0000
0000
0000
0000
0000
0000
0000
0000
0000
0000
0000
0000
0000
0000
0000
0000
0000
0000
0000
0000
0000
1000
0000
0000
0000
0000
0000
0000
0000
0000
0000
0000
0000
0000
0000
0000
0000
0000
0000
0000
0000
0000
0000
0000
0000
,
0001
0100
0001
1000
0010
1000
0100
0010
,
0001
0000
0000
0000
0000
0000
0000
0000
0000
0000
1000
0000
0000
0000
0000
0000
0000
0000
0000
0100
0000
0000
0000
0000
0000
0000
0000
0000
0000
0010
0000
0000
0000
0000
0000
0000
0000
0000
0100
0000
0000
0000
0000
0000
0000
0000
0000
0000
1000
0000
0000
0000
0000
0000
0000
0000
0000
0000
0000
0000
0000
0000
0000
0000
0000
0000
0000
0000
0000
0000
0000
0000
0010
0000
0000
0000
0000
0000
0000
0000
0000
0000
0000
0000
0000
0000
0000
0000
0000
0000
0000
0000
0000
0000
0000
0000
0100
0000
0000
0000
0000
0000
0000
0000
0000
0000
0000
0000
0000
0000
0000
0000
0000
0000
0000
0000
0000
0000
0000
0000
0001
0000
0000
0000
0000
0000
0000
0000
0000
0000
0000
0000
0000
0000
0000
0000
0000
0000
0000
0000
0000
0000
0000
0000
0010
0000
0000
0000
0000
0000
0000
0000
0000
0000
0000
0000
0000
0000
0000
0000
0000
0000
0000
0000
0000
0000
0000
0000
0001
0000
0000
0000
0000
0000
0000
0000
0000
0000
0000
0000
0000
0000
0000
0000
0000
0000
0000
0000
0000
0000
0000
0000
,
1000
0100
0010
0001
1000
0001
0100
0010
,
1000
0000
0000
0000
0000
0000
0000
0000
0000
0000
0001
0000
0000
0000
0000
0000
0000
0000
0000
1000
0000
0000
0000
0000
0000
0000
0000
0000
0000
0100
0000
0000
0000
0000
0000
0000
0000
0000
0010
0000
0000
0000
0000
0000
0000
0000
0000
0000
0001
0000
0000
0000
0000
0000
0000
0000
0000
0000
0000
0000
0000
0000
0000
0000
0000
0000
0000
0000
0000
0000
0000
0000
0100
0000
0000
0000
0000
0000
0000
0000
0000
0000
0000
0000
0000
0000
0000
0000
0000
0000
0000
0000
0000
0000
0000
0000
0010
0000
0000
0000
0000
0000
0000
0000
0000
0000
0000
0000
0000
0000
0000
0000
0000
0000
0000
0000
0000
0000
0000
0000
0100
0000
0000
0000
0000
0000
0000
0000
0000
0000
0000
0000
0000
0000
0000
0000
0000
0000
0000
0000
0000
0000
0000
0000
0001
0000
0000
0000
0000
0000
0000
0000
0000
0000
0000
0000
0000
0000
0000
0000
0000
0000
0000
0000
0000
0000
0000
0000
0010
0000
0000
0000
0000
0000
0000
0000
0000
0000
0000
0000
0000
0000
0000
0000
0000
0000
0000
0000
0000
0000
0000
0000
,
0100
1000
0010
0100
0001
1000
0100
1000
,
0001
0000
0000
0000
0000
0000
0000
0000
0000
0000
1000
0000
0000
0000
0000
0000
0000
0000
0000
0100
0000
0000
0000
0000
0000
0000
0000
0000
0000
0010
0000
0000
0000
0000
0000
0000
0000
0000
0001
0000
0000
0000
0000
0000
0000
0000
0000
0000
1000
0000
0000
0000
0000
0000
0000
0000
0000
0000
0000
0000
0000
0000
0000
0000
0000
0000
0000
0000
0000
0000
0000
0000
0010
0000
0000
0000
0000
0000
0000
0000
0000
0000
0000
0000
0000
0000
0000
0000
0000
0000
0000
0000
0000
0000
0000
0000
1000
0000
0000
0000
0000
0000
0000
0000
0000
0000
0000
0000
0000
0000
0000
0000
0000
0000
0000
0000
0000
0000
0000
0000
0100
0000
0000
0000
0000
0000
0000
0000
0000
0000
0000
0000
0000
0000
0000
0000
0000
0000
0000
0000
0000
0000
0000
0000
0010
0000
0000
0000
0000
0000
0000
0000
0000
0000
0000
0000
0000
0000
0000
0000
0000
0000
0000
0000
0000
0000
0000
0000
0001
0000
0000
0000
0000
0000
0000
0000
0000
0000
0000
0000
0000
0000
0000
0000
0000
0000
0000
0000
0000
0000
0000
0000
,
0100
0010
0100
0001
0010
0100
1000
0001
,
1000
0000
0000
0000
0000
0000
0000
0000
0000
0000
0001
0000
0000
0000
0000
0000
0000
0000
0000
1000
0000
0000
0000
0000
0000
0000
0000
0000
0000
0100
0000
0000
0000
0000
0000
0000
0000
0000
0010
0000
0000
0000
0000
0000
0000
0000
0000
0000
0001
0000
0000
0000
0000
0000
0000
0000
0000
0000
0000
0000
1000
0000
0000
0000
0000
0000
0000
0000
0000
0000
0000
0000
0010
0000
0000
0000
0000
0000
0000
0000
0000
0000
0000
0000
0100
0000
0000
0000
0000
0000
0000
0000
0000
0000
0000
0000
0001
0000
0000
0000
0000
0000
0000
0000
0000
0000
0000
0000
1000
0000
0000
0000
0000
0000
0000
0000
0000
0000
0000
0000
0001
0000
0000
0000
0000
0000
0000
0000
0000
0000
0000
0000
0100
0000
0000
0000
0000
0000
0000
0000
0000
0000
0000
0000
0010
0000
0000
0000
0000
0000
0000
0000
0000
0000
0000
0000
0100
0000
0000
0000
0000
0000
0000
0000
0000
0000
0000
0000
0001
0000
0000
0000
0000
0000
0000
0000
0000
0000
0000
0000
1000
0000
0000
0000
0000
0000
0000
0000
0000
0000
0000
0000
,
0100
0010
0001
0010
0100
1000
0010
0100
0001
0010
0001
0100
0010
1000
0100
1000
,
0001
0010
0001
1000
0010
1000
0100
0010
0001
0100
0001
0010
0100
1000
0010
0100
,
0001
1000
0100
1000
0001
0010
0001
0100
0010
0100
0001
0010
0100
1000
0100
0010
,
0001
0100
0010
1000
0100
1000
0010
0100
0001
1000
0100
0010
0001
0010
0100
1000
,
0010
0100
0001
0010
0100
1000
0100
0010
0001
0100
0010
1000
0100
1000
0010
0100
,
0001
0010
0100
1000
0001
1000
0010
1000
0100
1000
0001
1000
0010
0100
0001
0010
,
0100
1000
0001
0010
0001
0100
0001
1000
0001
0010
0001
0100
0010
1000
0100
0010
,
0001
0100
0010
1000
0001
0000
1000
0000
0010
0000
0100
0000
0010
0000
1000
0000
,
0001
0010
0100
0010
0001
1000
0010
1000
,
0100
0000
0000
0000
0000
0000
0000
0000
0000
0000
0010
0000
0000
0000
0000
0000
0000
0000
0000
0001
0000
0000
0000
0000
0000
0000
0000
0000
0000
1000
0000
0000
0000
0000
0000
0000
0000
0000
0001
0000
0000
0000
0000
0000
0000
0000
0000
0000
0100
0000
0000
0000
0000
0000
0000
0000
0000
0000
0000
0000
0000
0000
0000
0000
0000
0000
0000
0000
0000
0000
0000
0000
0010
0000
0000
0000
0000
0000
0000
0000
0000
0000
0000
0000
0000
0000
0000
0000
0000
0000
0000
0000
0000
0000
0000
0000
0100
0000
0000
0000
0000
0000
0000
0000
0000
0000
0000
0000
0000
0000
0000
0000
0000
0000
0000
0000
0000
0000
0000
0000
0001
0000
0000
0000
0000
0000
0000
0000
0000
0000
0000
0000
0000
0000
0000
0000
0000
0000
0000
0000
0000
0000
0000
0000
0010
0000
0000
0000
0000
0000
0000
0000
0000
0000
0000
0000
0000
0000
0000
0000
0000
0000
0000
0000
0000
0000
0000
0000
0100
0000
0000
0000
0000
0000
0000
0000
0000
0000
0000
0000
0000
0000
0000
0000
0000
0000
0000
0000
0000
0000
0000
0000
,
1000
0001
0100
0001
0010
0100
1000
0001
,
1000
0000
0000
0000
0000
0000
0000
0000
0000
0000
0001
0000
0000
0000
0000
0000
0000
0000
0000
1000
0000
0000
0000
0000
0000
0000
0000
0000
0000
0100
0000
0000
0000
0000
0000
0000
0000
0000
0010
0000
0000
0000
0000
0000
0000
0000
0000
0000
0001
0000
0000
0000
0000
0000
0000
0000
0000
0000
0000
0000
0000
0000
0000
0000
0000
0000
0000
0000
0000
0000
0000
0000
1000
0000
0000
0000
0000
0000
0000
0000
0000
0000
0000
0000
0000
0000
0000
0000
0000
0000
0000
0000
0000
0000
0000
0000
0010
0000
0000
0000
0000
0000
0000
0000
0000
0000
0000
0000
0000
0000
0000
0000
0000
0000
0000
0000
0000
0000
0000
0000
1000
0000
0000
0000
0000
0000
0000
0000
0000
0000
0000
0000
0000
0000
0000
0000
0000
0000
0000
0000
0000
0000
0000
0000
0001
0000
0000
0000
0000
0000
0000
0000
0000
0000
0000
0000
0000
0000
0000
0000
0000
0000
0000
0000
0000
0000
0000
0000
0100
0000
0000
0000
0000
0000
0000
0000
0000
0000
0000
0000
0000
0000
0000
0000
0000
0000
0000
0000
0000
0000
0000
0000
,
0010
0100
0001
1000
0001
0010
0100
1000
,
0001
0000
0000
0000
0000
0000
0000
0000
0000
0000
1000
0000
0000
0000
0000
0000
0000
0000
0000
0100
0000
0000
0000
0000
0000
0000
0000
0000
0000
0010
0000
0000
0000
0000
0000
0000
0000
0000
0001
0000
0000
0000
0000
0000
0000
0000
0000
0000
1000
0000
0000
0000
0000
0000
0000
0000
0000
0000
0000
0000
0000
0000
0000
0000
0000
0000
0000
0000
0000
0000
0000
0000
0001
0000
0000
0000
0000
0000
0000
0000
0000
0000
0000
0000
0000
0000
0000
0000
0000
0000
0000
0000
0000
0000
0000
0000
0010
0000
0000
0000
0000
0000
0000
0000
0000
0000
0000
0000
0000
0000
0000
0000
0000
0000
0000
0000
0000
0000
0000
0000
0100
0000
0000
0000
0000
0000
0000
0000
0000
0000
0000
0000
0000
0000
0000
0000
0000
0000
0000
0000
0000
0000
0000
0000
0010
0000
0000
0000
0000
0000
0000
0000
0000
0000
0000
0000
0000
0000
0000
0000
0000
0000
0000
0000
0000
0000
0000
0000
0001
0000
0000
0000
0000
0000
0000
0000
0000
0000
0000
0000
0000
0000
0000
0000
0000
0000
0000
0000
0000
0000
0000
0000
,
0100
0010
0100
0001
0010
0100
1000
0010
,
1000
0000
0000
0000
0000
0000
0000
0000
0000
0000
0001
0000
0000
0000
0000
0000
0000
0000
0000
1000
0000
0000
0000
0000
0000
0000
0000
0000
0000
0100
0000
0000
0000
0000
0000
0000
0000
0000
0010
0000
0000
0000
0000
0000
0000
0000
0000
0000
0002
0000
0000
0000
0000
0000
0000
0000
0000
0000
0000
0000
0000
0000
0000
0000
0000
0000
0000
0000
0000
0000
0000
0000
0000
0000
0000
0000
0000
0000
0000
0000
0000
0000
0000
0000
0000
0000
0000
0000
0000
0000
0000
0000
0000
0000
0000
0000
0103
0000
0000
0000
0000
0000
0000
0000
0000
0000
0000
0000
0000
0000
0000
0000
0000
0000
0000
0000
0000
0000
0000
0000
0000
0000
0000
0000
0000
0000
0000
0000
0000
0000
0000
0000
0000
0000
0000
0000
0000
0000
0000
0000
0000
0000
0000
0000
0010
0000
0000
0000
0000
0000
0000
0000
0000
0000
0000
0000
0000
0000
0000
0000
0000
0000
0000
0000
0000
0000
0000
0000
0000
0000
0000
0000
0000
0000
0000
0000
0000
0000
0000
0000
0000
0000
0000
0000
0000
0000
0000
0000
0000
0000
0000
0000
,
1000
0001
0010
0200
,
1300
0001
0200
0000
0310
0000
1000
0000
,
0100
1000
0010
0200
,
0310
1000
0200
0000
0310
0000
0001
0000
,
0100
0010
0100
0001
,
1000
1000
0100
0000
0010
0001
0000
0000
,
0100
0010
1000
0100
,
0010
0000
0001
0000
1000
0001
0010
0001
0100
0010
1000
0100
0010
0001
0010
0100
,
1000
0010
0100
0001
1000
0100
0010
0001
1000
0001
0100
0010
0100
0001
1000
0100
,
0010
0001
0100
0010
1000
0100
0010
0100
1000
0010
0100
0001
0010
0001
0100
0010
,
1000
0100
0010
0001
1000
0001
0100
0010
0100
0001
0010
0100
1000
0010
1000
0100
,
0010
0001
0100
0010
1000
0100
0010
0001
1000
0001
0100
0010
0100
0001
0010
0100
,
1000
0100
0010
0001
1000
0100
1000
0010
0100
0001
1000
0100
0010
0001
0100
0010
,
0100
0001
0010
0100
1000
0010
1000
0100
0010
0001
0100
0010
4000
0000
0000
0000
,
0000
0000
0000
3000
0001
0000
0100
0000
0010
0000
1000
0000
0001
0000
0000
0000
,
1000
0200
0000
0300
,
0000
0000
0000
0000
,
0000
0000
0000
0000
,
0000
0000
0000
0000
1000
0100
0010
0000
0000
0000
0000
0000
0001
0000
0000
0000
,
0000
0000
0001
0000
0000
0000
0001
1000
,
0000
1000
0000
1000
0000
0000
0001
0000
,
1000
0010
1000
0100
0000
0000
0000
0000
0000
2002
0000
0000
,
0000
0000
0000
3003
0000
0000
0001
0000
0000
0000
0000
0000
1000
0000
0010
0000
0100
0000
0001
0000
0000
0000
0000
0000
,
0000
1000
0001
1000
0000
0010
0000
0100
,
0001
1000
0001
0000
1000
0001
0000
0001
,
0000
0000
1000
0001
1000
0000
0001
0000
0000
0000
0001
1000
0001
0000
1000
0000
,
0001
0000
0100
0100
0000
0100
0000
0000
,
0000
0000
0000
0001
0000
0001
0000
0001
,
1000
0100
0000
0010
0000
0000
0000
0000
,
0000
0001
0200
0320
0030
2000
3000
0002
,
0003
1000
0010
0100
0000
0100
0000
0000
,
0000
0001
1000
0100
0000
0010
0000
0001
,
1000
0001
0000
2000
0000
0000
0000
0000
,
0000
0000
0000
3000
0000
0000
0001
0000
0100
0000
0010
0000
0100
0000
0001
0000
0010
0000
0100
0000
1000
0000
0001
0000
,
0100
0000
0000
0000
0010
0000
0000
0000
1000
0000
0000
0000
0001
0000
0000
0100
0000
0000
0010
0000
0000
0100
0000
0000
0001
0000
0000
0010
0000
0000
0100
0000
0000
1000
0000
0000
0010
0000
0000
0100
0000
0000
0001
0000
0000
1000
0000
0000
,
0100
0010
0001
0100
0010
0100
0001
0010
0100
1000
0010
0100
0001
1000
0100
0010
,
0001
0100
0010
0100
0001
1000
0100
0010
0100
1000
0010
0100
0001
1000
0010
0100
,
0001
1000
0100
0010
0001
0010
0100
1000
0010
0100
0001
1000
0100
0010
0001
0010
,
0100
1000
0001
0100
0001
0010
0100
1000
0010
0100
0001
1000
0100
0010
0001
1000
,
0001
0100
0010
0100
0001
1000
0100
0010
0001
0010
0100
1000
0001
0100
0010
0100
,
0001
1000
0100
0010
0100
1000
0001
0100
0010
0100
0001
0010
0100
1000
0100
0010
,
0001
0100
0010
0100
0001
1000
0100
0010
0100
1000
0010
0100
0004
0000
0000
0000
,
0000
0000
0000
0003
1000
0000
0000
0000
0100
0000
0000
0000
0010
0000
0000
0000
,
0001
0100
0010
0100
,
0001
1000
0100
0000
0010
0000
0001
0000
,
0100
0010
1000
0001
,
0010
0000
0100
0000
1000
0010
0100
0001
0010
0100
0010
0001
1000
0001
0100
0010
,
0100
0001
1000
0100
0010
0100
1000
0001
0100
0010
1000
0100
1000
0001
0100
0010
,
0100
0001
0010
0100
1000
0010
0100
0001
1000
0100
0010
0100
1000
0010
0100
0001
,
1000
0001
0100
0010
0100
0001
1000
0100
0010
0001
0100
0010
1000
0010
0100
0001
,
0010
0100
1000
0100
0010
0001
1000
0010
1000
0100
0010
0001
0100
0001
0010
0100
,
1000
0010
0100
0001
1000
0100
0010
0100
1000
0010
0100
0001
0010
0001
1000
0010
,
0100
0001
1000
0100
0010
0001
0100
0010
1000
0001
0010
0100
1000
0100
0010
0001
,
1000
0010
0100
0001
4000
0000
0000
0000
0000
0000
0000
0000
0000
0000
0000
0000
,
0000
3001
0000
0000
,
0000
00M0
0000
0000
0000
0000
0000
0000
;

//---------------dance-single - Rynker----------------
#NOTES:
     dance-single:
     Rynker:
     Edit:
     16:
     1,1,0.006,0.181,1:
0000
0000
0000
0000
,
0000
0000
0000
0000
,
0000
0000
0000
0000
,
0000
0000
0000
0000
,
0000
0000
0000
0000
,
0000
0000
0000
0000
,
0000
0000
0000
0000
,
0000
0000
0000
0000
,
0000
0000
0000
0000
,
0000
0000
0000
0000
0001
0100
0010
0100
0001
1000
0100
0010
0001
0010
0100
1000
,
0001
1000
0001
0100
0010
0100
0001
1000
0100
0010
0001
1000
0001
0100
0010
1000
,
0100
0010
0100
1000
0010
1000
0001
0010
0100
1000
0100
0010
0001
0100
0010
1000
,
0100
1000
0001
0010
0001
1000
0010
1000
0100
0010
0001
0100
0001
0010
0100
1000
,
0100
0010
0001
1000
0001
0100
0010
0100
0001
1000
0100
0010
0001
1000
0001
0100
,
0010
0100
0001
0010
0100
1000
0100
0010
0001
1000
0010
0100
0001
0010
0001
1000
,
0001
0100
0010
0100
0001
0010
0100
1000
0100
0010
0001
1000
0010
0100
0010
1000
,
0100
0010
0001
1000
0001
0000
0100
0000
0001
0000
0010
0000
0100
0000
1000
0000
,
0010
0100
0001
0000
1000
1000
0100
0000
,
0010
0001
0001
1000
1000
0000
0020
0000
,
2030
0000
3004
0000
1003
0100
1000
0001
0100
0010
1000
0100
0010
0100
1000
0001
,
1000
0010
0100
0010
1000
0001
0010
0100
0010
0001
0100
0010
1000
0001
0100
0010
,
1000
0001
0010
0100
1000
0100
0010
0001
1000
0010
0100
0010
1000
0001
0010
0100
,
0010
0001
0100
0010
1000
0010
0100
0001
1000
0001
0010
0100
1000
0100
0010
0001
,
1000
0010
0100
0010
1000
0001
0100
0010
1000
0100
0010
0001
0010
0100
1000
0001
,
1000
0010
0100
0010
1000
0001
0010
0100
0010
0001
0100
0010
0100
0001
1000
0001
,
0010
0001
1000
0100
1000
0001
1000
0010
1000
0100
1000
0001
0100
0001
1000
0010
,
0100
0001
0010
0001
0100
0001
1000
0001
0010
0001
0100
0001
1000
0100
0010
0100
,
1000
0001
0100
0010
1000
0001
1000
0100
0010
0100
1000
0001
0010
0100
0010
0001
,
1000
0001
0100
0001
1000
0010
0100
0001
1000
0010
0100
0001
1000
0001
0010
0100
,
1000
0001
0010
0100
1000
0001
0100
0010
1000
0001
0100
0010
0100
0001
1000
0010
,
0100
0001
1000
0001
0100
0001
1000
0010
1000
0001
0100
0001
1000
0100
1000
0001
,
0010
0001
1000
0100
0010
0001
1000
0010
0100
0001
1000
0010
0100
0010
1000
0001
,
1000
0001
0100
0010
0100
0001
1000
0100
0010
0001
0010
0100
1000
0001
0010
0001
,
1000
0100
1000
0010
1000
0001
1000
0100
1000
0010
1000
0001
0100
0010
0100
0001
,
0010
0001
0100
0001
1000
0001
0010
0001
0100
0001
1000
0100
0010
0001
1000
0010
,
0100
0001
0010
0001
1000
0000
0000
0000
0100
0000
0000
0000
0010
0000
0000
0000
,
0001
1000
0001
0200
,
0310
1000
0002
0000
1003
0000
0010
0000
,
0100
0001
0010
0200
,
2300
0001
3200
0000
0301
0000
0010
0000
,
0100
1000
0001
0100
,
0001
0001
0010
0000
0100
1000
0000
0000
,
0010
0000
0000
0000
0100
0000
0000
0000
0010
1000
0001
1000
0004
0000
4003
0000
,
3400
0000
0340
0000
0031
1000
0100
1000
0001
0100
0010
0100
0001
1000
0010
0100
,
0010
1000
0001
0100
0010
0100
0001
1000
0100
0010
0001
0010
0100
1000
0001
1000
,
0001
0100
0010
0100
0001
1000
0010
0100
0001
0100
0010
1000
0010
0100
0001
1000
,
0001
0100
0010
1000
0001
1000
0100
0010
0001
0010
0100
1000
0001
0100
0010
0100
,
0001
1000
0100
0010
0001
0010
0100
1000
0001
0100
0001
1000
0010
1000
0001
0100
,
0010
0100
0001
1000
0100
0010
0100
1000
0001
0010
0001
1000
0100
0010
0001
1000
,
0001
0100
0010
0100
0001
1000
0010
0100
0001
1000
0010
0100
0010
1000
0001
1000
,
0100
0010
0100
1000
0001
0010
0001
1000
0100
0010
0001
1000
0001
0100
0010
0100
,
0001
1000
0100
0010
0001
1000
0001
0100
0010
0100
0001
1000
0010
0100
0001
1000
,
0100
0010
0100
1000
0001
0010
0100
1000
0001
0100
0010
0100
0001
1000
0100
0010
,
0001
0010
0100
1000
0001
0100
0010
0100
0001
1000
0100
0010
0100
1000
0001
0100
,
0010
0100
0001
1000
0100
0010
0001
0010
0100
1000
0001
0100
0010
0100
0001
1000
,
0001
1000
0100
0010
0001
1000
0001
0100
0010
0100
0001
1000
0100
0010
0001
0010
,
0100
1000
0001
0100
0001
1000
0010
1000
0001
0100
0001
1000
0100
0010
0001
0010
,
0100
1000
0001
0100
0001
1000
0010
0100
0001
0100
0010
1000
0001
1000
0100
0010
,
0001
1000
0001
0100
0010
0100
0001
1000
0100
0010
0001
0010
0100
1000
0001
1000
,
0001
0100
0001
0010
0100
1000
0010
0100
0001
1000
0001
0100
0010
0100
0001
1000
,
0100
0010
0001
0010
0100
1000
0010
0100
0001
0010
0001
0100
0010
1000
0100
1000
,
0001
0010
0001
1000
0010
1000
0100
0010
0001
0100
0001
0010
0100
1000
0010
0100
,
0001
1000
0100
1000
0001
0010
0001
0100
0010
0100
0001
0010
0100
1000
0100
0010
,
0001
0100
0010
1000
0100
1000
0010
0100
0001
1000
0100
0010
0001
0010
0100
1000
,
0010
0100
0001
0010
0100
1000
0100
0010
0001
0100
0010
1000
0100
1000
0010
0100
,
0001
0010
0100
1000
0001
1000
0010
1000
0100
1000
0001
1000
0010
0100
0001
0010
,
0100
1000
0001
0010
0001
0100
0001
1000
0001
0010
0001
0100
0010
1000
0100
0010
,
0001
0100
0010
1000
0001
0100
0010
0100
0001
1000
0010
0100
0001
1000
0100
0010
,
0001
0010
0100
1000
0100
0010
0001
1000
0001
1000
0100
0010
0001
1000
0001
0100
,
0001
1000
0010
0100
0001
1000
0010
0100
0001
1000
0100
0010
0100
1000
0001
1000
,
0001
0100
0010
0100
0001
1000
0100
0010
0100
1000
0001
0010
0100
0010
0001
1000
,
0001
0100
0001
1000
0010
1000
0001
0100
0001
1000
0100
0010
0100
1000
0001
0010
,
0100
1000
0001
0100
0001
1000
0010
0100
0001
0100
0010
1000
0001
0100
0001
1000
,
0100
0010
0001
1000
0100
1000
0010
1000
0001
1000
0100
1000
0010
1000
0001
0010
,
0001
1000
0001
0100
0001
0010
0001
1000
0001
0010
0001
0100
0010
1000
0100
0010
,
0001
1000
0010
1000
0200
0000
0000
0000
0310
0000
0000
0000
0001
0000
0000
0000
,
1000
0001
0100
0020
,
1030
0001
0020
0000
0130
0000
1000
0000
,
0001
0100
0010
2000
,
3200
0310
0002
0000
1003
0000
0001
0000
,
0100
0010
0100
0001
,
1000
1000
0100
0000
0010
0001
0000
0000
,
0100
0010
1000
0100
,
0010
0000
0001
0000
1000
0001
0010
0001
0100
0010
1000
0100
0010
0001
0010
0100
,
1000
0010
0100
0001
1000
0100
0010
0001
1000
0001
0100
0010
0100
0001
1000
0100
,
0010
0001
0100
0010
1000
0100
0010
0100
1000
0010
0100
0001
0010
0001
0100
0010
,
1000
0100
0010
0001
1000
0001
0100
0010
0100
0001
0010
0100
1000
0010
1000
0100
,
0010
0001
0100
0010
1000
0100
0010
0001
1000
0001
0100
0010
0100
0001
0010
0100
,
1000
0100
0010
0001
1000
0100
1000
0010
0100
0001
1000
0100
0010
0001
0100
0010
,
0100
0001
0010
0100
1000
0010
1000
0100
0010
0001
0100
0010
4000
0000
0000
0000
,
0000
0000
0000
3000
0001
0000
0100
0000
0010
0000
1000
0000
0001
0000
0000
0000
,
1000
0200
0000
0300
,
0000
0000
0000
0000
,
0000
0000
0000
0000
,
0000
0000
0000
0000
1000
0100
0010
0000
0000
0000
0000
0000
0001
0000
0000
0000
,
0000
0000
0001
0000
0000
0000
0001
1000
,
0000
1000
0000
1000
0000
0000
0001
0000
,
1000
0010
1000
0100
0000
0000
0000
0000
0000
2002
0000
0000
,
3003
0000
0000
0001
0000
0000
1000
0010
0100
0001
0000
0000
,
0000
1000
0001
1000
0000
0100
0010
0001
,
1000
0001
0100
0000
0001
1000
0000
1000
,
0000
0000
0001
1000
0001
0000
1000
0000
0000
0000
1000
0001
1000
0000
0001
0000
,
1000
0000
0010
0010
0000
0010
0000
0000
,
0000
0000
0000
1000
0000
1000
0000
1000
,
0001
0010
0000
0100
0000
0000
0000
0000
,
0000
1000
0020
0230
0300
0002
0003
2000
,
3000
0001
0010
0001
0000
1000
0000
0000
,
0000
0001
1000
0100
0000
0010
0000
0001
,
1000
0100
0000
0020
0000
0000
0000
0000
,
0000
0000
0000
0031
0100
0010
0100
0001
0010
0100
1000
0001
,
0100
0000
0000
0000
0010
0000
0000
0000
1000
0000
0000
0000
0001
0000
0000
0100
0000
0000
0010
0000
0000
0100
0000
0000
0001
0000
0000
0010
0000
0000
0100
0000
0000
1000
0000
0000
0010
0000
0000
0100
0000
0000
0001
0000
0000
1000
0000
0000
,
0100
0010
0001
0100
0010
0100
0001
0010
0100
1000
0010
0100
0001
1000
0100
0010
,
0001
0100
0010
0100
0001
1000
0100
0010
0100
1000
0010
0100
0001
1000
0010
0100
,
0001
1000
0100
0010
0001
0010
0100
1000
0010
0100
0001
1000
0100
0010
0001
0010
,
0100
1000
0001
0100
0001
0010
0100
1000
0010
0100
0001
1000
0100
0010
0001
1000
,
0001
0100
0010
0100
0001
1000
0100
0010
0001
0010
0100
1000
0001
0100
0010
0100
,
0001
1000
0100
0010
0100
1000
0001
0100
0010
0100
0001
0010
0100
1000
0100
0010
,
0001
0100
0010
0100
0001
1000
0100
0010
0100
1000
0010
0100
0004
0000
0000
0000
,
0000
0000
0000
0003
1000
0000
0000
0000
0100
0000
0000
0000
0010
0000
0000
0000
,
0001
0100
0010
0100
,
0001
1000
0100
0000
0010
0000
0001
0000
,
0100
0010
1000
0001
,
0010
0000
0100
0000
1000
0010
0100
0001
0010
0100
0010
0001
1000
0001
0100
0010
,
0100
0001
1000
0100
0010
0100
1000
0001
0100
0010
1000
0100
1000
0001
0100
0010
,
0100
0001
0010
0100
1000
0010
0100
0001
1000
0100
0010
0100
1000
0010
0100
0001
,
1000
0001
0100
0010
0100
0001
1000
0100
0010
0001
0100
0010
1000
0010
0100
0001
,
0010
0100
1000
0100
0010
0001
1000
0010
1000
0100
0010
0001
0100
0001
0010
0100
,
1000
0010
0100
0001
1000
0100
0010
0100
1000
0010
0100
0001
0010
0001
1000
0010
,
0100
0001
1000
0100
0010
0001
0100
0010
1000
0001
0010
0100
1000
0100
0010
0001
,
1000
0010
0100
0001
4000
0000
0000
0000
0000
0000
0000
0000
0000
0000
0000
0000
,
0000
3001
0000
0000
,
0000
M000
0000
0000
0000
0000
0000
0000
;

//---------------dance-single----------------
#NOTES:
     dance-single:
     :
     Hard:
     10:
     0.784,0.813,0.006,0.150,0.197:
0000
0000
0000
0000
,
0000
0000
0000
0000
,
0000
0000
0000
0000
,
0000
0000
0000
0000
,
0000
0000
0000
0000
,
0000
0000
0000
0000
,
0000
0000
0000
0000
,
0000
0000
0000
0000
,
0000
0000
0000
0000
,
0000
0000
0001
0010
0001
0100
0001
0100
,
0001
0010
0001
0100
0001
1000
0001
0010
,
0100
0010
0001
1000
0100
0010
0001
0010
,
0100
1000
0010
0100
0010
1000
0001
0100
,
0010
0100
0010
1000
0100
0010
0001
1000
,
0001
0100
0010
0100
0001
0010
0001
1000
,
0001
0010
0001
0100
0001
0010
0100
0010
,
0100
1000
0001
0100
0001
0010
0100
1000
,
0010
0100
0001
0000
1000
0000
0100
0000
,
0010
0001
1000
0020
,
2030
3002
1003
0100
1000
0010
1000
0001
,
1000
0100
1000
0010
0100
0010
1000
0100
,
1000
0010
1000
0010
1000
0100
1000
0010
,
0100
0001
1000
0100
1000
0010
1000
0010
,
1000
0100
1000
0100
1000
0010
0100
0001
,
1000
0100
1000
0010
0100
0010
0100
0001
,
1000
0001
1000
0001
1000
0001
1000
0100
,
0010
0100
1000
0010
0100
0001
1000
0010
,
1000
0100
1000
0010
0100
0001
1000
0100
,
0010
0100
1000
0010
0100
0001
1000
0100
,
1000
0001
1000
0100
0010
0001
1000
0000
0001
0000
0100
0000
0010
0000
0100
0000
,
0001
1000
0100
0010
0100
1000
0010
0100
,
0001
1000
0001
0010
0100
1000
0100
0000
1000
0000
0010
0000
0100
0000
0001
0000
,
1000
0100
0010
0100
1000
0001
0100
0010
,
1000
0001
1000
0100
0010
0001
0100
0000
0001
0000
0010
0000
0100
0000
1000
0000
,
0010
1000
0100
0010
0001
1000
0001
0100
,
0001
0100
0010
1000
0001
1000
0000
0000
0100
0000
0000
0000
0010
0000
0000
0000
,
0001
1000
0001
0200
,
0310
1000
0002
0000
1003
0000
0010
0000
,
0100
0001
0010
0200
,
2300
0001
3200
0000
0301
0000
0010
0000
,
0100
1000
0001
0100
,
0001
0001
1000
0000
0100
1000
0000
0000
,
0001
0000
0100
0000
0010
1000
0100
0010
,
0100
0010
0001
0100
0001
1000
0100
0010
,
0100
1000
0010
0100
0001
1000
0010
0100
,
0001
1000
0100
0010
0001
1000
0001
0000
0100
0000
0010
0000
0100
0000
0001
0000
,
0010
0100
1000
0001
0100
0010
0100
0001
,
1000
0001
1000
0100
0010
0001
0100
0000
0001
0000
0010
0000
0001
0000
1000
0000
,
0010
0100
0010
1000
0100
0010
0001
1000
,
0001
0100
0001
1000
0100
0010
0001
0000
0100
0000
0010
0000
1000
0000
0100
0000
,
1000
0001
0100
0001
0010
0100
1000
0001
,
1000
0001
0010
0100
1000
0001
1000
0000
0100
0000
0010
0000
0100
0000
1000
0000
,
0001
0100
0001
1000
0010
1000
0100
0010
,
0001
1000
0100
0010
0100
1000
0010
0000
0100
0000
0001
0000
0010
0000
0001
0000
,
1000
0100
0010
0001
1000
0001
0100
0010
,
1000
0001
1000
0100
0010
0001
0100
0000
0010
0000
0100
0000
0001
0000
0010
0000
,
0100
1000
0010
0100
0001
1000
0100
1000
,
0001
1000
0100
0010
0001
1000
0010
0000
1000
0000
0100
0000
0010
0000
0001
0000
,
0100
0010
0100
0001
0010
0100
1000
0001
,
1000
0001
1000
0100
0010
0001
1000
0000
1000
0000
0100
0000
1000
0000
0010
0000
,
1000
0010
1000
0100
1000
0010
1000
0001
,
1000
0100
0010
0100
1000
0001
0010
0100
,
1000
0100
0010
0001
0100
0010
0100
0001
,
1000
0010
0100
0010
0100
0001
0010
0100
,
1000
0001
1000
0010
0100
0010
1000
0100
,
1000
0001
1000
0100
1000
0010
1000
0100
,
0010
0100
0010
0001
1000
0010
1000
0100
,
0010
0001
0100
0010
1000
0100
0010
0001
,
0010
0100
0010
0001
1000
0010
1000
1000
,
0100
0010
0001
1000
0001
0100
0010
0000
0100
0000
0001
0000
0010
0000
0100
0000
,
1000
0001
0100
0001
0010
0100
1000
0001
,
1000
0001
1000
0100
0010
0001
1000
0000
0010
0000
1000
0000
0001
0000
0100
0000
,
0010
0100
0001
1000
0001
0010
0100
1000
,
0001
1000
0100
0010
0001
1000
0001
0000
0010
0000
0100
0000
0010
0000
0001
0000
,
0100
0010
0100
0001
0010
0100
1000
0010
,
1000
0001
1000
0100
0010
0002
0000
0000
0103
0000
0000
0000
0010
0000
0000
0000
,
1000
0001
0010
0200
,
1300
0001
0200
0000
0310
0000
1000
0000
,
0100
1000
0010
0200
,
0310
1000
0200
0000
0310
0000
0001
0000
,
0100
0010
0100
0001
,
1000
1000
0100
0000
0010
0001
0000
0000
,
0100
0010
1000
0100
,
0010
0001
1000
0010
0100
0010
0100
0010
,
1000
0100
1000
0010
1000
0100
1000
0010
,
0100
0010
1000
0010
1000
0100
0010
0100
,
1000
0010
1000
0100
0010
0100
1000
0001
,
0010
0100
1000
0010
1000
0100
0010
0001
,
1000
0010
1000
0100
0010
0100
0010
0100
,
1000
0010
0100
0010
0100
0001
2000
0000
,
0000
0000
3001
0100
0010
1000
0001
0000
,
1000
0200
0000
0000
,
0000
0000
0000
0000
,
0000
0000
0000
0000
,
0300
0000
0000
0000
1000
0100
0010
0000
0000
0000
0000
0000
0001
0000
0000
0000
,
0000
0000
0001
0000
0000
0000
0001
1000
,
0000
1000
0000
1000
0000
0000
0001
0000
,
1000
0010
1000
0100
0000
0000
0000
0000
0000
2002
0000
0000
,
0000
0000
0000
3003
0000
0000
0001
0000
0000
0000
0000
0000
1000
0000
0010
0000
0100
0000
0001
0000
0000
0000
0000
0000
,
0000
1000
0001
1000
0000
0010
0000
0100
,
0001
1000
0001
0000
1000
0001
0000
0001
,
0000
0000
1000
0001
1000
0000
0001
0000
0000
0000
0001
1000
0001
0000
1000
0000
,
0001
0000
0100
0100
0000
0100
0000
0000
,
0000
0000
0000
0001
0000
0001
0000
0001
,
1000
0100
0000
0010
0000
0000
0000
0000
,
0000
0001
0200
0320
0030
2000
3000
0002
,
0003
1000
0010
0100
0000
0100
0000
0000
,
0000
0001
1000
0100
0000
0010
0000
0001
,
1000
0001
0000
2000
0000
0000
0000
0000
,
0000
0000
0000
3000
0000
0000
0001
0000
0100
0000
0010
0000
0100
0000
0001
0000
0010
0000
0100
0000
1000
0000
0001
0000
,
0100
0000
0010
0000
1000
0000
0001
0000
0000
0010
0000
0000
0001
0000
0000
0100
0000
0000
0010
0000
0000
1000
0000
0000
,
0100
0010
0100
1000
0010
0100
0010
0100
,
0010
1000
0001
0100
0010
0100
0001
1000
,
0001
0100
0001
0100
0010
1000
0100
0010
,
0100
1000
0001
0100
0010
0100
0010
0100
,
0001
0010
0001
0100
0001
0100
0001
0010
,
0001
0100
0010
1000
0100
0010
0100
1000
,
0001
0010
0001
0100
0010
1000
0002
0000
,
0000
1003
0100
0010
,
0001
0100
0010
0100
,
0001
1000
0100
0000
0010
0000
0001
0000
,
0100
0010
1000
0001
,
0010
0100
1000
0100
0010
0001
1000
0100
,
0010
0100
1000
0001
0100
0010
0100
0010
,
1000
0001
0100
0010
0100
0010
1000
0001
,
1000
0100
0010
0001
0010
0100
1000
0100
,
0010
0001
1000
0010
1000
0010
0100
0010
,
1000
0100
1000
0010
1000
0100
0010
0001
,
0100
0010
0100
0010
1000
0010
1000
0010
,
1000
0100
2000
0000
0000
0000
0000
0000
,
0000
3001
0000
0000
;
