#TITLE:At Least Speedcore Artists Aren't In It For The Money;
#ARTIST:Loffciamcore & Imil;
#GENRE:Good Music;
#CREDIT:B. Abear;
#BANNER:Bn-Money.png;
#BACKGROUND:Bg-Money.png;
#MUSIC:At Least Speedcore Artists Aren't In It For The Money.ogg;
#OFFSET:0.072;
#SAMPLESTART:15.1;
#SAMPLELENGTH:14.4;
#DISPLAYBPM:260;
#BPMS:0=260,580=130;

//---------------dance-single - B. Abear----------------
#NOTES:
     dance-single:
     B. Abear:
     Challenge:
     15:
     1,1,0.641,0.655,0.759:
0000
0000
0000
0000
,
0000
0000
0000
0000
,
0000
0000
0000
0000
,
0000
0000
0000
0000
,
0000
0000
0000
0000
,
0000
0000
0000
0000
,
0000
0000
0000
0000
,
0000
0000
0000
0000
,
0000
0000
0000
0000
,
0000
0000
0000
0000
,
0000
0000
0000
0000
,
0000
0000
0000
0000
,
0000
0000
0000
0000
,
0000
0000
0000
0000
,
0000
0000
0000
0000
,
0001
0000
1000
0100
1000
0000
0001
0000
0100
0000
0020
0000
0000
0000
0130
0000
,
0001
0000
1000
0100
1000
0000
0001
0000
1000
0000
0001
0100
0001
0000
1000
0000
,
0100
0010
0001
0100
0010
0100
0001
1000
,
0100
0000
0010
0000
0001
0000
1000
0000
0001
0100
0001
0100
0002
0000
0000
0000
,
1003
0100
0010
0100
1000
0010
0100
0001
,
1001
0000
0000
0000
1001
0000
0000
0000
1000
0100
0010
0001
1000
0001
1000
0010
,
0100
0001
0100
0010
1000
0100
0010
0001
,
1000
0000
0100
0000
0010
0000
0001
0000
0200
0000
0320
0000
2030
0000
3002
0003
,
0101
1001
1100
0110
,
0011
0000
0000
0000
0000
0000
0000
0000
0110
0000
0000
0000
0000
0000
0000
0000
2100
0000
0000
0000
0000
0000
0000
0000
0000
0000
0000
0000
0000
0000
0000
3000
,
M1MM
0000
0000
0000
0000
0000
0000
0000
1000
0001
1000
0000
0010
0000
0100
0000
,
0001
0000
1000
0000
0010
0000
0100
0000
0001
0000
0000
0000
1000
0010
0100
0001
,
1000
0100
0010
0001
1000
0100
1000
0010
,
0200
0302
0023
0230
1000
0000
1000
0000
,
0310
0000
0000
0000
0001
1000
0001
1000
0002
0000
0000
0000
0000
0000
0000
0000
,
0103
0000
0000
0000
0000
0000
0000
0000
0000
0000
0000
0000
M0M0
M0M0
M0M0
M0M0
,
M0M0
M0M0
M0M0
M0M0
M1M0
0001
0100
0001
0100
0001
0100
0001
2000
0000
0000
0000
,
3001
0000
0000
0000
,
1001
1000
0100
0000
0010
0000
0001
0000
,
1000
0010
0100
0001
,
0101
0100
0010
0000
1000
0000
0001
0000
,
0010
0000
0000
0000
0100
0000
0000
0000
1000
0010
0100
0001
1000
0001
1000
0100
,
0010
0001
1000
0000
0010
0000
0100
0000
,
0001
0010
0100
1000
,
1001
0001
0100
0000
0010
0000
1000
0000
,
0001
0000
0000
0000
0000
0000
0000
0000
1000
0100
1000
0100
1000
0001
0100
0001
,
2000
0000
3001
0010
0100
1000
0010
0100
,
0001
0000
1000
0000
0001
0000
0010
0000
0100
0000
0000
0000
1000
0100
1000
0100
,
1000
0001
0100
0010
0100
0001
0010
0100
,
1000
1000
0002
0000
,
0103
0010
1000
0100
0010
0001
0100
0010
,
1000
0001
1000
0001
1000
0001
1000
0001
1000
0001
1000
0001
1000
0001
1000
0001
,
0000
0000
0000
0000
0000
0000
0000
0MM0
0MM0
0MM0
0MM0
0MM0
0MM0
0MM0
0MM0
0MM0
,
0MM0
0MM0
0MM0
0MM0
0MM0
0MM0
0MM0
0MM0
1001
0000
0000
0000
0MM0
0MM0
0MM0
0MM0
,
1001
0000
0000
0000
,
0000
0000
0000
0000
,
1000
0000
1000
0000
0001
0100
0001
0100
0001
0000
1000
0100
1000
0000
0001
1000
,
0002
0000
0000
0000
,
1003
0000
0100
0010
0100
0000
1000
0000
0001
0000
0100
0010
0100
0000
0001
0000
,
1000
0000
0010
0100
0010
0000
1000
0000
0001
0000
0000
0000
0000
0000
0000
0000
,
1000
0010
1000
0010
0100
0001
1000
0001
1000
0010
1000
0010
0100
0001
1000
0001
,
0010
0M00
M000
000M
00M0
0M00
M000
0M00
,
0011
0M00
M000
00M0
0M00
000M
M000
000M
,
0M00
00M0
M000
000M
00M0
0M00
M000
0000
,
1001
0001
0100
0000
0010
0000
0100
0000
,
1001
00M0
M000
0M00
00M0
000M
M000
0000
,
2422
3333
0000
0000
2422
3333
0000
0000
,
2422
3333
0000
0M00
M000
00M0
000M
0000
,
0101
0000
0000
0000
0000
0000
0000
0000
M0M0
M0M0
M0M0
M0M0
M0M0
M0M0
M0M0
M0M0
,
M0M0
0000
M0M0
0000
M0M0
0000
M0M0
0000
M0M0
0000
M0M0
0000
M0M0
0000
0000
0000
0002
0000
0000
0000
0000
0000
0000
0000
0203
0000
0000
0000
0000
0000
0000
0300
,
0101
1001
1100
0110
,
0011
0000
1001
0000
1001
1000
0010
0100
,
0101
1001
1100
0110
,
1100
0000
0000
0000
0000
0000
0000
0000
1001
0000
0000
0000
0000
0000
0000
0000
M400
0000
0000
0000
0000
0000
0000
0000
M000
0000
0000
0000
0000
0000
0000
0300
,
0101
1001
0011
0110
,
1100
0000
0000
0000
1001
0000
0000
0000
0101
0000
0001
0000
1000
0001
1000
0001
,
1000
1100
1001
0101
,
0110
1010
1001
1000
,
0MM0
0000
0000
0000
0001
1000
0001
1000
0100
0000
0000
0000
0110
0000
0000
0000
,
0011
0000
1001
0000
0101
0100
0010
1000
,
1001
0011
1001
1010
,
0110
0000
0000
0000
0101
0000
0000
0000
0100
0001
0100
0001
2000
0000
0000
0000
,
3004
0003
0004
0003
0004
0003
0004
0003
,
1001
1100
0110
0011
,
1001
0000
1000
0000
0010
0000
0100
0000
0001
0000
1000
0000
0001
0100
0001
0100
,
0001
0000
0000
0000
,
1000
0100
4000
0000
0000
0000
3001
0000
0000
0000
0000
0000
1000
0100
4000
0000
0000
0000
3001
0000
0000
0000
0000
0000
,
1000
0100
4000
0000
0000
0000
3001
0000
0000
0000
0000
0000
1000
0100
4000
0000
0000
0000
3020
0000
0000
0000
0000
0000
,
0130
0001
0010
0100
1000
0001
0100
0010
,
1000
0001
1000
0001
1000
0001
1000
0001
2000
0000
0000
0000
0000
0000
0000
0000
,
3100
0010
0001
0100
0010
0100
0001
0010
,
0100
1000
0100
1000
0100
1000
0100
1000
0002
0000
0000
0000
0000
0000
0000
0000
,
0103
0010
1000
0100
0010
0100
1000
0010
,
0100
0001
0100
0001
0100
0001
0100
0001
0100
0000
0000
0000
0400
0000
0000
0000
,
M3M0
0000
0000
0000
0001
1000
0001
1000
0100
0000
0010
0000
0001
0000
0100
0000
,
0010
0000
1000
0000
0001
0000
0010
0000
0100
0000
0000
0000
0100
1000
0100
1000
,
0100
0010
0001
0100
0010
1000
0001
0100
,
0040
4030
3004
0043
,
0130
1000
0010
0100
0001
1000
0400
0000
,
1300
0001
1000
0001
1000
0001
1000
0001
1000
0001
1000
0001
0400
0000
0000
0000
,
0310
1000
0001
0100
0010
1000
0001
0100
0010
1000
0001
0100
0001
0000
0000
0000
,
4000
0400
0000
0000
0000
0000
0000
0000
0000
0000
0000
0000
0000
0000
0000
0000
0000
0000
0000
0000
0000
3300
0000
0000
,
1100
0110
0011
1001
,
1000
0001
1000
0000
0001
1000
0001
0000
1000
0001
1000
0000
0001
1000
0001
0000
,
1001
0101
1001
0101
,
1011
0000
0200
0000
,
0301
0000
0010
0100
0010
0000
0001
0000
1000
0000
0010
0100
0010
0000
1000
0000
,
0001
0000
0100
0010
0100
0000
0001
1000
0001
0000
1000
0100
1000
0000
0001
0000
,
0040
0000
0000
0000
0430
0000
0000
0000
4300
0000
0000
0000
3004
0000
0000
0003
,
1001
0M00
0000
0M00
,
1001
0000
0000
0000
1000
0000
0000
0000
0001
0000
0100
0001
0100
0000
0010
0000
,
1010
0000
0000
0000
0000
0000
1000
0000
0001
0000
0100
0010
0100
0000
0001
0000
,
1000
0000
0100
0010
0100
0000
1000
0000
0MM1
0MM0
0MM0
0MM0
0MM0
0MM0
0MM0
0MM0
,
1000
0000
1000
0000
1000
0000
M000
0001
,
2422
3333
0000
0000
2242
3333
0000
0000
,
4222
3333
0000
0000
2224
3333
0000
0000
,
1001
0000
0000
0001
1000
0000
0000
0000
,
0MM2
0MM0
0MM0
0MM0
0MM0
0MM0
0MM0
0000
0MM0
0000
0MM0
0000
0MM0
0MM0
0MM0
0MM0
,
10M3
0100
1000
0001
0100
0001
1000
0010
0100
0001
1000
0010
0100
0001
1000
0001
,
1000
0100
0010
0001
1000
0001
1000
0100
0010
0000
0000
0000
0200
0000
0000
0000
,
1300
0010
0100
0001
1000
0010
0100
0001
1000
0010
1000
0001
0100
0010
1000
0001
,
0020
0430
0320
0430
,
1300
0001
0010
0001
1000
0100
0010
0001
1000
0001
1000
0010
0100
0001
1000
0010
,
0100
0001
1000
0001
1000
0010
0100
0001
1000
0000
0100
0000
0010
0000
0100
0000
,
0040
0000
0000
0000
0031
0000
0000
0000
0001
1000
0010
0100
0001
1000
0001
1000
,
0100
0000
0000
0000
0000
0000
00MM
00MM
00MM
00MM
00MM
00MM
00MM
00MM
00MM
00MM
,
MM00
0000
0000
0000
0000
0000
0000
0000
1000
0001
0100
0001
1000
0010
0100
0001
,
1000
0001
1000
0100
0010
0001
1000
0001
4000
0000
0000
0000
3100
0000
0000
0000
,
0040
0000
0000
0000
0000
0000
0000
0000
0031
0100
0010
1000
0001
0100
0010
1000
,
0100
0000
0000
0000
0000
0000
0000
0000
0000
0000
0000
0000
0000
0000
0000
0000
4000
0000
0000
0000
0000
0000
0000
0000
3004
0000
0000
0000
0000
0000
0000
0003
,
1001
1000
0010
0000
0100
0000
0001
0000
,
0010
0100
1000
0001
,
1000
0100
0010
0001
0100
0010
1000
0100
,
1000
0000
0000
0000
,
0MM1
0000
0000
0000
1000
0010
0100
0001
,
0010
0000
0100
0000
0010
0000
0001
0000
1000
0010
0100
0001
1000
0001
0100
0001
,
1000
0001
0100
0010
1000
0001
0010
0100
,
1000
0000
0000
0000
0004
0000
0000
0000
0103
0010
0100
0010
1000
0100
0010
0001
,
1000
0100
0010
0001
1000
0001
1000
0010
,
0100
0001
0010
0100
1000
0001
0100
0010
,
2000
3000
1001
0000
0011
0000
0110
0000
,
1100
1001
0101
0110
,
0400
0000
0301
1000
0100
0010
0001
0100
,
0010
0100
0001
0010
0100
0000
4000
0000
,
3001
0100
0010
0100
0001
0010
0100
1000
,
0001
0000
0001
0000
2002
0000
0000
3000
,
1003
0000
0100
0000
0010
0000
0011
0001
,
1000
0010
0100
0004
,
0003
0000
0000
0000
,
0000
0000
0000
0000
2000
0000
0000
3000
,
1M01
00M0
0000
0M00
00M0
0000
0M00
00M0
0000
0M00
00M0
0000
,
0M00
00M0
0000
0M00
00M0
0000
0M00
00M0
0000
0M00
00M0
0000
,
0M00
00M0
0000
0M00
00M0
0000
0M00
00M0
0000
0M00
00M0
0000
,
0M00
00M0
0000
0000
0000
0000
0000
0000
0000
0000
0000
0000
;

//---------------dance-single - ----------------
#NOTES:
     dance-single:
     :
     Hard:
     11:
     0.864,1,0.627,0.627,0.071:
0000
0000
0000
0000
,
0000
0000
0000
0000
,
0000
0000
0000
0000
,
0000
0000
0000
0000
,
0000
0000
0000
0000
,
0000
0000
0000
0000
,
0000
0000
0000
0000
,
0000
0000
0000
0000
,
0000
0000
0000
0000
,
0000
0000
0000
0000
,
0000
0000
0000
0000
,
0000
0000
0000
0000
,
0000
0000
0000
0000
,
0000
0000
0000
0000
,
0000
0000
0000
0000
,
0001
1000
1000
0001
0100
0020
0000
0130
,
0001
1000
1000
0001
1000
0001
0001
1000
,
0100
0010
0001
0100
0010
0100
0001
1000
,
0100
0010
0001
1000
0001
1000
0002
0000
,
1003
0100
0010
0100
1000
0010
0100
0001
,
1001
0000
1001
0000
1000
0010
1000
0010
,
0100
0001
0100
0010
1000
0100
0010
0001
,
1000
0000
0100
0000
0010
0000
0001
0000
0200
0000
0320
0000
2030
0000
3002
0003
,
0101
1001
1100
0110
,
0011
0000
0110
0000
2200
0000
0000
3300
,
0100
0000
0000
0000
1000
1000
0010
0100
,
0001
1000
0010
0100
0001
0000
1000
0100
,
1000
0100
0010
0001
1000
0100
1000
0010
,
0200
0302
0023
0230
1000
0000
1000
0000
,
0310
0000
0001
1000
0002
0000
0000
0000
,
0103
0000
0000
0000
,
0000
0000
1000
0001
1000
0001
2000
0000
,
3001
0000
0000
0000
,
1001
1000
0100
0000
0010
0000
0001
0000
,
1000
0010
0100
0001
,
0101
0100
0010
0000
1000
0000
0001
0000
,
0010
0000
0100
0000
1000
0100
1000
0010
,
0100
0001
1000
0000
0010
0000
0100
0000
,
0001
0010
0100
1000
,
1001
0001
0100
0000
0010
0000
1000
0000
,
0001
0000
0000
0000
1000
0001
1000
0100
,
2000
0000
3001
0010
0100
1000
0010
0100
,
0001
1000
0001
0010
0100
0000
1000
0001
,
1000
0001
0100
0010
0100
0001
0010
0100
,
1000
1000
0002
0000
,
0103
0010
1000
0100
0010
0001
0100
0010
,
1000
0001
1000
0001
1000
0001
1000
0001
,
1000
0000
0000
0000
,
0000
0000
1001
0000
,
1001
0000
0000
0000
,
0000
0000
0000
0000
,
1000
0010
1000
0010
0100
0010
0100
0010
,
0200
0000
0000
0300
,
0001
1000
0100
1000
0001
0100
0010
0100
,
0010
1000
0010
1000
0001
0000
0000
0000
,
1000
0100
1000
0100
1000
0100
1000
0100
,
0010
0000
0000
0000
,
0011
0000
0000
0000
,
0000
0000
0000
0000
,
1001
0001
0100
0000
0010
0000
0100
0000
,
1001
0000
0000
0000
,
2002
3003
2002
3003
,
2002
3003
0000
0000
,
0101
0000
0000
0000
,
0000
0000
0000
0000
0002
0003
0200
0300
,
0101
1001
1100
0110
,
0011
0000
1001
0000
1001
1000
0010
0100
,
0101
1001
1100
0110
,
1100
1001
0200
0300
,
0101
1001
0011
0110
,
1100
0000
1001
0000
0101
0001
1000
0001
,
1000
1100
1001
0101
,
0110
1010
1001
1000
,
0000
0000
0001
1000
0100
0000
0110
0000
,
0011
0000
1001
0000
0101
0100
0010
1000
,
1001
0011
1001
1010
,
0110
0000
0101
0000
0001
1000
0002
0003
,
0002
0003
0002
0003
0002
0003
0002
0003
,
1001
1100
0110
0011
,
1001
1000
0010
0100
0001
1000
0001
1000
,
0001
0000
0000
0000
,
1000
0100
1000
0000
0001
0000
0000
0000
1000
0100
1000
0000
0001
0000
0000
0000
,
1000
0100
1000
0000
0001
0000
0000
0000
1000
0100
1000
0000
0020
0000
0000
0000
,
0130
0001
0010
0100
1000
0001
0100
0010
,
1000
0001
1000
0001
2000
0000
0000
0000
,
3100
0010
0001
0100
0010
0100
0001
0010
,
0100
0010
0100
0010
0002
0000
0000
0000
,
0103
0010
1000
0100
0010
0100
1000
0010
,
0100
0010
0100
0010
0100
0010
0200
0000
,
0300
0000
0001
1000
0100
0010
0001
0100
,
0010
1000
0001
0010
0100
0000
0100
0010
,
0100
0010
0001
0100
0010
1000
0001
0100
,
0020
2030
3002
0023
,
0130
1000
0010
0100
0001
1000
0200
0000
,
1300
0100
1000
0100
1000
0100
0020
0000
,
0031
0010
0001
0010
0001
0010
0001
0000
,
2200
0000
0000
3300
,
1100
0110
0011
1001
,
1000
0001
1000
0001
1000
0001
1000
0001
,
1001
0101
1001
0101
,
0011
0000
0200
0000
,
1300
0010
0100
0001
1000
0010
0100
0001
,
1000
0100
0010
0001
1000
0010
1000
0001
,
0020
0230
2300
3002
,
1003
0000
0000
0000
,
1001
0000
0000
0000
1000
0000
0000
0000
0001
0000
0100
0001
0100
0000
0010
0000
,
1010
0000
0000
0000
0000
0000
1000
0000
0001
0000
0100
0010
0100
0000
0001
0000
,
1000
0000
0100
0010
0100
0000
1000
0000
0001
0000
0000
0000
0000
0000
0000
0000
,
1000
1000
1000
0001
,
0220
0330
0220
0330
,
0220
0330
0220
0330
,
1001
0000
0000
0001
1000
0000
0000
0000
,
0002
0000
0000
0000
,
1003
0100
1000
0100
1000
0100
1000
0100
,
1000
0010
0100
0010
0100
0000
0002
0000
,
1003
0100
1000
0100
1000
0100
0010
0001
,
0020
0230
0320
0230
,
1300
0010
1000
0010
1000
0100
1000
0100
,
1000
0100
1000
0100
1000
0100
0010
0100
,
0020
0000
0031
0000
0001
0010
0001
0100
,
0010
0000
0000
0000
,
0000
0000
0000
0000
1000
0100
1000
0100
,
1000
0010
1000
0010
2000
0000
3100
0000
,
0020
0000
0000
0000
0031
0010
0001
0010
,
0100
0000
2000
3002
,
1003
1000
0010
0000
0100
0000
0001
0000
,
0010
0100
1000
0001
,
1000
0100
0010
0001
0100
0010
1000
0100
,
1000
0000
0000
0000
,
0001
0000
0000
0000
1000
0010
0100
0001
,
0010
0100
0010
0001
1000
0100
1000
0100
,
1000
0001
0100
0010
1000
0001
0010
0100
,
1000
0000
0002
0000
0103
0010
1000
0010
,
1000
0100
0010
0001
1000
0001
1000
0010
,
0100
0001
0010
0100
1000
0001
0100
0010
,
2000
3000
1001
0000
0011
0000
0110
0000
,
1100
1001
0101
0110
,
0200
0000
0301
1000
0100
0010
0001
0100
,
0010
0100
0001
0010
0100
0000
2000
0000
,
3001
0100
0010
0100
0001
0010
0100
1000
,
0001
0000
0001
0000
2002
0000
0000
3000
,
1003
0000
0100
0000
0010
0000
0011
0001
,
1000
0010
0100
0002
,
0003
0000
0000
0000
,
0000
0000
0000
0000
2000
0000
0000
3000
,
0200
0010
0300
0000
0200
0010
0300
0000
0200
0010
0300
0000
0200
0010
0300
0000
,
0200
0010
0300
0000
0200
0010
0300
0000
0200
0010
0300
0000
0200
0010
0300
0000
,
0200
0010
0300
0000
0200
0010
0300
0000
0200
0010
0300
0000
0200
0010
0300
0000
,
0200
0010
0300
0000
0000
0000
0000
0000
0000
0000
0000
0000
0000
0000
0000
0000
;

//---------------dance-single - ----------------
#NOTES:
     dance-single:
     :
     Medium:
     8:
     0.599,0.897,0.385,0.470,0:
0000
0000
0000
0000
,
2000
0000
0000
0000
,
0000
0000
0000
0000
,
3200
0000
0000
0000
,
0000
0000
0000
0000
,
0320
0000
0000
0000
,
0000
0000
0000
0000
,
0032
0000
0000
0000
,
0000
0000
0000
0000
,
2003
0000
0000
0000
,
0000
0000
0000
0000
,
3020
0000
0000
0000
,
0000
0000
0000
0000
,
0230
0000
0000
0000
,
0000
0000
0000
0000
,
0301
1000
0100
0000
,
1000
0001
1000
0001
,
0100
0001
0010
0001
,
0100
0001
1000
0002
,
1003
0010
1000
0100
,
1001
1001
1000
1000
,
0100
0100
1000
0010
,
1000
0010
0100
0001
,
1000
1010
1000
0110
,
0001
0110
2000
3000
,
0100
0000
1000
0010
,
0100
0010
1000
0001
,
1000
0010
1000
1000
,
0100
0020
0031
1000
,
0010
1000
0002
0000
,
0103
0000
0000
0000
,
0000
1000
0001
2000
,
3001
0000
0000
0000
,
1001
0100
0010
1000
,
1000
0010
0100
0001
,
0101
0010
1000
0001
,
0010
0100
1000
1000
,
0100
1000
0010
0100
,
0001
0010
0100
1000
,
1001
0100
0010
1000
,
0001
0000
1000
0001
,
2000
3001
0100
0010
,
1000
0001
0100
0001
,
1000
0100
0100
0010
,
0001
1000
0002
0000
,
0103
0010
0100
0010
,
1000
0001
1000
0001
,
1000
0000
0000
0000
,
0000
0000
1001
0000
,
2002
0000
0000
0000
,
3003
0000
0000
0000
,
1000
0100
1000
0100
,
0020
0000
0030
0000
,
0001
0100
0001
0010
,
0001
0010
0001
0000
,
1000
0010
1000
0010
,
1000
0000
0000
0000
,
0022
0000
0000
0000
,
0033
0000
0000
0000
,
1001
0100
0010
0100
,
1001
0000
0000
0000
,
2002
3003
2002
3003
,
2002
3003
0000
0000
,
0101
0000
0000
0000
,
0000
0000
0001
0100
,
0001
1001
1000
0110
,
0001
0000
1001
0000
0001
1000
0001
0000
,
1000
1001
1000
0110
,
1000
1001
0200
0300
,
0001
1001
0001
0110
,
1000
0000
1001
0000
1000
0001
1000
0000
,
1000
1000
1001
0001
,
0110
1000
1001
1000
,
0000
0000
0001
1000
0100
0000
0100
0000
,
0011
0001
0101
0010
,
1001
0001
1001
1000
,
0110
0000
0001
0000
0001
1000
0001
0000
,
0001
1000
0001
1000
,
0001
1100
0010
0011
,
0001
1000
0001
0000
1000
0000
0001
0000
,
1001
0000
0000
0000
,
1000
0100
1000
0000
1000
0100
1000
0000
,
1000
0100
1000
0000
1000
0100
1000
0000
,
0001
0010
0001
0000
1000
0000
0100
0000
,
1000
1000
2000
3000
,
0100
0010
0001
0000
0010
0000
0001
0000
,
0100
0100
0002
0003
,
0100
0010
1000
0000
0010
0000
1000
0000
,
0100
0010
0100
0020
,
0030
0000
0100
1000
0100
0000
1000
0000
,
0010
1000
0100
0010
,
0100
1000
0010
1000
,
0010
1000
0001
0010
,
0100
1000
0010
0000
1000
0000
0100
0000
,
1000
0010
1000
0010
,
1000
0001
1000
0001
,
2200
0000
0000
3300
,
0100
0110
0001
1001
,
1000
0001
1000
0000
0001
1000
0001
0000
,
0001
0101
0010
0101
,
0010
0000
0200
0300
,
0100
0010
0100
0000
0001
0000
0010
0000
,
0001
0010
0001
1000
,
0010
0100
0001
1000
,
1001
0000
0000
0000
,
1001
0000
1000
0000
0001
0100
0001
0000
,
1010
0000
0000
0000
0001
0100
0010
0000
,
1000
0010
0100
0000
0001
0000
0000
0000
,
1000
1000
1000
0000
,
0220
0330
0220
0330
,
0220
0330
0220
0330
,
0220
0330
1000
0000
,
0002
0000
0000
0000
,
1003
0100
1000
0000
0100
0000
1000
0000
,
0100
1000
0100
1000
,
0010
0100
0010
0000
1000
0000
0010
0000
,
0100
0010
0100
0010
,
1000
0010
1000
0000
0001
0000
1000
0000
,
0001
1000
0001
0100
,
0020
1030
0001
1000
,
0010
0000
0000
0000
,
0000
0000
0000
0000
1000
0001
1000
0000
,
0001
1000
0002
0103
,
0020
0000
0130
0001
,
0100
0000
0020
1030
,
0010
0100
0010
0000
0100
0000
0001
0000
,
0010
0100
1000
0001
,
1000
0100
0010
0000
0100
0000
1000
0000
,
0001
0000
0000
0000
,
0001
0000
0000
0000
1000
0010
0100
0000
,
0010
1000
0010
1000
,
0100
1000
0100
1000
,
0001
0000
1000
0000
0100
0010
0001
0000
,
1000
0010
1000
0100
,
0010
0001
1000
0100
,
1000
0001
0011
0100
,
1100
0001
0101
0100
,
0020
0130
0010
0100
,
0001
1000
0100
2000
,
3001
0100
0010
1000
,
0001
1000
2002
3003
,
1000
0000
0100
0000
0010
0000
0010
0001
,
1000
0010
0100
0002
,
0003
0000
0000
0000
,
0000
0000
0000
0000
2000
0000
0000
3000
,
0200
0300
0020
0030
0200
0300
0020
0030
,
0200
0300
0020
0030
0200
0300
0020
0030
,
0200
0300
0020
0030
0200
0300
0020
0030
,
0200
0300
0000
0000
0000
0000
0000
0000
;

//---------------dance-single - ----------------
#NOTES:
     dance-single:
     :
     Easy:
     4:
     0.315,0.422,0.078,0.221,0:
0000
0000
0000
0000
,
2000
0000
0000
0000
,
0000
0000
0000
0000
,
3200
0000
0000
0000
,
0000
0000
0000
0000
,
0320
0000
0000
0000
,
0000
0000
0000
0000
,
0032
0000
0000
0000
,
0000
0000
0000
0000
,
2003
0000
0000
0000
,
0000
0000
0000
0000
,
3020
0000
0000
0000
,
0000
0000
0000
0000
,
0230
0000
0000
0000
,
0000
0000
0000
0000
,
0301
0000
0100
0000
,
0001
0000
0000
0000
,
0100
0000
0010
0000
,
0100
0000
0001
0000
,
1000
0000
0001
0000
,
1001
0000
1000
0000
,
0100
0000
1000
0000
,
1000
0000
0100
0000
,
1000
0000
1000
0000
,
0001
0000
1000
0000
,
0100
0000
1000
0000
,
0100
0000
1000
0000
,
0001
0000
1000
0000
,
0100
0000
0010
0000
,
0100
0000
0002
0000
,
0103
0000
0000
0000
,
0001
0000
0001
0000
,
0000
0000
0000
0000
,
1001
0000
0010
0000
,
1000
0000
0100
0000
,
1100
0000
1000
0000
,
0010
0000
1000
0000
,
0100
0000
0010
0000
,
0001
0000
0100
0000
,
1001
0000
0010
0000
,
0001
0000
1000
0000
,
2000
3000
0100
0000
,
1000
0000
0100
0000
,
1000
0000
0100
0000
,
1000
0000
0002
0000
,
0103
0000
0100
0000
,
0001
0000
0001
0000
,
1000
0000
0000
0000
,
0000
0000
1000
0000
,
2002
0000
0000
0000
,
3003
0000
0000
0000
,
1000
0000
1000
0000
,
0020
0000
0030
0000
,
0100
0000
0010
0000
,
1000
0000
0001
0000
,
1000
0000
0100
0000
,
0010
0000
0000
0000
,
0022
0000
0000
0000
,
0033
0000
0000
0000
,
1000
0000
0010
0000
,
1000
0000
0000
0000
,
0002
0003
2000
3000
,
0002
0003
0000
0000
,
0101
0000
0000
0000
,
0000
0000
0001
0000
,
0001
0000
1000
0000
,
0001
0000
1000
0001
,
1000
0000
0001
0000
,
1000
0000
0200
0300
,
1000
0000
0001
0000
,
1000
0000
1000
0001
,
1000
0000
0001
0000
,
0010
0000
0001
0000
,
0010
0001
0010
0000
,
0010
0000
0001
0000
,
1000
0000
0001
0000
,
0100
0000
0001
1000
,
0001
0000
0001
0000
,
0001
0000
0010
0000
,
0001
1000
0001
0000
,
1001
0000
0000
0000
,
1000
0100
1000
0000
,
1000
0100
1000
0000
,
0001
0010
0001
0000
,
1000
0000
2000
3000
,
0100
0010
0100
0000
,
0100
0000
2000
3000
,
0100
0010
0100
0000
,
0010
0000
0001
0000
,
1000
0001
1000
0000
,
0010
0000
0100
0000
,
0100
0000
0010
0000
,
0010
0000
1000
0000
,
0100
1000
0100
0000
,
1000
0000
0001
0000
,
1000
0000
0001
0000
,
2200
0000
3300
0000
,
0100
0000
1000
0000
,
1000
0001
1000
0010
,
1000
0000
0010
0000
,
0010
0000
0100
0000
,
0100
0010
0100
0000
,
0001
0000
0001
0000
,
0010
0000
0001
0000
,
1001
0000
0000
0000
,
0001
0000
0001
0100
,
0010
0000
1000
0100
,
0010
0100
1000
0000
,
1000
0000
1000
0000
,
0020
0030
0200
0300
,
0020
0030
0200
0300
,
0020
0030
1000
0000
,
0002
0000
0003
0000
,
1000
0100
1000
0000
,
0100
0000
0100
0000
,
0010
0100
0010
0000
,
0100
0000
0100
0000
,
1000
0010
1000
0000
,
0001
0000
0001
0000
,
0010
0000
0001
0000
,
0010
0000
0000
0000
,
0000
0000
1000
0001
,
1000
0000
0001
0000
,
0010
0000
0100
0000
,
0100
0000
0010
0000
,
0010
0100
0010
0000
,
0010
0000
0001
0000
,
1000
0100
0010
0000
,
0001
0000
0000
0000
,
0001
0000
1000
0010
,
0100
0000
0010
0000
,
0100
0000
0100
0000
,
0001
0000
0100
0010
,
1000
0000
1000
0000
,
0010
0000
1000
0000
,
1000
0000
0010
0000
,
1000
0000
0001
0000
,
0010
0001
0010
0000
,
0001
0000
0001
0000
,
0001
0000
0010
0000
,
0001
0000
0001
0000
,
1000
0000
0010
1000
,
0010
0000
0100
0000
,
0001
0000
0000
0000
,
0000
0000
0000
0000
,
0220
0000
0000
0000
,
0000
0000
0000
0000
,
0000
0000
0000
0000
,
0330
0000
0000
0000
;

//---------------dance-single - ----------------
#NOTES:
     dance-single:
     :
     Beginner:
     2:
     0.169,0.258,0.021,0.043,0:
0000
0000
0000
0000
,
1000
0000
0000
0000
,
0000
0000
0000
0000
,
0100
0000
0000
0000
,
0000
0000
0000
0000
,
0010
0000
0000
0000
,
0000
0000
0000
0000
,
0001
0000
0000
0000
,
0000
0000
0000
0000
,
1000
0000
0000
0000
,
0000
0000
0000
0000
,
0010
0000
0000
0000
,
0000
0000
0000
0000
,
0100
0000
0000
0000
,
0000
0000
0000
0000
,
0001
0000
0000
0000
,
0001
0000
0000
0000
,
0100
0000
0000
0000
,
0100
0000
0000
0000
,
0010
0000
0000
0000
,
0010
0000
0000
0000
,
0100
0000
0000
0000
,
0100
0000
0000
0000
,
0001
0000
0000
0000
,
0001
0000
0000
0000
,
0100
0000
0000
0000
,
0100
0000
0000
0000
,
0001
0000
0000
0000
,
0100
0000
0000
0000
,
0100
0000
0000
0000
,
0100
0000
0000
0000
,
0001
0000
0000
0000
,
0000
0000
0000
0000
,
1000
0000
0000
0000
,
1000
0000
0000
0000
,
1000
0000
0000
0000
,
0010
0000
0000
0000
,
0100
0000
0000
0000
,
0001
0000
0000
0000
,
1000
0000
0000
0000
,
0001
0000
0000
0000
,
1000
0000
0000
0000
,
1000
0000
0000
0000
,
1000
0000
0000
0000
,
1000
0000
0000
0000
,
0100
0000
0000
0000
,
1000
0000
0000
0000
,
0010
0000
0000
0000
,
0000
0000
0000
0000
,
2002
0000
0000
0000
,
3003
0000
0000
0000
,
1000
0000
0000
0000
,
0010
0000
0000
0000
,
1000
0000
0000
0000
,
0001
0000
0000
0000
,
1000
0000
0000
0000
,
0010
0000
0000
0000
,
2000
0000
0000
0000
,
3000
0000
0000
0000
,
1000
0000
0000
0000
,
1000
0000
0000
0000
,
0002
0000
0000
0000
,
0003
0000
0000
0000
,
0001
0000
0000
0000
,
0000
0000
0000
0000
,
0001
0000
0000
0000
,
0001
0000
1000
0000
,
0001
0000
0000
0000
,
1000
0000
0000
0000
,
1000
0000
0000
0000
,
1000
0000
0001
0000
,
1000
0000
0000
0000
,
0010
0000
0000
0000
,
0010
0000
0000
0000
,
0010
0000
1000
0000
,
0010
0000
0000
0000
,
0100
0000
0000
0000
,
0100
0000
0010
0000
,
1000
0000
0000
0000
,
0001
0000
1000
0000
,
0001
0000
0000
0000
,
1000
0000
0100
0000
,
1000
0000
0000
0000
,
1000
0000
0100
0000
,
1000
0000
0000
0000
,
0100
0000
0010
0000
,
0100
0000
0000
0000
,
0100
0000
0010
0000
,
0100
0000
0000
0000
,
1000
0000
0001
0000
,
1000
0000
0000
0000
,
0100
0000
0000
0000
,
0010
0000
0000
0000
,
0100
0000
1000
0000
,
0100
0000
0000
0000
,
1000
0000
0000
0000
,
2000
0000
3000
0000
,
0100
0000
0000
0000
,
1000
0000
0010
0000
,
1000
0000
0000
0000
,
0010
0000
0000
0000
,
0100
0000
0010
0000
,
0100
0000
0000
0000
,
0010
0000
0000
0000
,
1001
0000
0000
0000
,
0001
0000
0100
0000
,
0010
0000
1000
0000
,
0010
0000
1000
0000
,
0010
0000
0000
0000
,
0010
0000
0000
0000
,
0010
0000
0000
0000
,
0010
0000
0000
0000
,
2000
0000
3000
0000
,
1000
0000
0100
0000
,
1000
0000
0000
0000
,
0010
0000
0100
0000
,
0010
0000
0000
0000
,
1000
0000
0010
0000
,
1000
0000
0000
0000
,
0010
0000
0000
0000
,
0010
0000
0000
0000
,
1000
0000
0001
0000
,
1000
0000
0000
0000
,
0010
0000
0000
0000
,
0100
0000
0000
0000
,
0010
0000
0100
0000
,
0010
0000
0000
0000
,
1000
0000
0010
0000
,
1000
0000
0000
0000
,
0001
0000
0010
0000
,
0100
0000
0000
0000
,
0100
0000
0000
0000
,
1000
0000
0010
0000
,
1000
0000
0000
0000
,
0010
0000
0000
0000
,
1000
0000
0000
0000
,
1000
0000
0001
0000
,
0010
0000
0000
0000
,
0001
0000
0000
0000
,
0001
0000
0000
0000
,
0001
0000
0000
0000
,
1000
0000
0010
0000
,
1000
0000
0000
0000
,
0001
0000
0000
0000
,
0000
0000
0000
0000
,
0110
0000
0000
0000
;
