#TITLE:8-Bit World;
#ARTIST:Your Favorite Martian feat. Hoodie Allen;
#BANNER:8-Bit World-bn.png;
#BACKGROUND:8-Bit World-bg.png;
#CDTITLE:.\CDTITLES\zerox.png;
#MUSIC:8-Bit World.mp3;
#OFFSET:-0.049;
#SAMPLESTART:51.68;
#SAMPLELENGTH:14.7;
#BPMS:0=130.13;
#BGCHANGES:0=8-Bit World.avi=1=0=1=0,287=8-Bit World.png=1=1=0=1,999=-=1=0=0=0;

//---------------dance-single - ----------------
#NOTES:
     dance-single:
     :
     Hard:
     8:
     0.457,0.452,0.134,0.223,0.141:
0000
0000
0000
0000
,
0000
0000
0000
0000
,
0000
0000
0000
0000
,
0000
0000
0000
0000
,
1000
0001
0100
0000
0001
1000
0001
0000
,
0010
0000
0100
0000
0010
0001
0100
0000
,
0010
0000
1010
0000
0001
1000
0100
0000
,
0010
0000
0001
0010
0100
0010
0100
0000
,
1000
0010
0100
0000
0100
0001
1000
0100
,
0000
1000
0010
0000
1000
0001
0010
0001
,
0000
0000
1000
0000
0010
0000
0000
0000
0001
0000
0000
0010
0000
0000
1000
0000
,
0000
0001
0010
0100
1000
0001
0100
0010
,
0100
0000
0101
0000
1000
0100
1000
0000
,
0010
0000
1010
0000
0001
0100
0010
0100
,
0001
0000
1000
0000
0100
0000
1000
0001
,
1000
0000
0000
0000
,
0010
1000
0100
0001
0100
0010
0001
0000
,
0100
0000
0101
0000
0010
0100
0010
0000
,
1000
0001
0010
0000
0100
0000
1001
0000
,
0100
1000
0010
0000
0100
0010
0100
0010
,
1000
0000
0001
0000
1000
0000
0000
0000
0001
0000
0100
0001
0000
0100
0000
0001
,
1000
0000
0100
0000
1000
0000
0000
0000
0100
0000
0010
0100
0000
0010
0000
0100
,
1000
0000
0001
0000
0100
0000
0000
0000
0010
0000
1000
0010
0000
1000
0000
0010
,
0100
0001
0010
0000
0001
0000
1100
0000
,
0001
0000
0100
0000
0010
0000
0000
0000
1000
0000
0100
1000
0000
0100
0000
1000
,
0010
0000
0100
0000
0010
0000
0000
0000
0100
0000
0001
0100
0000
0001
0000
0100
,
0010
0000
1000
0000
0001
0000
0000
0000
0010
0000
0100
0010
0000
0100
0000
0010
,
0001
0100
0010
0000
1000
0000
1010
0000
,
0002
0000
0000
0023
0000
0000
0130
1000
,
0010
0000
0101
0000
1000
0100
0010
0100
,
2000
0000
0000
3020
0000
0000
0130
0000
,
0001
0100
1000
0100
0001
0010
0100
0000
,
0020
0000
0000
0032
0000
0000
0103
0010
,
1000
0000
0001
1000
0001
0000
0110
0000
,
0002
0000
0000
2003
0000
0000
3100
0001
,
0100
0010
0001
0000
0200
0000
0000
0000
,
0310
0010
2000
0000
3001
0000
0010
0100
,
1000
0010
0200
0000
0310
0000
1000
0100
,
0001
0100
1000
0000
1100
0000
0001
0010
,
0001
0100
0010
0000
0110
0000
0101
0000
,
1000
0100
0020
0000
0031
0000
0001
0000
,
1000
0010
0001
0010
0100
0001
0010
0000
,
0001
0100
0001
0000
1001
0000
1000
0100
,
1000
0010
0100
0000
0010
0100
0020
0000
,
2030
0000
0100
0000
3001
0010
0100
0000
,
0010
0001
0010
0001
2000
0000
3010
0000
,
0200
0000
0001
0000
0310
1000
0100
0001
,
0100
1000
0010
0000
0101
0000
1010
0000
,
0001
0010
0001
1000
0010
0000
0100
0000
,
0001
0100
1000
0100
0020
0000
1000
0000
,
0130
0001
0010
0000
0110
0000
1000
0001
,
0200
0000
1000
0301
,
0010
0000
0001
0000
0010
0000
0000
0000
0001
0000
1000
0010
0000
0200
0000
0000
,
0301
0000
1000
0000
0001
0000
0000
0000
1000
0000
0100
0010
0000
0002
0000
0000
,
1003
0000
0010
0000
0100
0000
0000
0000
0001
0000
0100
0001
0000
0200
0000
0000
,
0310
0000
1000
0000
0100
0000
0000
0000
0010
0000
0001
0010
0000
0200
0000
0000
,
1300
0000
0001
0000
0100
0000
0000
0000
0001
0000
0000
1000
0000
0100
0000
0010
,
0100
0000
1000
0000
0010
0000
0000
0000
0100
0000
0000
0001
0000
0100
0000
0010
,
1000
0000
0001
0000
0010
0000
0000
0000
0100
0000
0000
1000
0000
0001
0000
0100
,
0010
0100
0001
0000
1000
0100
1000
0010
,
0200
0000
0000
0302
0000
0000
0013
0100
,
0010
0000
1100
0000
0001
0010
0001
1000
,
0020
0000
0000
0230
0000
0000
0301
0000
,
1000
0100
0001
0100
1000
0001
0100
0000
,
0020
0000
0000
2030
0000
0000
3001
0010
,
0100
0000
1000
0001
1000
0000
0110
0000
,
0002
0000
0000
0023
0000
0000
0130
1000
,
0010
1000
0100
0000
0010
0100
1000
0000
,
0010
0000
0000
0100
0000
0000
0001
0000
,
1000
0000
0000
1000
0000
0000
1000
0000
0100
0000
0000
0000
0000
0000
0000
0000
,
0010
0000
0000
0100
0000
0000
1000
0000
,
0001
0000
0000
0001
0000
0000
0001
0000
0100
0000
0000
0000
0000
0000
0000
0000
;

//---------------dance-single - ----------------
#NOTES:
     dance-single:
     :
     Beginner:
     1:
     0.114,0.156,0,0,0:
0000
0000
0000
0000
,
0000
0000
0000
0000
,
0000
0000
0000
0000
,
0000
0000
0000
0000
,
0010
0000
0000
0000
,
0010
0000
0000
0000
,
1000
0000
0000
0000
,
0001
0000
1000
0000
,
0100
0000
0000
0000
,
0100
0000
0000
0000
,
0010
0000
0000
0000
,
0001
0000
0100
0000
,
0001
0000
0000
0000
,
1000
0000
0000
0000
,
0001
0000
0001
0000
,
0000
0000
0000
0000
,
1000
0000
0000
0000
,
0010
0000
0000
0000
,
0100
0000
0000
0000
,
0010
0000
0100
0000
,
0001
0000
0001
0000
,
1000
0001
1000
0000
,
1000
0000
1000
0000
,
0001
1000
0001
0000
,
0010
0000
0010
0000
,
0100
0010
0100
0000
,
0100
0000
0100
0000
,
0010
0100
0010
0000
,
0001
0000
0000
0000
,
0010
0000
0000
0100
,
1000
0000
0000
0000
,
0010
0000
0000
0100
,
0001
0000
0000
0000
,
1000
0000
0000
1000
,
0010
0000
0000
0000
,
0100
0001
0010
0000
,
0100
0000
0000
0000
,
0100
0000
0000
0000
,
0010
0000
0000
0000
,
0010
0000
0100
0000
,
1000
0000
0000
0000
,
1000
0000
0000
0000
,
0001
0000
0000
0000
,
0001
0000
0010
0000
,
0100
0000
0000
0000
,
1000
0000
0000
0000
,
0010
0000
1000
0000
,
0100
0000
0000
0000
,
0010
0000
0000
0000
,
0001
0000
0000
0000
,
0100
0000
0010
0000
,
0100
0000
0000
0000
,
0001
0000
0001
0000
,
1000
0001
1000
0000
,
1000
0000
1000
0000
,
0001
1000
0001
0000
,
0010
0000
0010
0000
,
0100
0010
0100
0000
,
0100
0000
0100
0000
,
0010
0100
0010
0000
,
0001
0000
0000
0000
,
0010
0000
0000
0100
,
1000
0000
0000
0000
,
0010
0000
0000
0100
,
0001
0000
0000
0000
,
1000
0000
0000
1000
,
0010
0000
0000
0000
,
0100
0001
0010
0000
,
0100
0000
0000
0000
,
0000
0000
0000
0000
,
0100
0000
0000
0000
;

//---------------dance-single - ----------------
#NOTES:
     dance-single:
     :
     Medium:
     5:
     0.358,0.346,0.119,0.245,0: // measure 1
0000
0000
0000
0000
,  // measure 2
0000
0000
0000
0000
,  // measure 3
0000
0000
0000
0000
,  // measure 4
0000
0000
0000
0000
,  // measure 5
0001
0000
0010
0000
0100
1000
0100
0000
,  // measure 6
0010
0000
0001
0000
1000
0001
1000
0000
,  // measure 7
0010
0100
0001
0001
,  // measure 8
2000
0100
0001
3010
,  // measure 9
0001
0000
0100
0000
0001
0100
0001
0000
,  // measure 10
1000
0000
0010
0000
1000
0010
1000
0000
,  // measure 11
0001
0010
0100
1000
,  // measure 12
0010
1000
0100
0000
0010
0001
0100
0000
,  // measure 13
0010
0000
0100
0001
1000
0000
0100
0000
,  // measure 14
0010
0000
0100
1000
0010
0000
0100
0000
,  // measure 15
0001
0000
0010
0001
0010
0000
0001
0000
,  // measure 16
1000
0000
0000
0000
,  // measure 17
0010
0000
0100
0000
0010
0100
0001
0000
,  // measure 18
1000
0001
0010
1100
,  // measure 19
0001
0100
0010
0000
1000
0100
0010
0000
,  // measure 20
0200
0000
0000
0000
1300
0001
0100
0000
,  // measure 21
0010
0000
0010
1000
,  // measure 22
0100
0000
1100
0000
0010
0001
0010
0000
,  // measure 23
0100
0000
0010
0001
,  // measure 24
0100
0000
0101
0000
0010
1000
0010
0000
,  // measure 25
1000
0001
0010
0000
,  // measure 26
0100
0000
0110
0000
1000
0001
1000
0000
,  // measure 27
0001
1000
0100
0000
,  // measure 28
0010
0000
0100
0000
0001
1000
0001
0000
,  // measure 29
2000
0000
0000
3020
0000
0000
0230
0000
,  // measure 30
0301
0000
0101
0000
1000
0100
1000
0000
,  // measure 31
0002
0000
0000
2003
0000
0000
3200
0000
,  // measure 32
0310
0000
0011
0000
1000
0010
0100
0000
,  // measure 33
0002
0000
0000
0023
0000
0000
0230
0000
,  // measure 34
1300
0000
1001
0000
0010
0100
0010
0000
,  // measure 35
2000
0000
0000
3002
0000
0000
0203
0000
,  // measure 36
0301
0010
0200
0000
,  // measure 37
0310
0001
0100
0001
,  // measure 38
1000
0010
0100
0010
0100
0000
0001
0000
,  // measure 39
0010
0000
1000
0000
0010
0100
1000
0000
,  // measure 40
0001
0000
0100
0000
0001
1000
0100
0000
,  // measure 41
0101
0000
1000
0000
0100
0010
0100
0000
,  // measure 42
1000
0000
0010
0000
0100
0001
0100
0000
,  // measure 43
0010
0000
1000
0000
0100
1000
0010
0000
,  // measure 44
0001
0000
0010
0000
0100
0001
0010
0000
,  // measure 45
2100
0000
3010
0000
,  // measure 46
0100
0010
1000
0010
1000
0000
0000
0000
,  // measure 47
0102
0000
0000
0000
1003
0000
0100
0010
,  // measure 48
0100
0010
0011
1100
,  // measure 49
0002
0000
1003
0010
,  // measure 50
0100
0001
0010
0000
1001
0000
0100
0000
,  // measure 51
0010
0000
0001
0000
1000
0001
1000
0001
,  // measure 52
0200
0000
0301
1000
,  // measure 53
0100
0000
0010
0100
0000
1000
0000
0001
,  // measure 54
0000
0100
0000
0001
0000
0010
0100
0010
,  // measure 55
0001
0000
1000
0010
0000
0100
0000
0001
,  // measure 56
0000
1000
0000
0001
0000
0010
0100
0000
,  // measure 57
1000
0000
0001
0100
0000
0001
0000
0010
,  // measure 58
0000
0100
0000
1000
0000
0010
0100
0010
,  // measure 59
1000
0000
0100
0010
0000
0001
0000
1000
,  // measure 60
0000
0010
0000
0100
0000
0010
1000
0000
,  // measure 61
0002
0000
0000
0023
0000
0000
0230
0000
,  // measure 62
1300
0000
1100
0000
0001
0100
0001
0000
,  // measure 63
2000
0000
0000
3002
0000
0000
0203
0000
,  // measure 64
0310
0000
1010
0000
0001
0010
0100
0000
,  // measure 65
2000
0000
0000
3020
0000
0000
0230
0000
,  // measure 66
0301
0000
1001
0000
0010
0100
0010
0000
,  // measure 67
0002
0000
0000
2003
0000
0000
3200
0000
,  // measure 68
1300
0000
0010
0000
0100
0002
0000
0000
,  // measure 69
1003
0000
0000
0100
0000
0000
0010
0000
,  // measure 70
0010
0100
2000
0000
,  // measure 71
3001
0000
0000
0100
0000
0000
0010
0000
,  // measure 72
0010
0100
0001
0000
;

//---------------dance-single - ----------------
#NOTES:
     dance-single:
     :
     Easy:
     3:
     0.233,0.239,0,0.112,0:
0000
0000
0000
0000
,
0000
0000
0000
0000
,
0000
0000
0000
0000
,
0000
0000
0000
0000
,
1000
0000
0001
0100
,
0001
0000
0010
0100
,
0010
0000
0001
0000
,
1000
0010
0100
0010
,
1000
0000
0001
0010
,
0100
0000
0100
0010
,
0001
0000
0100
0000
,
0010
1000
0001
0010
,
0100
0000
0010
0001
,
0100
0000
0010
1000
,
0010
0000
0000
0000
1000
0000
0001
0001
,
0001
0000
0000
0000
,
0010
0000
0100
1000
,
0001
0100
0010
0010
,
0100
0000
0001
0010
,
0100
0000
0010
0001
,
1000
0010
1000
0010
,
0001
0100
2000
0000
,
3001
0010
0001
0010
,
1000
0100
0002
0000
,
1003
0010
1000
0010
,
0001
0100
2000
0000
,
3001
0010
0001
0010
,
1000
0100
0002
0000
,
0013
0000
0100
1000
,
0001
0100
0020
0000
,
1030
0000
0100
0010
,
0001
1000
0002
0000
,
0103
0000
0010
1000
,
0100
1000
0020
0000
,
0130
0000
0001
1000
,
0100
0010
0001
0000
,
1000
0000
0010
0000
,
1000
0001
1000
0000
,
0001
0100
0010
0000
,
0100
0001
0010
0000
,
0100
0000
0010
0000
,
0100
1000
0100
0000
,
1000
0001
0100
0000
,
0010
1000
0100
1000
,
0010
0000
0100
0000
,
0001
0010
1000
0000
,
0010
0100
1000
0000
,
0001
0100
1000
0100
,
0001
0000
0001
0000
,
0010
0100
1000
1000
,
0010
0000
0100
0001
,
0200
0000
0301
1000
,
0001
0010
0001
0010
,
1000
0100
0002
0000
,
1003
0010
1000
0010
,
0001
0100
2000
0000
,
3001
0010
0001
0010
,
1000
0100
0002
0000
,
1003
0010
1000
0010
,
0001
0100
2000
0000
,
3010
0000
0100
0001
,
1000
0100
0020
0000
,
0031
0000
0100
0010
,
1000
0001
2000
0000
,
3100
0000
0010
0001
,
0100
0001
0020
0000
,
0130
0000
1000
0001
,
0100
0010
1000
0000
,
0100
0000
0000
0000
,
0010
0000
0000
0000
,
0010
0000
0000
0000
,
0100
0000
0100
0000
;
