#TITLE:Becoming X;
#ARTIST:Sneaker Pimps;
#CREDIT:MANTIS;
#BANNER:x-bn.png;
#BACKGROUND:x-bg.png;
#CDTITLE:.\CDTITLES\logo.png;
#MUSIC:Becoming X.mp3;
#OFFSET:.003;
#SAMPLESTART:19.68;
#SAMPLELENGTH:14.04;
#BPMS:0=73.16,11=36.58,11.5=73.16,18.5=36.58,19=73.16,26=36.58,26.5=73.16,33.5=36.58,34=73.16,41=36.58,41.5=73.16,48.5=36.58,49=73.16,72=36.58,72.5=73.16,79.5=36.58,80=73.16,87=36.58,87.5=73.16,94.5=36.58,95=73.16,102=36.58,102.5=73.16,109.5=36.58,110=73.16;
#STOPS:6.5=0.82;

//---------------dance-single - MANIAC----------------
#NOTES:
     dance-single:
     MANIAC:
     hard:
     9:
     0.429,0.401,0.256,0.157,0.359:
0000
0000
0000
0000
,
0000
0000
0000
0000
0000
0000
1000
0010
,
0100
0000
1000
0000
1001
0100
0012
1003
,
0000
0100
0000
0011
0100
0001
1000
0001
,
0000
0100
0000
0010
0001
2100
3010
0000
,
0001
0000
0000
0000
1010
0000
0100
0000
0001
0000
0010
0000
0001
0100
0001
0000
,
0100
0000
0010
0000
1000
0100
1000
0000
0102
0000
1003
0000
1000
0000
0101
0000
,
0010
0000
1000
0100
1000
0000
0101
0000
0010
0000
1000
0001
1000
0000
0100
0000
,
0010
0000
0001
0100
0001
0000
2010
0000
3100
0000
0100
0000
0011
0000
0100
0000
,
1000
0010
1000
0000
0110
0000
0001
0000
0100
0010
1000
0000
0100
0010
0001
0000
,
0100
0010
1000
0000
2001
0000
3100
0000
0100
0000
0011
0000
0100
0000
1000
0010
,
1000
0000
0100
0000
0011
0000
0100
1000
0001
0000
0010
0100
0010
0000
0001
0100
,
0010
0000
1200
0000
0310
0000
0001
0100
0001
0000
0010
0000
1000
0000
0100
0000
,
0001
0100
0000
0000
1001
0000
0100
0000
0000
0010
0000
0100
0001
1000
0010
0000
,
1000
0100
0000
0000
1001
0000
0001
0000
0000
0100
0000
0000
0001
0000
1000
0000
,
0100
0010
0000
0000
1001
0000
1000
0000
0000
0001
0000
0100
0010
1000
0010
0000
,
0001
0010
0000
0000
1001
0000
1000
0000
0000
0100
0000
0000
0001
0000
0100
0010
,
1000
0000
0100
0000
0010
0001
0010
0000
0100
0000
1000
0000
0001
0100
0001
0000
,
1020
1000
1030
0000
0100
0001
0100
0010
0100
0000
2000
0000
3001
0000
0010
0000
,
0100
0000
1000
0001
1000
0000
0100
0000
0100
0000
0010
1000
0010
0000
0102
0100
,
0103
0000
0010
1000
0100
0010
0100
0000
0002
0000
0103
0000
0010
0000
0100
0000
,
0001
0100
0001
0000
0010
0100
1000
0000
0001
0010
0100
0000
2001
0001
3001
0000
,
0100
0010
0100
0001
1000
0000
0200
0000
1300
0000
0001
0000
0010
0000
0001
1000
,
0100
0000
0010
0001
0010
0000
0100
1000
0100
0000
0021
0001
0031
0000
0100
0000
,
0001
0010
0001
0100
0010
1000
0001
0000
0010
0000
0100
0000
0001
0010
0001
0000
,
1000
0100
1000
0000
0110
0000
0001
0000
2100
0010
3001
0000
0000
0010
0100
0010
,
0002
0000
0100
0000
0103
0000
0100
0000
0010
0000
1000
0100
0010
0000
0001
1000
,
0100
0000
1001
0000
0100
0000
0012
0100
1003
0000
0000
0010
0100
0001
2000
0000
,
0100
0000
3100
0000
0100
0010
0000
0000
1000
0001
1000
0000
0000
0001
1000
0100
,
0010
0001
0100
0000
1000
0001
0000
0000
0100
0010
0100
0000
0000
0001
0000
0000
,
0010
0000
0100
1000
0100
0001
0000
0000
0100
0010
0100
0000
0000
0010
0001
0010
,
0100
1000
0100
0000
0010
0001
0000
0000
1000
0100
1000
0000
0000
0100
0010
0001
,
1000
0100
1000
0000
0001
1000
0100
0000
1001
0000
0100
0010
0000
0000
0110
0000
,
1000
0002
0000
0003
0010
0100
1000
0000
0110
0000
1000
0001
0000
0000
1001
0000
,
0010
0200
0000
0300
0001
1000
0000
0000
0000
0000
0100
0001
0000
0000
0000
0000
;

//---------------dance-single - BASIC----------------
#NOTES:
     dance-single:
     BASIC:
     easy:
     4:
     0.249,0.258,0.206,0.330,0:
0000
0000
0000
0000
,
0000
0000
0000
1000
,
1000
0000
0001
0000
0001
0000
0220
0330
,
1000
0100
0010
0001
0000
0100
0000
0010
,
0000
1000
0000
0100
0000
0220
0330
1000
,
0010
0100
0001
0000
0100
0000
1001
0000
,
0010
0000
1001
0000
0022
0033
0100
0010
,
1000
0110
0000
1000
0000
0110
0000
0001
,
0000
0110
0000
2200
3300
0010
0100
0010
,
1001
0100
1100
0100
,
1100
0000
0202
0303
1000
0010
1000
0001
,
0000
0011
0000
0001
0000
0011
0000
0001
,
0000
2020
3030
0001
0100
0001
1000
0000
,
0020
0000
0030
0200
0000
0300
0010
0000
,
0002
0000
0003
0200
0000
0300
0000
0000
,
0020
0000
0030
2000
0000
3000
0100
0000
,
0002
0000
0003
0020
0000
0130
0000
0000
,
1000
0000
0001
0000
0100
0010
0100
0000
,
0002
0103
0000
1000
0100
1000
0000
0001
,
0000
0100
0000
0010
0001
0010
0000
2000
,
3010
0000
0010
0100
0001
0000
1000
1000
,
1000
0000
0001
0001
0001
0000
0220
0330
,
0000
1001
2002
3003
0000
0100
0100
0100
,
0000
0010
0010
0010
0000
2002
3003
0000
,
0110
0220
0000
0330
1000
0000
0101
0000
,
0010
0100
0001
0000
0020
0031
0000
0100
,
1000
0001
0000
0010
0000
0100
0000
0010
,
0001
1000
0000
0020
0130
0000
1000
0001
,
0100
0000
0200
0000
0300
0002
0000
0003
,
1000
0000
0200
0000
0300
2000
0000
3000
,
0001
0000
0020
0000
0030
0002
0000
0003
,
1000
0000
0020
0000
0030
1000
2000
0000
,
0000
3100
0001
0100
,
1100
0010
0001
0010
,
1100
0100
0010
0001
;

//---------------dance-single - ANOTHER----------------
#NOTES:
     dance-single:
     ANOTHER:
     medium:
     6:
     0.258,0.244,0.124,0.066,0.095:
0000
0000
0000
0000
,
0000
0000
0000
0000
0000
0000
1010
0001
,
0100
0100
0010
0001
0100
0100
1000
0100
,
0001
0010
0000
0101
0000
0101
0010
0100
,
0100
1000
0001
0100
0100
0001
0100
0010
,
1000
1100
0001
0001
,
0001
0010
0100
1000
0002
0013
0100
1000
,
0001
1000
0000
0010
0000
0010
0000
0010
,
0001
0100
0010
2000
3100
1000
0010
0100
,
0001
0000
1000
0000
0100
0000
1000
0010
,
0100
0001
0020
0130
0010
1000
0001
0100
,
0000
0001
0000
0100
0000
0001
0100
0010
,
1000
0200
0301
0010
0100
0001
0100
0000
,
0010
0100
0000
0000
0000
0000
0001
0000
0000
1000
0000
0000
0000
0000
0000
0000
,
1000
0100
0000
0000
0000
0000
0010
0000
0000
0001
0000
0000
0000
0000
0000
0000
,
1000
0010
0000
0000
0000
0000
0100
0000
0000
0001
0000
0000
0000
0000
0000
0000
,
0010
0001
0000
0000
0000
0000
1000
0000
0000
0010
0000
0000
0000
0000
0000
0000
,
1001
0000
0100
0010
0100
0010
1000
0000
,
0001
0001
0001
0000
0000
0000
0100
0000
0010
0000
0100
0000
0000
0000
1001
0000
,
0000
0000
0010
0000
0001
0000
0010
0000
0001
0000
0100
0000
0000
0000
0010
0010
,
0010
0000
1000
0001
1000
0000
0101
0000
,
1100
0000
0010
0000
0100
0000
0001
0000
0100
0000
0000
0000
1000
0100
1000
0000
,
0000
0100
0010
0100
0000
1100
0000
0110
,
0010
0000
0001
0000
0100
0000
0001
0000
0000
0000
0001
0100
0001
0000
0000
0000
,
0100
1000
0010
0000
0110
0000
0101
1000
,
0010
0000
0100
0000
0001
0000
0000
0000
1000
0100
0010
0000
0100
0000
0001
0000
,
1000
0100
0000
0011
0000
1001
0100
0010
,
1000
0000
0010
0000
0000
0000
0001
0100
0010
0000
0100
0000
1000
0000
0001
0000
,
0100
0000
0010
0000
1000
0001
0000
0000
0000
0000
0100
0000
0000
0010
0000
0000
,
1000
0000
0000
0000
0010
0001
0000
0000
0000
0000
0100
0000
0000
0010
0000
0000
,
0001
0000
0000
0000
1000
0010
0000
0000
0000
0000
0001
0000
0000
0100
0000
0000
,
0010
0000
0000
0000
0100
1000
0000
0000
0000
0000
0001
0000
0000
0000
0002
0000
,
0000
0000
0000
0000
0103
0000
0000
0000
0100
0000
1000
0001
0000
0000
0000
0000
,
0010
0000
0000
0000
0100
0000
0000
0000
0100
0000
0001
1000
0000
0000
0000
0000
,
0100
0000
2002
3000
0200
0000
0303
0000
;
