#TITLE:Klungkung 1655;
#ARTIST:Simon;
#BANNER:banner.png;
#BACKGROUND:background.png;
#MUSIC:music.ogg;
#OFFSET:-0.580;
#SAMPLESTART:33.913;
#SAMPLELENGTH:12.000;
#BPMS:0.000=180.000;
#NOTES:dance-single::Easy:5::
0000
0000
0000
0000
,
0000
0000
0000
0000
,
1000
0000
1000
0000
,
0001
0000
0001
0000
,
0010
0000
0010
0000
,
0100
0000
0100
0000
,
1000
0001
1000
0001
,
0100
0010
0100
0010
,
2002
0000
0000
0000
,
0000
0000
0000
3003
,
0010
1000
0001
0100
,
0010
1000
0000
0010
,
1000
0100
1000
0100
,
0010
0001
0010
0001
,
1000
0001
1000
0001
,
0100
0010
0100
0010
,
1000
0100
0010
0001
,
1000
0010
0100
0001
,
1000
0100
0001
0100
,
1000
0010
0100
0001
,
2000
0000
0000
3000
,
0200
0000
0000
0300
,
0002
0000
0000
0003
,
0020
0000
0030
1001
,
0001
0100
0001
0100
,
0010
1000
0010
1000
,
0100
1000
0010
1000
,
1000
0001
1000
0000
1000
0001
1000
0000
,
1000
0100
0010
0001
,
0100
0010
1000
0100
,
0010
0001
0100
0010
,
0010
1000
0001
0000
0010
1000
0001
0000
,
0000
0010
1000
0100
,
0000
0010
0001
0100
,
0000
1000
0100
0001
,
0000
0001
0100
1000
,
0000
1001
0110
1001
,
0000
1100
0101
1100
,
0000
1000
0100
0010
,
0001
0010
0000
0000
,
2020
0000
0000
3030
,
2200
0000
0000
3300
,
0202
0000
0000
0303
,
0022
0000
0000
0033
,
2000
3002
2003
3002
,
0203
0302
0023
0230
,
2300
3020
0230
0302
,
0023
0230
2300
3020
,
0130
0000
0001
1000
0001
0000
0010
0000
,
1000
0000
0010
0100
0010
0000
0001
0000
,
1000
0000
0001
0010
0001
0000
0100
0000
,
0001
0000
1000
0010
1000
0000
0000
0000
,
2002
0000
0000
0000
,
0000
0000
0000
3003
,
0100
0000
0100
0010
0100
0000
0100
0010
,
0100
0001
1000
0010
,
0010
1001
0100
1001
,
0010
1001
0100
1001
,
1000
0001
0010
1100
,
0010
0101
0010
1100
,
0010
0101
1000
0010
,
0100
1100
0010
0011
,
0100
1100
0010
0011
,
0001
1000
0001
1100
,
0100
1010
1000
0011
,
0010
0011
0110
1100
,
1001
0000
0000
0000
,
0100
0000
0000
0000
,
0100
0000
0100
0000
,
0100
0100
0100
0100
,
1000
0100
1000
0100
,
0010
0001
0010
0001
,
1000
0100
1000
0100
1000
0001
1000
0001
,
0020
0000
0000
0000
0030
0001
1000
0100
,
0000
0100
1000
0010
;
#NOTES:dance-single::Medium:8::
0000
0000
0000
0000
,
0000
0000
0000
0000
,
1000
1000
1000
1000
,
0001
0001
0001
0001
,
0100
0100
0100
0000
0100
0000
0100
0000
,
0010
0010
0010
0000
0010
0000
0010
0000
,
1000
0001
1000
0000
1000
0010
1000
0000
,
1000
0100
1000
0100
0010
0001
0010
0001
,
2200
0000
0000
0000
,
0000
0000
0000
0000
0000
0000
0000
3300
,
0001
0010
0100
1000
0010
0100
0001
0010
,
0100
1000
0100
0000
0000
0000
0010
0000
,
0001
1000
0001
0000
1000
0001
1000
0000
,
0001
0100
0001
0000
0100
0001
0100
0000
,
1000
0100
1000
0000
0010
1000
0010
0000
,
0100
0001
0100
0000
0010
0000
0110
0000
,
1000
0010
1000
0000
0001
0010
0001
0000
,
1000
0100
1000
0000
0001
0100
0001
0000
,
0010
0100
0010
0000
1000
0010
1000
0000
,
0100
1000
0100
0000
1000
0001
1000
0000
,
0201
0000
0001
0000
,
0001
0000
0001
0300
,
0100
0001
0100
0000
1000
0010
1000
0000
,
0100
0001
0100
0001
1000
0010
1000
0000
,
0000
0100
1000
0010
,
0000
0100
0001
0010
,
0000
1000
0001
0010
,
0010
0001
0010
0000
0010
0001
0010
0000
,
0000
0001
0010
1000
,
0000
1000
0100
0001
,
0000
0100
1000
0010
,
1000
0001
0100
0000
1000
0001
0100
0000
,
2001
3010
1020
0130
,
0210
0301
0102
1003
,
0010
0101
0010
1100
,
0010
0101
0010
1100
,
2010
3100
0012
0103
,
2100
3001
0021
0130
,
1000
0101
0001
1100
,
0100
1010
0100
0011
,
1000
0000
2100
0000
0000
0000
0000
3000
,
0100
0000
0210
0000
0000
0000
0000
0300
,
0010
0000
0021
0000
0000
0000
0000
0030
,
0001
0000
1002
0000
0000
0000
0000
0003
,
1000
0001
1000
0000
1000
0100
1000
0000
,
1000
0001
1000
0000
1000
0010
1000
0000
,
1000
0100
1000
0001
0100
0001
1000
0100
,
1000
0001
0100
0001
1000
0100
1000
0001
,
0010
0000
0010
0010
0100
0000
0100
0100
,
1000
0000
1000
1000
0001
0000
0001
0001
,
0010
0000
0010
0000
0100
1000
0100
0000
,
1000
0010
1000
0000
0001
0100
0001
0000
,
0000
2002
0000
0000
0000
0000
0000
0000
,
0000
0000
0000
3003
,
0010
1100
0010
0101
,
1001
0001
0100
0010
,
1000
0001
1000
0000
0010
0100
0010
0000
,
1000
0001
1000
0000
0100
0010
0100
0000
,
0010
0001
0010
0100
1000
0100
1000
0000
,
0001
0100
0001
0000
0010
1000
0010
0000
,
0001
1000
0001
0000
1000
0100
0001
0100
,
1000
0010
1000
0000
0001
0100
0001
0000
,
1000
0100
1000
0000
0001
0010
0001
0000
,
0010
0001
0100
0001
0010
0100
0010
0000
,
0100
0010
0100
0000
0010
0100
0010
0000
,
0100
0010
0100
0000
0001
1000
0100
1000
,
0002
0203
0320
2030
,
3200
0320
0032
0203
,
0320
2030
3200
0320
,
0032
0203
0320
1030
,
0100
0000
0000
0000
0100
0000
0000
0100
0000
0000
0100
0000
0100
0000
0100
0000
,
0010
0000
0000
0000
0010
0000
0000
0010
0000
0000
0010
0000
0010
0000
0010
0000
,
1000
0000
0001
0100
0000
1000
0001
0100
,
0020
0000
0000
0000
0030
1000
0001
0100
,
0000
0100
1000
0010
;
#NOTES:dance-single::Hard:10::
0000
0000
0000
0000
,
0000
0000
0000
0000
,
1000
0000
0000
0000
0100
0000
0000
0000
0010
0000
0000
0001
0100
0000
0001
0000
,
0010
0000
0000
0000
0100
0000
0000
0000
1000
0000
0000
0010
0100
0000
0010
0000
,
0100
0000
0000
0000
0001
0000
0000
0000
0010
0000
0000
0100
1000
0000
0100
0000
,
0010
0000
0000
0000
0001
0000
0000
0000
0100
0000
0000
0010
0001
0000
0010
0000
,
0100
0001
0010
0100
1000
0010
0100
0001
,
0010
0100
1000
0100
0010
0001
0100
0010
,
1000
0000
0000
1000
0100
0000
0000
0100
0010
0000
0000
0010
0001
0000
0000
0001
,
0100
0000
0000
0100
0010
0000
0000
0010
1000
0000
0000
1000
0100
0000
0000
0100
,
0001
0010
0001
1000
0100
1000
0100
0001
,
0100
1000
0100
0000
1000
0000
0101
0000
,
1000
0010
1000
0100
1000
0010
1000
0100
,
1000
0001
1000
0100
0001
0100
1000
0100
,
0001
0010
0100
1000
0001
0010
0100
1000
,
0100
0010
0100
1000
0100
0010
0001
0010
,
0100
1000
0010
1000
0100
1000
0010
0100
,
0001
0010
0100
1000
0010
0001
0100
1000
,
0010
0001
0010
1000
0010
0001
0010
1000
,
0100
0000
0010
0001
0100
0000
1000
0000
0100
0000
0001
0000
0100
0000
0000
1000
,
0020
2030
3002
2003
,
3200
0320
0032
2003
,
3001
0100
0001
0100
0010
1000
0010
1000
,
0001
1000
0001
1000
0010
0100
0010
0100
,
0000
1000
1000
0001
1000
0000
0101
0000
,
0000
0100
0100
0001
0100
0001
0100
0001
,
0000
1000
1000
0100
0010
0000
1010
0000
,
1000
0010
1000
0000
1000
0010
1000
0000
,
0000
1000
1000
0010
1000
0000
0011
0000
,
0000
0100
0100
1000
0100
1000
0100
1000
,
0000
0100
1000
0010
0100
0000
1001
0000
,
0010
0001
0100
0000
0010
0001
0100
0000
,
0000
0001
0001
0010
0100
0000
1010
0000
,
0000
1000
1000
0010
1000
0010
1000
0010
,
0000
0100
0100
1000
0010
0000
0101
0000
,
0000
1000
1000
0001
1000
0001
1000
0001
,
0000
0001
0001
0010
0011
0000
1100
0000
,
0000
1000
1000
0010
1000
0010
1000
0010
,
0000
0010
0110
0100
1100
0000
0101
0000
,
0000
1000
0202
0000
0000
0000
0303
0000
,
1000
0000
0100
1000
0100
1000
0100
1000
0100
1000
0100
1000
0100
0000
1000
0000
,
0001
0000
0100
0001
0100
0001
0100
0001
0100
0001
0100
0001
0100
0000
0001
0000
,
0010
0000
0100
0010
0100
0010
0100
0010
0100
0010
0100
0010
0100
0000
0010
0000
,
0001
0000
0010
0001
0010
0001
0010
0001
0010
0001
0010
0001
0010
0000
0001
0000
,
1000
0001
0010
0001
1000
0001
0010
0001
,
1000
0001
0010
0001
1000
0001
0010
0001
,
1000
0010
0001
1000
0100
0001
1000
0010
,
0001
1000
0100
0001
1000
0010
0001
1000
,
0001
0000
0000
0100
0001
0000
0010
0000
0001
0000
1000
0000
0100
0000
1000
0000
,
0000
0000
0001
0000
0000
0000
1000
0000
0001
0000
0000
0010
0001
0000
0100
0000
,
0010
0000
1000
0000
0000
0000
0001
0000
1000
0000
0000
0010
1000
0000
0001
0000
,
0100
0000
0000
1000
0010
0000
0100
0000
0000
1000
0010
0000
0000
0000
0000
0000
,
0000
0000
1000
0100
1000
0100
2000
0000
0000
0000
0000
0000
0000
0000
0000
0000
,
0000
0000
0000
3000
,
0001
0000
0000
0000
0010
0000
0000
1000
0001
0000
1000
0000
0010
0000
0000
1000
,
0001
0100
1000
0010
,
0001
0010
0100
1000
0010
0100
0001
1000
,
0100
0010
0001
0100
0001
1000
0100
1000
,
0001
0010
0001
1000
0010
0100
0001
1000
,
0100
0010
0001
0100
0010
1000
0001
1000
,
0001
0010
1000
0100
0010
0001
1000
0001
,
1000
0100
0010
0001
0100
0010
1000
0001
,
1000
0010
0001
0100
0001
1000
0100
0010
,
0001
0100
0010
1000
0001
0100
0001
1000
,
0100
0001
0100
0010
1000
0001
1000
0010
,
0100
0001
1000
0100
0010
0001
0100
0001
,
0020
2030
3200
0320
,
0032
0203
0320
2030
,
3002
2003
3020
2030
,
3002
2003
3020
0130
,
1000
0000
0000
0010
1000
0000
0010
1000
0000
0010
1000
0000
1000
0000
1000
0000
,
0001
0000
0000
0100
0001
0000
0100
0001
0000
0100
0001
0000
0001
0000
0001
0000
,
0100
0000
0000
0001
0010
0000
0100
0000
0000
0001
0010
0000
0100
0000
1000
0000
,
0001
0100
0001
0100
0001
0100
0001
0100
0001
0000
1000
0000
0010
0000
0100
0000
,
0000
0100
1000
0010
;
