#TITLE:SAVE THE WORLD;
#ARTIST:SWEDISH HOUSE MAFIA;
#BANNER:SAVE THE WORLD.png;
#BACKGROUND:SAVE THE WORLD-bg.png;
#CDTITLE:.\CDTITLES\Clubbing.png;
#MUSIC:SAVE THE WORLD.mp3;
#OFFSET:-0.158;
#SAMPLESTART:36.87;
#SAMPLELENGTH:15.12;
#BPMS:0=127;
#STOPS:171.75=1.889764;
#BGCHANGES:12=Black.png=1=1=0=0,16=SAVE THE WORLD.avi=1=0=0=1,88=SAVE THE WORLD2.avi=1=0=0=1,236=SAVE THE WORLD-bg.png=1=0=0=0;

//---------------dance-single - ----------------
#NOTES:
     dance-single:
     :
     Hard:
     8:
     0.441,0.643,0.176,0.218,0.218: // measure 1
0000
0000
0000
0000
,  // measure 2
0000
0000
0000
0000
,  // measure 3
0000
0000
0000
0000
,  // measure 4
0000
0000
0000
0000
,  // measure 5
0010
0000
0000
1000
0010
0000
0000
1000
0010
0000
0100
0000
0020
0000
0000
0000
,  // measure 6
1030
0000
0000
0010
1000
0000
0000
0010
1000
0000
0100
0000
1000
0000
0001
0000
,  // measure 7
0010
0000
0000
0001
0010
0000
0000
0001
0010
0000
0100
0000
0010
0000
0000
0000
,  // measure 8
0001
0000
0000
0010
0001
0000
0000
0010
0001
0000
1000
0000
0001
0000
0100
0000
,  // measure 9
0010
0000
0000
1000
0010
0000
0000
1000
0010
0000
0100
0000
0020
0000
0000
0000
,  // measure 10
1030
0000
0000
0010
1000
0000
0000
0010
1000
0000
0100
0000
1000
0000
0001
0000
,  // measure 11
0010
0001
0010
0100
0010
0001
0100
0000
,  // measure 12
0010
1000
0010
0100
0010
1000
0100
0010
,  // measure 13
0000
1001
0000
0010
0001
0100
0010
0100
,  // measure 14
0001
1000
0100
0000
0010
0001
0100
0010
,  // measure 15
0000
1001
0000
0010
1000
0100
0010
0100
,  // measure 16
1000
0001
0100
0000
0010
1000
0100
0010
,  // measure 17
0000
1001
0000
0100
0010
0001
0100
0010
,  // measure 18
0000
1001
0000
0000
0001
1000
0010
0100
,  // measure 19
0010
0000
0000
1000
0010
0000
0000
1000
0010
0000
0001
0000
0010
0000
1000
0000
,  // measure 20
0010
0000
0000
1000
0010
0000
0000
1000
0010
0000
0100
0000
0010
0000
0000
0000
,  // measure 21
2002
0000
0000
0000
3003
0000
0100
1000
,  // measure 22
0020
0000
0000
0000
0030
0000
0100
0001
,  // measure 23
2000
0000
0000
0002
0000
0000
0000
0000
,  // measure 24
3003
0000
0000
0000
0010
1000
0100
0000
,  // measure 25
2002
0000
0000
0000
3003
0000
0100
0001
,  // measure 26
0020
0000
0000
0000
0030
0000
0100
0010
,  // measure 27
0200
0000
0000
0000
,  // measure 28
0300
0000
0000
0000
0010
0001
0100
0000
,  // measure 29
0210
0000
0000
1300
0000
0000
0010
2000
,  // measure 30
0000
0000
0000
3002
0000
0000
0013
0000
,  // measure 31
0210
0000
0000
0301
0000
0000
0010
0002
,  // measure 32
0000
0000
0000
2003
0000
0000
3100
0000
,  // measure 33
0020
0000
0000
1000
0000
0000
0130
2000
,  // measure 34
0000
0000
0000
0001
0000
0000
3010
0100
,  // measure 35
0001
0010
0001
0010
0001
0010
0001
0000
,  // measure 36
1000
0010
1000
0010
1000
0100
1000
0001
,  // measure 37
0020
0000
0030
1001
0000
0100
1000
0010
,  // measure 38
0000
0011
0000
1100
0000
0100
0001
1000
,  // measure 39
0020
0000
0030
1001
0000
0100
0001
0010
,  // measure 40
0000
1010
0000
0101
0000
0100
1000
0001
,  // measure 41
0100
0001
0100
0000
0000
0010
0000
0100
0001
0100
0001
0000
0000
0010
0000
0100
,  // measure 42
1000
0100
1000
0000
0000
0010
0000
1000
0100
1000
0100
0000
0000
0010
0000
0001
,  // measure 43
0100
0010
0100
0010
1000
0001
1000
0001
0100
0010
0100
0010
1000
0001
1000
0100
,  // measure 44
1001
0000
0000
0001
1000
0000
0000
0001
1000
0000
0100
0000
0001
0000
0100
0000
,  // measure 45
1000
0000
0000
0010
0100
0000
0000
0001
1000
0000
0001
0000
0010
0000
0000
0000
,  // measure 46
1001
0000
0000
1000
0001
0000
0000
1000
0001
0000
0100
0000
1000
0000
0100
0000
,  // measure 47
0001
0000
0000
0010
0100
0000
0000
1000
0001
0000
1000
0000
0010
0000
0100
0000
,  // measure 48
0020
0000
1000
0000
0130
0000
1000
0001
,  // measure 49
0020
0000
0001
0000
0130
0000
0001
1000
,  // measure 50
0010
0000
0100
0010
0000
1000
0100
0001
,  // measure 51
0000
0110
0000
1001
0010
0001
0100
0010
,  // measure 52
1001
0000
0000
1000
0001
0000
0000
1000
0001
0000
0010
0000
1000
0000
0010
0000
,  // measure 53
0001
0000
0000
0100
0010
0000
0000
1000
0001
0000
1000
0000
0100
0000
0000
0000
,  // measure 54
1001
0000
0000
0001
1000
0000
0000
0001
1000
0000
0010
0000
0001
0000
0010
0000
,  // measure 55
1000
0000
0000
0100
0010
0000
0000
0001
1000
0000
0001
0000
0100
0000
0000
0000
,  // measure 56
0020
0000
0000
0001
0000
0000
0130
0002
,  // measure 57
0000
0000
0000
1000
0000
0000
0013
0000
,  // measure 58
2000
0100
0001
0010
,  // measure 59
0001
0100
0001
3010
,  // measure 60
0110
0000
0000
0000
;

//---------------dance-single - ----------------
#NOTES:
     dance-single:
     :
     Medium:
     6:
     0.367,0.371,0.159,0.294,0.008:
0000
0000
0000
0000
,
0000
0000
0000
0000
,
0000
0000
0000
0000
,
0000
0000
0000
0000
,
0100
0000
0100
1000
0010
1000
0002
0000
,
1003
0000
0001
0000
0100
0001
1000
0001
,
0010
0000
0010
0100
1000
0001
2000
0000
,
3001
0000
1000
0000
0010
0100
0001
1000
,
0100
0000
0100
1000
0010
1000
0002
0000
,
1003
0000
0010
1000
0100
1000
0001
1000
,
0100
0000
0100
0000
0010
0001
0100
0010
,
0100
0000
0100
0000
0010
1000
0100
0010
,
0001
0100
0001
0000
0001
0000
1100
0000
,
1000
0100
1000
0000
0001
0100
0010
0000
,
1000
0010
1000
0000
1000
0000
0011
0000
,
0001
0010
0001
0000
1000
0010
0100
0000
,
0001
0100
0001
0000
0001
0100
1000
0000
,
1000
0100
1000
0000
1000
0100
0001
0100
,
0010
0000
0010
0000
0100
0001
0010
0100
,
0010
0000
0010
0000
0100
1000
0001
0000
,
2002
0000
0000
0000
3003
0000
0010
2000
,
0000
0000
0000
0000
3000
0000
0001
0020
,
0000
0000
0000
0200
0000
0000
0000
0000
,
0330
0000
0000
0000
0010
0001
1000
0000
,
2002
0000
0000
0000
3003
0000
0010
0002
,
0000
0000
0000
0000
0003
0000
0100
0010
,
0200
0000
0000
0000
,
0300
0000
0000
0000
0010
1000
0001
0000
,
2000
0000
0000
0010
3000
0000
0002
0010
,
0000
0000
0000
0100
0003
0000
1001
0000
,
0002
0000
0000
0100
0003
0000
2000
0100
,
0000
0000
0000
0010
3000
0000
0110
0000
,
2000
0000
0000
0010
0000
0000
3001
0020
,
0000
0000
0000
0100
0000
0000
0031
0000
,
1000
0001
1000
0001
1000
0001
0100
0000
,
0001
1000
0001
1000
0001
0010
0100
0020
,
0000
0000
0000
0130
0000
0100
1000
0010
,
0000
0110
0000
1001
0000
0010
0100
0020
,
0000
0000
0000
0130
0000
0100
0001
0010
,
0000
1001
0000
0110
0000
0010
0100
0010
,
1000
0100
1000
0000
1000
0001
1000
0000
,
0001
0100
0001
0000
0001
1000
0001
0000
,
0010
0000
0000
0000
0100
0000
0000
0000
1000
0000
0000
0000
0001
1000
0001
1000
,
1002
0100
2003
3100
,
0001
0000
0100
0000
0010
0100
0010
0000
,
2001
0100
3002
0103
,
1000
0000
0100
0000
0010
0100
0010
0001
,
1000
0000
1010
0000
0001
0000
0100
0001
,
0010
0000
0011
0000
1000
0000
0100
1000
,
0020
0000
0000
0130
0000
0100
0001
0010
,
0000
1001
0000
0110
0000
0010
1000
0000
,
0012
1000
0203
0310
,
0100
0000
0001
0000
0010
0100
0010
0000
,
2100
0001
3020
0130
,
0010
0000
1000
0000
0100
0010
0100
1000
,
0002
0000
0000
0010
0000
0000
1003
0020
,
0000
0000
0000
0100
0000
0000
1030
0001
,
2000
0000
0002
3000
,
2000
0003
0002
3003
,
1001
0000
0000
0000
;
