#TITLE:Sugar;
#ARTIST:MM100;
#BANNER:Sugar-bn.png;
#BACKGROUND:Sugar-bg.png;
#CDTITLE:.\CDTITLES\DanceTrax.png;
#MUSIC:Sugar.ogg;
#OFFSET:0.012;
#SAMPLESTART:46.08;
#SAMPLELENGTH:15.36;
#BPMS:0=125,144=134,148=146,152=156,156=167,158=140,158.250=130,158.5=120,158.750=110,159=100,159.25=90,159.5=89,159.75=90,160=82,160.25=73,160.5=55.4,160.75=51,161=30,161.25=23,161.5=83.45,162=167;

//---------------dance-single - ----------------
#NOTES:
     dance-single:
     :
     Medium:
     4:
     0.244,0.298,0.086,0.038,0.000: // measure 1
0000
0000
0000
0000
,  // measure 2
0000
0000
0000
0000
,  // measure 3
0000
0000
0000
0000
,  // measure 4
0000
0000
0000
0000
,  // measure 5
1000
0000
0100
0000
,  // measure 6
0010
0000
0000
0000
,  // measure 7
0001
0000
0100
0000
,  // measure 8
0010
0000
0000
0000
,  // measure 9
1000
0000
0010
0000
,  // measure 10
0100
0000
0000
0000
,  // measure 11
0001
0000
0010
0000
,  // measure 12
0100
0000
0000
0000
,  // measure 13
0001
0100
0010
1000
,  // measure 14
0100
0010
0100
1000
,  // measure 15
0001
0100
0010
1000
,  // measure 16
0100
0010
0001
1100
,  // measure 17
0011
0100
0010
1000
,  // measure 18
0000
0001
0010
0100
,  // measure 19
1000
1000
0010
0010
,  // measure 20
0100
0001
0010
0000
,  // measure 21
1100
0001
0010
0100
,  // measure 22
0000
1000
0001
0100
,  // measure 23
0010
0010
1000
1000
,  // measure 24
0001
0010
0100
0000
,  // measure 25
1001
0010
0100
0001
,  // measure 26
0000
1000
0100
0010
,  // measure 27
0100
0100
1000
1000
,  // measure 28
0001
0100
0010
0000
,  // measure 29
1001
0100
0010
1000
,  // measure 30
0000
0001
0100
0010
,  // measure 31
0000
1000
0001
0100
,  // measure 32
0000
0010
0020
0030
,  // measure 33
1000
0100
0010
0001
,  // measure 34
1000
0010
0100
0002
,  // measure 35
1003
0010
1000
0100
,  // measure 36
1000
0010
0100
0002
,  // measure 37
1003
1000
1000
0000
,  // measure 38
0100
0100
0100
0000
,  // measure 39
0010
0010
0010
0000
,  // measure 40
0001
0001
0200
0000
,  // measure 41
0000
0000
0000
0300
0000
0000
0100
0000
,  // measure 42
0010
1000
0000
0001
,  // measure 43
0100
0010
1000
1000
,  // measure 44
0100
0100
0010
0001
,  // measure 45
0100
0000
1001
0010
,  // measure 46
1000
0001
0000
0010
,  // measure 47
0001
0100
0010
0010
,  // measure 48
1000
1000
0100
1000
,  // measure 49
0001
0000
1010
0100
,  // measure 50
0001
1000
0000
0100
,  // measure 51
0010
0001
1000
1000
,  // measure 52
0010
0010
1000
0001
,  // measure 53
0010
0000
0101
0010
,  // measure 54
0100
0001
0000
1000
,  // measure 55
0010
0100
0000
0001
,  // measure 56
1000
0010
0100
0001
,  // measure 57
0010
0000
1001
0000
;

//---------------dance-single - ----------------
#NOTES:
     dance-single:
     :
     Hard:
     7:
     0.432,0.461,0.269,0.067,0.034: // measure 1
0000
0000
0000
0000
,  // measure 2
0000
0000
0000
0000
,  // measure 3
0000
0000
0000
0000
,  // measure 4
0000
0000
0000
0000
,  // measure 5
1001
0010
0110
1001
,  // measure 6
0100
0100
0010
1000
0001
0000
0001
0100
,  // measure 7
0001
1000
1100
0100
,  // measure 8
1000
1000
0010
0100
0001
0000
0001
0010
,  // measure 9
0001
1000
1010
0010
,  // measure 10
0001
0001
0100
0010
1000
0000
1000
0100
,  // measure 11
1000
0001
0101
0100
,  // measure 12
0010
0010
0100
0010
1000
0000
1000
0010
,  // measure 13
1000
0001
0101
0010
,  // measure 14
1001
0100
0011
1000
,  // measure 15
0101
1001
1010
1100
,  // measure 16
0012
0100
1003
0110
,  // measure 17
1001
0000
0100
0010
0100
0000
0001
0000
,  // measure 18
1000
0000
0100
0000
0010
0010
0010
0000
,  // measure 19
0100
0100
0100
0000
0010
0001
0100
0000
,  // measure 20
0010
1000
0100
1000
0010
0000
0100
0000
,  // measure 21
1001
0000
0010
0100
0010
0000
1000
0000
,  // measure 22
0100
0000
0010
0000
0001
0001
0001
0000
,  // measure 23
1000
1000
1000
0000
0010
1000
0100
0000
,  // measure 24
0010
0001
0100
0001
1000
0000
0100
0000
,  // measure 25
1001
0000
0010
0100
0010
0000
1000
0000
,  // measure 26
0100
0000
0010
0000
0001
0100
0001
0000
,  // measure 27
1000
0100
1000
0000
0010
0100
0001
0000
,  // measure 28
0010
0100
1000
0100
0010
0000
0100
0000
,  // measure 29
0011
0000
0100
1000
0100
0000
0010
0000
,  // measure 30
1001
0000
0010
0100
0010
0000
1000
0000
,  // measure 31
0101
0000
1000
0010
0100
0000
0010
0000
,  // measure 32
0100
0000
0001
0010
0200
0000
1300
0000
,  // measure 33
0001
0100
0010
0000
1000
0100
0010
0000
,  // measure 34
0001
0100
0010
1000
0001
1000
0200
0000
,  // measure 35
1300
0000
1000
0100
0000
0100
0010
0000
0010
0001
0000
0001
,  // measure 36
1000
0000
1000
0010
0000
0010
0100
0000
0100
0002
0000
0000
,  // measure 37
0013
0000
0100
0010
0001
0000
0000
0000
,  // measure 38
0100
0000
0001
1000
0010
0000
0000
0000
,  // measure 39
1000
0000
0100
0010
0001
0100
0000
0001
,  // measure 40
1000
0010
0000
0010
2000
0000
0000
0000
,  // measure 41
0000
0000
0000
3000
1001
0000
0010
0001
,  // measure 42
0010
0001
0100
0010
,  // measure 43
1000
0100
1000
0000
0010
0100
0010
0000
,  // measure 44
1000
0001
0100
0000
0001
0010
0100
0010
,  // measure 45
0001
0000
1000
0000
0110
0000
0001
0100
,  // measure 46
0001
1000
0010
1000
,  // measure 47
0010
0100
0010
0000
1000
0100
1000
0000
,  // measure 48
0001
0100
0001
0000
1000
0010
0100
0001
,  // measure 49
0020
0000
0130
0000
1001
0000
0010
1000
,  // measure 50
0010
0100
0001
1000
,  // measure 51
0100
0010
0100
0000
0010
0001
0010
0000
,  // measure 52
0100
1000
0010
0000
1000
0100
0010
0100
,  // measure 53
1000
0000
0001
0000
0101
0000
0010
1000
,  // measure 54
0010
0000
0100
0000
1001
0000
0010
0001
,  // measure 55
0010
0000
0100
0000
0011
0000
1000
0010
,  // measure 56
0100
0000
0001
0000
0100
0010
1000
0100
,  // measure 57
0020
0031
1100
0000
;

//---------------dance-single - ----------------
#NOTES:
     dance-single:
     :
     Challenge:
     8:
     0.545,0.650,0.345,0.086,0.197:
0000
0000
0000
0000
,
0000
0000
0000
0000
,
0000
0000
0000
0000
,
0000
0000
0000
0200
,
1310
0001
0100
0000
0110
0000
0101
0000
,
0010
0010
1000
0100
0010
0100
0001
0100
,
1000
0001
0100
0000
0101
0000
0110
0000
,
1000
1000
0100
1000
0010
0100
0010
1000
,
0001
0010
0100
0000
0110
0000
1001
0000
,
0100
0100
0010
0100
0001
0010
1000
0010
,
0100
1000
0001
0000
0101
0000
1010
0000
,
0001
0001
0100
0001
0010
0100
1000
0010
,
0100
0101
1010
1100
,
1000
1000
0001
0001
0100
0100
0010
0010
,
1000
0001
1000
0001
1000
0001
1000
0001
0200
0000
0000
0000
0000
0000
0000
0000
,
0010
1000
0001
1310
,
0101
0000
0010
1000
0010
0000
0101
0000
,
1001
0000
0110
0000
1000
0001
1000
0000
,
0100
0010
0100
0000
1000
0001
0100
0000
,
1000
0000
0100
0000
0001
0000
0100
0000
1000
0000
0000
0000
0100
0001
0010
0100
,
1000
0000
1000
0100
1000
0000
1010
0000
,
1001
0000
0101
0000
0010
1000
0010
0000
,
0100
0001
0100
0000
0001
1000
0100
0000
,
0001
0000
0100
0000
1000
0000
0100
0000
0001
0000
0000
0000
0100
1000
0010
0100
,
0001
0000
0010
0100
0010
0000
1100
0000
,
1010
0000
1001
0000
0010
0100
0010
0000
,
0001
0100
0001
0000
1000
0100
0010
0000
,
1000
0000
0010
0000
0001
0000
0010
0000
1000
0000
0000
0000
0010
0001
0100
0010
,
1000
0000
0000
0000
0010
0000
1000
0000
0010
0000
0000
0000
0100
0001
1000
0010
,
0100
0000
0000
0000
0010
0000
1000
0000
0010
0000
0000
0000
0100
0010
1000
0001
,
0100
0000
0000
0000
0010
0000
1000
0000
0010
0000
0000
0000
0100
0010
1000
0001
,
0010
0000
0000
0000
0100
1000
0010
0100
0002
0000
0000
0000
1003
0000
0000
0000
,
0001
0100
0010
1000
0001
0010
0100
1000
,
0110
0001
1000
0100
1001
0100
0002
0000
,
1003
0100
1000
0010
0100
0010
1000
0001
1000
0100
0010
0100
,
1000
0010
0100
0001
0010
0100
0010
0001
0100
2000
0000
0000
,
3100
0001
0100
0010
0100
1000
0000
0000
,
0100
0001
0100
0010
0100
1000
0000
0000
,
0100
0001
0100
0010
0100
1000
0000
0001
,
0100
1000
0000
0100
0002
0000
0000
0000
,
0203
0000
0000
0001
1310
0000
0010
1000
,
0100
1001
0101
0011
,
0100
1000
0100
0000
0010
0001
0010
0000
,
0001
0100
0010
0000
0001
0010
1000
0010
,
0100
0000
0001
0000
0010
0100
1000
0010
0100
0000
0000
0000
0001
0000
0010
0000
,
0100
0011
0110
1100
,
1000
0100
1000
0000
0001
0010
0001
0000
,
1000
0001
0100
0000
0001
0001
0001
0001
,
0001
0000
2001
0000
3010
0001
0010
1000
,
0100
0000
0110
0000
1001
0100
0010
0000
,
0100
0001
0100
0000
0010
1000
0010
0000
,
1000
0001
0100
0000
0010
0001
0010
1000
,
0100
0000
0000
0000
0010
0001
0100
0010
1000
0000
0100
0000
0010
0000
0100
0000
,
0010
0000
0000
0000
0100
1000
0010
0100
0001
0000
0010
0000
0100
0000
0010
0000
,
0100
0000
0000
0000
0010
0001
1000
0010
0100
0000
0001
0000
1000
0000
0001
0000
,
1000
0000
0000
0000
0100
0000
0010
0000
0001
0000
1000
0000
0100
1000
0010
0000
,
0200
0000
1310
0000
;

//---------------dance-double - ----------------
#NOTES:
     dance-double:
     :
     Medium:
     5:
     0.314,0.461,0.106,0.086,0.000:
00000000
00000000
00000000
00000000
,
00000000
00000000
00000000
00000000
,
00000000
00000000
00000000
00000000
,
00000000
00000000
00000000
00000000
,
00010000
00000000
00100000
00000000
,
00001000
00001000
00001000
00000000
,
00010000
00000000
00000100
00000000
,
00000010
00000010
00000010
00000000
,
00000001
00000000
00000010
00000000
,
00000100
00000100
00000100
00000000
,
00010000
00000000
00001000
00000000
,
01000000
01000000
00010000
00010000
,
00100000
00010000
01000000
00100000
,
10000000
10000000
01000000
01000000
00100000
00100000
00001000
00001000
,
00020000
00030200
00000320
00000032
,
00000103
00000010
00010000
00011000
,
00010100
00001000
00010000
00001000
,
00000000
00000000
00010000
00000000
00000010
00000010
00000100
00000000
,
00000001
00000001
00001000
00000000
00000100
00000100
00001000
00000000
,
00000100
00010000
00001000
00000000
,
00101000
00010000
01000000
00100000
,
00000000
00000000
10000000
00000000
00010000
00010000
00100000
00000000
,
00001000
00001000
00010000
00000000
00000100
00000100
00001000
00000000
,
00000010
00000100
00000010
00000100
00000010
00000000
00000110
00000000
,
00001001
00000100
00000010
00001000
,
00000000
00000000
00000100
00000000
00010000
00010000
00001000
00000000
,
01000000
01000000
00100000
00000000
10000000
10000000
00010000
00000000
,
10000000
00010000
00100000
00000000
,
11000000
00000000
00010000
00010000
00100000
00000000
01000000
00000000
,
00000000
00000000
10000000
10000000
00010000
00000000
01000000
00000000
,
00000000
00000000
00100000
00100000
10000000
00000000
01000000
00000000
,
00000000
00100000
00002000
00003000
,
00010000
00010000
00000100
00000100
00000010
00000010
00000100
00000100
,
00001000
00001000
00000001
00000001
00000100
00000100
00000020
00000000
,
00000130
00000010
00000100
00000010
,
00000100
00000010
00010000
00002000
,
00103000
00100000
00100000
00000000
,
00010000
00010000
00010000
00000000
,
10000000
10000000
10000000
00000000
,
00100000
00000000
02000000
00000000
,
00000000
00000000
00000000
03000000
10010000
00000000
00100000
00000000
,
01000000
00010000
00000000
00100000
,
00001000
00000000
00010000
00000000
00000100
00000010
00000100
00000000
,
00001000
00000001
00001000
00000000
00000100
00000000
00001000
00000000
,
00000001
00000000
00001001
00000010
,
00001000
00000100
00000000
00010000
,
00001000
00000000
00100000
00000000
00010000
01000000
00010000
00000000
,
10000000
00100000
10000000
00000000
00100000
00000000
00100000
00000000
,
00100000
01010000
10000000
00100000
,
01000000
00001000
00000000
00010000
,
00000100
00000000
00000010
00000000
00000001
00000100
00000001
00000000
,
00001000
00000010
00001000
00000000
00000100
00000000
00010000
00000000
,
00001000
00000000
00011000
00100000
,
00010000
01000000
00000000
00100000
,
01000000
00010000
00000000
00100000
,
00001000
00000000
00010000
00000000
00000100
00001000
00000100
00001000
,
00000020
00000030
00000101
00000000
;

//---------------dance-double - ----------------
#NOTES:
     dance-double:
     :
     Hard:
     7:
     0.437,0.461,0.201,0.115,0.034:
00000000
00000000
00000000
00000000
,
00000000
00000000
00000000
00000000
,
00000000
00000000
00000000
00000000
,
00000000
00000000
00000000
00000000
,
00010000
00001000
01000000
00000000
00100000
00000000
01010000
00000000
,
00001000
00100000
00010000
01000000
00100000
10000000
02000000
00000000
,
03100000
00010000
01000000
00000000
00001000
00000000
00010100
00000000
,
00000010
00000001
00001000
00000100
00000010
00000001
00001000
00000100
,
00010000
00001000
00100000
00000000
01000000
00000000
10010000
00000000
,
00100000
10000000
00010000
01000000
00001000
00010000
00002000
00000000
,
00103000
00010000
01000000
00000000
10100000
00000000
00010000
00000000
,
01000000
00010000
00100000
00001000
00010000
00000100
00001000
00000100
,
00000020
00000001
00000100
00000031
,
00000200
00001000
00010000
00001300
,
00020000
00000010
00001000
00030010
,
00011000
00101000
00011000
00010100
,
00001001
00000000
00000010
00000100
00000010
00000000
00001000
00000000
,
00000100
00000000
00000010
00000000
00000001
00000100
00000001
00000000
,
00001000
00000010
00001000
00000000
00000100
00010000
00000100
00000000
,
00010000
00001000
00100000
00001000
01000000
00000000
00100000
00000000
,
01010000
00000000
00100000
10000000
00100000
00000000
10000000
00000000
,
01000000
00000000
00100000
00000000
00010000
01000000
00010000
00000000
,
00100000
00001000
00100000
00000000
00001000
00010000
00001000
00000000
,
00010000
00000010
00001000
00000010
00000100
00000000
00000001
00000000
,
00001010
00000000
00010000
00000100
00010000
00000000
00001000
00000000
,
01000000
00000000
00010000
00000000
01000000
00100000
01000000
00000000
,
00001000
00010000
00001000
00000000
00010000
00000010
00010000
00000000
,
00000100
00000000
00000001
00000010
00000001
00000000
00001000
00000000
,
00000011
00000000
00000100
00001000
00000100
00000000
00000010
00000000
,
00001001
00000000
00000100
00000010
00000100
00000000
00000001
00000000
,
00001010
00000000
00000100
00010000
00000100
00000000
00010000
00000000
,
00011000
00000000
00001000
01000000
00200000
00000000
10300000
00000000
,
10000000
00100000
01000000
00010000
00100000
00001000
00010000
00000100
,
00001000
00000010
00000100
00000001
00001000
00000100
00000020
00000000
,
00000031
00000000
00000001
00000100
00000000
00000100
00000010
00000000
00000010
00001000
00000000
00001000
,
00000100
00000000
00000100
00010000
00000000
00010000
00001000
00000000
00001000
02000000
00000000
00000000
,
03100000
00000000
10000000
00100000
01000000
00000000
00000000
00000000
,
00010000
00000000
00100000
00001000
00010000
00000000
00000000
00000000
,
00000010
00000000
00001000
00000100
00000010
00000001
00000000
00000001
,
00000100
00001000
00000000
00010000
00002000
00000000
00000000
00000000
,
00000000
00000000
00000000
00003000
00011000
00000000
00100000
00010000
,
00100000
01000000
00100000
00001000
,
00010000
00000100
00010000
00000000
00000010
00001000
00000010
00000000
,
00000100
00000001
00000100
00000000
00000010
00001000
00000100
00001000
,
00000001
00000000
00000100
00000000
00001001
00000000
00000010
00001000
,
00000010
00010000
00001000
00100000
,
00010000
01000000
00010000
00000000
10000000
01000000
10000000
00000000
,
00100000
01000000
00100000
00000000
01000000
00001000
00010000
00000100
,
00002000
00000000
00003020
00000000
00000130
00000000
00000001
00000010
,
00000001
00000100
00000010
00001000
,
00000100
00010000
00000100
00000000
00010000
00001000
00010000
00000000
,
00001000
00100000
00001000
00000000
01000000
10000000
00100000
10000000
,
00010000
00000000
00100000
00000000
11000000
00000000
00010000
00100000
,
00010000
00000000
01000000
00000000
10100000
00000000
00010000
01000000
,
00010000
00000000
00100000
00000000
00011000
00000000
00000100
00001000
,
00000100
00000000
00000010
00000000
00000001
00000100
00001000
00010000
,
02000000
03000000
00110000
00000000
;

//---------------dance-double - ----------------
#NOTES:
     dance-double:
     :
     Challenge:
     8:
     0.512,0.461,0.393,0.086,0.072:
00000000
00000000
00000000
00000000
,
00000000
00000000
00000000
00000000
,
00000000
00000000
00000000
00000000
,
00000000
00000000
00000000
02000000
,
13100000
00010000
01000000
00000000
00110000
00000000
00101000
00000000
,
00000100
00000100
00010000
00001000
00010000
00000100
00001000
00000010
,
00000100
00000010
00001000
00000000
00001100
00000000
00010100
00000000
,
00001000
00001000
00010000
00001000
01000000
00010000
00100000
01000000
,
10000000
00100000
01000000
00000000
10100000
00000000
01010000
00000000
,
00100000
00100000
10000000
01000000
00100000
00010000
01000000
00001000
,
00010000
00000100
00001000
00000000
00010100
00000000
00001001
00000000
,
00000010
00000010
00000100
00001000
00000010
00000100
00001000
00010000
,
01000000
11000000
01100000
00110000
,
00001000
00001000
00010000
00010000
00000100
00000100
00000010
00000010
,
00000001
00000100
00000001
00000100
00000001
00000100
00000001
00000100
00000020
00000000
00000000
00000000
00000000
00000000
00000000
00000000
,
00000230
00001000
00000010
00000001
,
00001310
00000000
00000100
00000010
00000100
00000000
00001010
00000000
,
00000101
00000000
00000110
00000000
00000010
00000100
00000001
00000000
,
00000010
00000100
00001000
00000000
00000010
00010000
00001000
00000000
,
00100000
00010000
00100000
01000000
00100000
00000000
00010000
01000000
,
01010000
00000000
00100000
10000000
00100000
00000000
01010000
00000000
,
01001000
00000000
00011000
00000000
00100000
00010000
01000000
00000000
,
00100000
10000000
00010000
00000000
01000000
00001000
00010000
00000000
,
00000100
00001000
00000010
00001000
00000001
00000000
00000010
00000001
,
00000101
00000000
00000010
00001000
00000010
00000000
00000101
00000000
,
00001010
00000000
00010100
00000000
00100000
00010000
01000000
00000000
,
00100000
10000000
00010000
00000000
01000000
00001000
00010000
00000000
,
00000100
00000000
00010000
00000000
00001000
00000000
00010000
00000000
00000010
00000000
00000000
00000000
00000100
00000000
00000001
00000010
,
00000100
00000000
00000000
00000000
00010000
00000000
00001000
00000000
00100000
00000000
00000000
00000000
01000000
00000000
10000000
00100000
,
01000000
00000000
00000000
00000000
00001000
00000000
00010000
00000000
00000010
00000000
00000000
00000000
00010000
00000000
00001000
00100000
,
00010000
00000000
00000000
00000000
01000000
00000000
00001000
00000000
00010000
00000000
00000000
00000000
00001000
00000000
00010000
00000100
,
00001000
00000000
00000010
00000100
00000002
00000000
00000013
00000100
,
00001000
00000001
00000100
00000010
00001000
00000100
00010000
00001000
,
00100000
00010000
01000000
00100000
10000000
01000000
00200000
00000000
,
00310000
00000000
01000000
00100000
00000000
10000000
00010000
00000000
00100000
00001000
00000000
00010000
,
00000100
00000000
00001000
00000010
00000000
00000100
00000001
00000000
00000010
00000200
00000000
00000000
,
00000310
00000100
00001000
00000010
00010000
00001000
00000000
00000000
,
00100000
00010000
01000000
00100000
10000000
01000000
00000000
00000000
,
00100000
00010000
01000000
00001000
00010000
00100000
00000000
00100000
,
00010000
00001000
00000000
00000100
00000002
00000000
00000000
00000000
,
00000203
00000000
00000000
00000001
00001310
00000000
00001000
00000100
,
00001000
00000110
00001100
00010100
,
00001000
00010000
00000010
00000000
00000100
00000001
00001000
00000000
,
00000100
00010000
00001000
00000000
00010000
00001000
00100000
00001000
,
01000000
00000000
00100000
10000000
10100000
00000000
01000000
00010000
,
01000000
10100000
10010000
00110000
,
00001000
00100000
00010000
00000000
01000000
00100000
10000000
00000000
,
00010000
01000000
00001000
00000000
00010000
00001000
00010000
00001000
,
00010000
00000000
00011000
00000000
00010010
00000000
00000100
00000010
,
00000100
00001010
00010100
00011000
,
00100000
00010000
10000000
00000000
00100000
01000000
00010000
00000000
,
00100000
00001000
00010000
00000000
00000010
00001000
00000001
00001000
,
00000010
00000000
00000100
00000010
00001000
00000001
00000010
00000001
,
00000011
00000000
00000100
00010000
00001000
01000000
00100000
01000000
,
01100000
00000000
10000000
01000000
00100000
00010000
01000000
00010000
,
01010000
00000000
00001000
00000000
00010000
00001000
00000010
00000001
,
00000200
00000000
00001310
00000000
;

//---------------dance-single - ----------------
#NOTES:
     dance-single:
     :
     Easy:
     2:
     0.152,0.190,0.000,0.038,0.000:
0000
0000
0000
0000
,
0000
0000
0000
0000
,
0000
0000
0000
0000
,
0000
0000
0000
0000
,
0010
0000
0100
0000
,
0001
0000
0100
0000
,
0010
0000
1000
0000
,
0100
0000
1000
0000
,
0010
0000
0100
0000
,
0001
0000
0100
0000
,
0010
0000
1000
0000
,
0001
0000
0010
0000
,
0100
0000
0100
0000
,
0100
0000
0100
0000
,
0100
0000
0200
0000
,
0000
0000
0000
0300
,
0010
0000
0010
0000
,
0001
0000
0100
0000
,
0100
0000
0100
0000
,
0001
0000
1000
0000
,
0100
0000
1000
0000
,
0010
0000
1000
0000
,
0100
0000
0100
0000
,
0100
0000
1000
0000
,
0001
0000
0100
0000
,
0001
0000
0010
0000
,
0001
0000
1000
0000
,
0100
0000
0100
0000
,
0010
0000
0001
0000
,
0100
0000
0010
0000
,
1000
0000
0100
0000
,
0010
0000
0002
0000
,
1003
0000
0001
0000
,
1000
0000
0001
0000
,
0010
0000
0100
0000
,
0010
0000
0100
0000
,
1000
0000
1000
0000
,
0001
0000
0001
0000
,
0100
0000
0100
0000
,
0010
0000
0200
0000
,
0300
0000
0010
0000
,
0100
0000
0001
0000
,
0100
0000
0010
0000
,
1000
0000
1000
0000
,
0100
0000
0000
0000
,
0010
0000
0100
0000
,
1000
0000
0100
0000
,
0010
0000
0001
0000
,
0001
0000
0100
0001
,
1000
0000
0001
0000
,
0100
0100
0010
0000
,
1000
1000
0001
0000
,
0010
0000
0100
0000
,
0010
0001
0100
0000
,
0010
1000
0100
0000
,
1000
0000
0001
1000
,
0200
0000
0300
0000
;

//---------------dance-double - ----------------
#NOTES:
     dance-double:
     :
     Easy:
     2:
     0.153,0.190,0.000,0.038,0.000:
00000000
00000000
00000000
00000000
,
00000000
00000000
00000000
00000000
,
00000000
00000000
00000000
00000000
,
00000000
00000000
00000000
00000000
,
00010000
00000000
01000000
00000000
,
00001000
00000000
00100000
00000000
,
00010000
00000000
01000000
00000000
,
00100000
00000000
01000000
00000000
,
00001000
00000000
00010000
00000000
,
00000100
00000000
00010000
00000000
,
00001000
00000000
00010000
00000000
,
00000010
00000000
00001000
00000000
,
00000100
00000000
00000100
00000000
,
00000100
00000000
00000100
00000000
,
00000100
00000000
00000200
00000000
,
00000000
00000000
00000000
00000300
,
00000010
00000000
00000010
00000000
,
00000001
00000000
00000100
00000000
,
00000100
00000000
00000100
00000000
,
00000001
00000000
00000100
00000000
,
00000010
00000000
00010000
00000000
,
00001000
00000000
00010000
00000000
,
00010000
00000000
00010000
00000000
,
00001000
00000000
00010000
00000000
,
00000100
00000000
00000010
00000000
,
00000001
00000000
00000100
00000000
,
00000010
00000000
00010000
00000000
,
00001000
00000000
00001000
00000000
,
00010000
00000000
00001000
00000000
,
00100000
00000000
00010000
00000000
,
01000000
00000000
00100000
00000000
,
10000000
00000000
02000000
00000000
,
13000000
00000000
00010000
00000000
,
10000000
00000000
00010000
00000000
,
00100000
00000000
01000000
00000000
,
00100000
00000000
01000000
00100000
,
00001000
00000000
00001000
00000000
,
00010000
00000000
00010000
00000000
,
00000100
00000000
00000100
00000000
,
00000010
00000000
00000002
00000000
,
00000003
00000000
00001000
00000000
,
00000010
00000000
00000100
00000000
,
00000001
00000000
00001000
00000000
,
00000100
00000000
00000100
00000000
,
00010000
00000000
00000000
00000000
,
00001000
00000000
00100000
00000000
,
00010000
00000000
01000000
00000000
,
00100000
00000000
00100000
00000000
,
10000000
00000000
01000000
00100000
,
00010000
00000000
00100000
00001000
,
00001000
00010000
00000000
00000000
,
00001000
00001000
00100000
00000000
,
00010000
00000000
01000000
00000000
,
00001000
00010000
00000100
00000000
,
00001000
00000010
00000100
00000000
,
00000010
00000000
00001000
00000001
,
00000200
00000000
00000300
00000000
;
