#TITLE:Home Alone;
#ARTIST:Special D;
#BANNER:Home Alone-bn.png;
#BACKGROUND:Home Alone-bg.png;
#CDTITLE:.\CDTITLES\ITGR2.png;
#MUSIC:Home Alone.ogg;
#OFFSET:-1.733;
#SAMPLESTART:14.9;
#SAMPLELENGTH:12;
#BPMS:0=141;
#STOPS:196=1.2766;
#BGCHANGES:0=Home Alone.avi=1=1=1=0,195=Home Alone2.AVI=1=0=0=1,259=Home Alone-bg.png=1=1=0=0;

//---------------dance-single - M. Simmons----------------
#NOTES:
     dance-single:
     M. Simmons:
     Challenge:
     10:
     0.740,0.801,0.210,0.140,0.872:
0000
0000
0000
0000
,
0000
0000
0000
0000
,
0000
0000
0000
0000
,
0000
0000
0000
0000
0000
0000
0000
0001
,
0101
0000
0001
0000
0010
0000
0001
1000
0000
0000
0000
0000
0010
0000
0100
0000
,
1010
0000
1000
0000
0100
0000
1000
0001
0000
0000
0000
0000
0000
0000
0100
0000
,
0010
0000
1000
0000
0100
0000
0010
0001
0000
0000
0200
0000
0000
0000
0300
0000
,
0040
0400
0000
0000
0000
0000
0000
0000
0000
0000
0000
0000
0330
0000
0010
0100
0000
0010
0100
0000
0010
0100
0000
0010
,
0100
0000
0001
0000
1000
0100
0000
0100
0010
0000
0010
0000
0000
0001
0000
0000
,
0000
0000
1000
0000
0001
0000
1000
0010
0000
0010
0000
0100
0001
0000
0010
0000
,
0000
0000
0100
0000
0100
0000
1000
0001
0000
1000
0001
0000
0000
1000
0000
0000
,
0000
0000
0100
0000
0100
1000
0001
1000
0000
1000
0000
0010
0100
0000
0100
0000
,
0000
0000
0001
0000
0010
0000
0100
1000
0000
1000
0010
0000
0000
0100
0010
0100
,
0001
0000
0010
0000
0010
0000
0100
1000
0000
0100
0000
0010
0100
0000
0100
0000
,
1000
0000
0001
0000
0100
0000
0001
0010
0000
0000
0001
0000
0100
0000
0010
0000
,
1000
0000
0001
0000
0001
0000
0100
0010
0000
0010
0000
1000
0001
0000
0010
0000
,
0100
0000
0100
0000
1100
0000
1000
0010
0000
0000
0000
0000
0100
0000
1000
0000
,
0100
0000
0001
0000
0010
0000
0001
0010
0000
0100
1000
0000
0001
0000
0001
0000
,
0100
0000
0010
0000
0100
0000
0010
1000
0000
0001
1000
0000
0100
0000
0010
0000
,
0100
0000
1000
0000
0010
0000
0001
0020
0000
0000
0000
0130
0010
0000
0010
0000
,
1000
0000
0001
0000
0010
0000
1000
0010
0000
0000
0001
0000
0010
0000
0001
0000
,
0001
0000
1000
0000
0010
0000
0010
1000
0000
0010
1000
0000
0100
0000
0100
0000
,
1000
0000
0010
0000
0100
0000
0100
0010
0000
0010
1000
0000
0100
0000
1000
0000
,
0002
0000
0000
0000
0013
0000
0001
0020
0000
0000
0000
0030
0010
0100
0000
0100
,
0000
0000
0000
0000
0000
0000
0010
0000
0000
0100
0000
0000
0010
0000
0000
0100
0000
0000
0010
0000
0000
0100
0000
0000
0010
0000
0000
0100
0000
0000
0010
0000
0000
0100
0000
0000
1000
0000
0000
0000
0001
0000
0010
0000
0000
0000
0100
0000
,
1000
0000
0000
0010
0000
0000
0100
0000
0000
0001
0000
1000
0000
0000
0010
0000
0000
1000
0000
0000
0001
1000
0000
0001
,
1000
0000
0000
0000
0000
0000
0100
0000
0000
0000
0000
0000
1000
0000
0000
0000
0000
0000
0010
0000
0000
0000
0100
0000
0000
0000
0000
0000
0001
0000
0000
0000
0000
0000
0100
0000
0001
0000
0000
0100
0000
0000
0001
0000
0000
0100
0000
0000
,
0001
0000
0000
0010
0000
0000
0100
0000
0000
1000
0000
0010
0000
0000
0100
0000
0000
0001
0000
0000
0010
0100
0000
0010
,
1000
0000
0000
0010
0000
0000
0010
0000
0000
0001
0000
0100
0000
0000
0001
0000
0000
1000
0000
0000
0100
0000
0000
1000
,
0010
0000
0000
0100
0000
0000
0101
0000
0000
0001
0000
1000
0000
0000
0100
0000
0000
1000
0000
0000
0010
1000
0000
0001
,
1000
0000
0000
0100
0000
0000
0110
0000
0000
0100
0000
1000
0000
0000
1000
0000
0000
0001
1000
0000
0001
1000
0000
0001
,
1000
0000
0000
0100
0000
0000
1000
0000
0000
0000
0001
0000
1000
0000
0000
0010
0000
0000
0100
0000
0000
0000
0010
0000
0100
0000
0000
0001
0000
0000
1000
0000
0000
0000
0100
0000
0010
0000
0000
0100
0000
0000
1000
0000
0000
0000
0001
0000
,
1000
0000
0000
0110
0000
0000
0001
0000
0000
1010
0000
0000
0100
0000
0000
1001
0000
0000
0001
0000
0010
0001
0000
0010
,
0100
0000
0000
1000
0000
0000
1001
0000
0000
0001
0000
0010
0000
0000
0100
0000
0000
1000
0000
0000
0100
0010
0000
0100
,
1000
0000
0000
0010
0000
0000
1001
0000
0000
1000
0000
0001
0000
0000
0010
0000
0000
0001
0000
0000
0100
0001
0000
0100
,
0010
0000
0000
0100
0000
0000
1010
0000
0000
1000
0000
0001
0000
0000
1000
0000
0000
1000
0000
0000
0010
0100
0000
0010
,
0001
0000
0000
0010
0000
0000
0110
0000
0000
0010
0000
1000
0000
0000
0100
0000
0000
0010
0000
0000
0100
0000
0000
1000
,
0100
0000
0000
1000
0000
0000
0101
0000
0000
0001
0000
1000
0000
0000
0010
0000
0000
1000
0000
0000
0001
1000
0000
0001
,
0010
0000
0000
0100
0000
0000
0010
0000
0000
0100
0000
1000
0000
0000
0010
0000
0000
1000
0000
0000
0001
1000
0000
0001
,
1000
0000
0000
0000
0000
0000
0010
0000
0000
0000
0000
0000
0100
0000
0000
0000
0000
0000
0010
0000
0000
0000
0010
0000
1000
0000
0000
0100
0000
0000
0010
0000
0000
0001
0000
0000
0100
0000
0000
0001
0000
0000
1000
0000
0000
0001
0000
0000
,
0040
0000
0001
0031
,
0000
0000
0001
0020
0100
0000
0031
0010
0100
0000
1000
0000
0000
0000
0101
0000
,
1000
0000
1000
0000
0001
1000
0000
0000
0020
0000
0000
0000
0130
0000
0000
0000
,
0101
0000
0000
0000
0000
0000
1000
0000
0000
0001
0000
0000
0010
0001
0010
0001
0000
0000
0011
0000
0000
1100
0000
0000
,
0001
0000
0001
0000
0001
0100
0010
0100
0002
0000
0000
0000
0013
0000
0000
0000
,
0110
0000
0100
0020
0001
0000
0130
0010
0001
0000
1000
0000
0000
0000
0101
0000
,
1000
0000
0010
0000
0100
0010
0000
0000
2000
0000
0000
0000
3100
0000
0000
0000
,
0110
0000
0000
0000
0000
0000
0001
0000
0000
1000
0000
0000
0010
0100
0010
0100
0000
0000
0110
0000
0000
1000
0000
0000
,
0100
0000
0010
0000
0001
1000
0001
0100
0002
0000
0000
0000
0013
0000
0000
0000
,
1001
0100
0101
0001
0010
0200
0000
1300
,
0100
0000
0020
0000
0000
0000
0130
0000
1000
0001
0000
2000
0000
0000
0000
0000
,
3010
0000
0010
0000
1000
0000
0100
0000
0010
0000
0001
0010
0000
0000
0001
0000
,
1000
0000
0100
1000
0000
0000
0001
0000
0100
0000
0001
1000
0000
0001
0000
1000
,
0010
0100
0010
1000
0010
0000
0100
0000
0010
0000
1000
0001
0000
0000
0000
1000
,
0001
0000
0010
0000
0010
0000
0100
0000
0010
0000
0001
0010
0000
0000
0000
0100
,
1000
0001
1000
0001
0010
0000
0001
0000
0100
0000
0010
0100
0000
0000
0001
0000
,
4000
0000
0000
0000
3001
0100
0010
0100
0001
1000
0001
0010
0100
1000
0100
0010
,
0001
0000
0000
1000
0000
0000
0001
0000
0000
1000
0000
0000
0010
0000
0000
0000
0000
0000
0100
0000
0000
0000
0000
0000
0001
0000
0000
0000
0000
0000
0010
0000
0000
0000
0100
0000
0000
0000
0000
0000
1000
0000
0000
0000
0000
0000
0010
0000
,
1000
0000
0001
1000
0000
0001
1000
0000
0000
0010
0000
0000
0100
0000
0000
0001
0000
0010
0000
0000
0001
0000
0000
1000
,
0010
0000
0100
0010
0000
0100
0001
0000
0000
0010
0000
0000
0100
0000
0000
0010
0000
0001
0000
0000
1000
0000
0000
0010
,
0000
0000
0100
0001
0000
0100
1000
0000
0000
0100
0000
0000
0001
0000
0000
0100
0000
0010
0000
0000
1000
0000
0000
0100
,
0010
0000
0001
0010
0000
0100
0010
0000
0000
0001
0000
0000
0100
0000
0000
0010
0000
1000
0000
0000
0001
0000
0000
1000
,
0000
0000
0001
1000
0000
0001
0010
0000
0000
0100
0000
0000
0010
0000
0000
0100
0000
1000
0000
0000
0010
0000
0000
0100
,
0000
0000
0000
0000
0010
0000
1000
0000
0000
0000
0010
0000
0100
0000
0000
0000
0000
0000
0001
0000
0000
0000
0000
0000
1000
0000
0000
0000
0000
0000
0100
0000
0000
2000
0000
0000
0000
0000
0000
0000
0000
0000
0000
0000
0000
0000
0000
0000
,
3010
0000
0100
0000
0020
0000
0000
0000
1030
0000
0001
2000
0000
0000
0000
0000
,
0000
3000
1010
0000
0000
0000
0000
0000
;

//---------------dance-single - M. Simmons----------------
#NOTES:
     dance-single:
     M. Simmons:
     Hard:
     8:
     0.518,0.515,0.140,0.114,0.263:
0000
0000
0000
0000
,
0000
0000
0000
0000
,
0000
0000
0000
0000
,
0000
0000
0000
0000
0000
0000
0000
0010
,
0001
0000
1000
0000
0100
0000
1000
0100
0000
0000
0000
0000
0010
0000
0001
0000
,
0100
0000
0001
0000
1000
0000
0001
1000
0000
0000
0000
0000
0000
0000
0010
0000
,
0100
0000
0010
0000
1000
0000
0000
0001
0000
0000
0200
0000
0000
0000
0000
0000
,
0340
0000
0000
0000
,
0130
0001
1000
0001
0000
0100
0001
0020
,
0000
0000
0130
0000
0020
0000
0000
0001
0030
0000
0000
0000
0010
0000
0100
0000
,
1000
0000
0100
0000
2000
0000
0000
3010
0000
0000
0100
0000
0001
0000
0000
0011
,
0000
0000
0001
0000
0001
0000
1000
0001
0000
0000
0000
0000
0100
0000
0010
0000
,
0100
0000
0001
0000
0100
0000
0010
0100
0000
0000
0000
0000
0010
0000
1000
0000
,
0001
0000
1000
0000
0100
0000
0010
0100
0000
0000
0000
0000
0000
0000
0100
0000
,
1000
0000
0001
0000
1000
0000
0000
0010
0000
0000
0200
0000
0000
0000
0000
0000
,
0302
0000
0000
0000
0000
0000
1000
1003
,
0001
0000
0010
0000
0001
0000
0100
0001
0000
0000
0000
0000
0100
0000
0010
0000
,
1000
0000
0100
0000
1000
0000
0001
1000
0000
0000
0000
0000
0010
0000
0100
0000
,
0010
0000
1000
0000
0001
0000
0010
0001
0000
0000
0000
0000
0010
0000
0100
0000
,
1000
0000
0100
0000
0010
0000
0001
1000
0000
0000
0000
0000
0000
0000
0010
0000
,
0100
0000
0010
0000
1000
0100
0000
0010
0000
0000
0000
0000
0100
0000
1000
0000
,
0001
0000
1000
0000
0010
0000
0100
0001
0000
0000
0000
0010
0001
0000
0010
0000
,
0100
0000
0010
0000
0001
0000
0100
0020
0000
0000
0000
0000
0130
0000
0010
0000
,
1010
0000
0000
0000
1000
0000
0100
0010
0000
0000
0000
0000
0100
1000
0000
0020
,
0000
0400
0000
0000
0000
0000
0330
0000
,
0100
0000
0001
0000
1000
0000
0010
1000
0000
0000
0010
0000
0010
0000
0100
0000
,
0001
0000
0010
0000
0001
0000
0100
0001
0000
0000
0000
0000
0000
0000
0000
0000
,
1000
0000
0100
0000
0010
0000
0100
1000
0000
0000
0100
0000
0100
0000
1000
0000
,
0010
0000
0100
0000
0010
0000
0100
0001
0000
1000
0000
0001
0000
1000
0000
0001
,
1000
1100
0100
0110
,
0010
0011
0001
1001
,
0001
0100
0001
0100
0010
1000
0010
1000
,
0100
0000
1000
0000
0100
0000
1000
0000
0001
0000
0010
0000
0001
0010
0001
0010
,
0001
0000
1000
0000
0010
0000
0100
0010
0000
1000
0000
0001
0000
0000
0010
0000
,
0100
0000
0010
0000
0001
0000
1000
0010
0000
1000
0000
0001
0000
0000
0010
0000
,
0100
0010
0001
0100
0010
1000
0100
0010
,
0100
1000
0001
0100
1000
0100
0001
1000
,
0100
0000
0010
0000
0100
0000
1000
0001
0000
1000
0000
0001
0000
0000
0010
0000
,
0100
0000
0010
0000
0001
0000
0100
0010
0000
0100
0000
0010
0000
0000
1000
0000
,
0100
1000
0010
1000
0001
0100
0001
0010
,
2002
0000
0000
0003
,
3001
1000
0001
0100
0010
0010
0000
0100
,
0101
0000
1000
0000
0100
0000
0010
0010
,
0110
0000
0100
1000
0010
0010
0100
0100
,
0001
1000
0001
0001
1001
0000
0000
0000
,
1000
0100
1000
0010
0100
0100
0000
0001
,
0101
0000
0001
0000
1000
0000
0100
0100
,
1100
0000
0100
0010
0001
0001
1000
1000
,
0010
0100
0001
0100
0110
0000
1000
0000
,
1010
0010
0100
0001
0010
0100
0000
0100
,
1000
0000
0020
0000
0000
0000
0130
0000
0010
0000
0000
1000
0000
0000
0000
0000
,
0100
0000
0010
0000
0001
0000
0010
0000
0100
0000
0000
1000
0000
0000
0010
0000
,
1000
0000
0000
0001
0000
0000
0010
0000
0100
0000
0000
1000
0000
0000
0000
0000
,
0000
0000
0010
0000
0100
0000
0010
0000
1000
0000
0000
0001
0000
0000
0000
0000
,
0010
0000
0100
0000
0110
0000
0100
0000
1000
0000
0000
0001
0000
0000
0000
0000
,
0000
0000
0100
0000
0010
0000
1000
0000
0100
0000
0000
0001
0000
0000
0200
0000
,
0000
0000
1300
0000
0010
0000
0100
0010
,
0010
0000
1000
0000
0001
0000
0010
0000
0100
0000
1000
0100
0000
0000
0000
0000
,
1000
0000
0010
0000
0001
0000
0010
0000
1000
0000
0001
1000
0000
0000
0000
0000
,
0000
0000
0010
0000
0100
0000
0010
0000
1000
0000
0100
0010
0000
0000
0000
0000
,
0001
0000
0010
0000
0100
0000
0010
0000
0001
0000
0100
0001
0000
0000
0000
0000
,
1000
0000
0010
0000
1000
0000
0100
0000
1000
0001
0000
1000
0000
0000
0000
0000
,
0010
0000
0100
0000
0010
0000
1000
0000
0100
0000
1000
0010
0000
0000
0000
0000
,
0000
0000
0100
0000
0001
0000
0010
0000
0001
0000
0100
0010
0000
0000
0000
0000
,
0100
0000
0010
0000
2000
0000
0000
0000
3100
0000
1000
0100
0000
0000
0000
0000
,
0001
1001
0000
0000
;

//---------------dance-single - M. Simmons----------------
#NOTES:
     dance-single:
     M. Simmons:
     Medium:
     5:
     0.339,0.343,0.105,0.044,0.083:
0000
0000
0000
0000
,
0000
0000
0000
0000
,
0000
0000
0000
0000
,
0000
0000
0000
0000
,
1000
0000
0000
0000
0100
0000
0000
0010
0000
0000
0000
0000
0000
0000
0000
0000
,
0001
0000
0000
0000
1000
0000
0000
0010
0000
0000
0000
0000
0000
0000
0000
0000
,
0100
0000
0000
0000
0010
0000
0000
0100
0000
0000
0001
0000
0000
0000
0000
0000
,
2000
0000
0000
0000
,
3001
1000
0100
1000
,
0010
0000
0000
0000
0100
0000
0000
0001
0000
0000
0000
0000
1000
0000
0000
0000
,
0100
0010
0100
1000
,
0010
0000
0000
0000
0100
0000
0000
0010
0000
0000
0000
0000
0100
0000
0000
0000
,
0001
1000
0001
0100
,
0001
0000
0000
0000
0010
0000
0000
0100
0000
0000
0000
0000
0010
0000
0000
0000
,
0100
1000
0010
1000
,
0001
0000
1000
0000
0001
1000
0001
1000
,
0001
0010
0001
0100
,
0010
0000
0000
0000
0100
0000
0000
0010
0000
0000
0000
0000
1000
0000
0000
0000
,
0100
1000
0010
0100
,
0001
0000
0000
0000
1000
0000
0000
0001
0000
0000
0000
0000
0010
0000
0000
0000
,
0100
0010
0001
1000
,
0010
0000
0000
0000
0100
0000
0000
0010
0000
0000
0000
0000
0100
0000
0000
0000
,
0010
1000
0100
0010
,
0210
0000
0000
0000
1300
0000
0000
0100
0000
0000
0000
0000
2000
0000
0000
0000
,
3000
1001
0000
1001
0000
1001
0001
0000
,
1000
0000
0010
0000
0100
0000
0010
1000
,
0010
1000
0100
0000
,
0010
0000
0100
1000
0100
0000
0010
0001
,
0010
0100
1000
0001
,
0100
0000
0010
0000
0100
0000
0001
1000
,
0001
0100
0001
0010
,
0100
0000
0010
0100
0010
0000
0001
0010
,
0001
0000
0011
0000
0110
0000
0100
1000
,
0100
0000
1000
0000
0010
0000
0100
0001
,
0100
0010
1000
0001
,
0010
0000
0100
0010
0100
0000
1000
0100
,
1000
0001
1000
0010
,
0100
0000
0010
0000
1000
0000
0001
0010
,
0001
0100
0010
1000
,
0100
0000
1000
0001
1000
0000
0010
0100
,
0020
0000
0100
0130
,
0110
0000
0010
0000
0100
0010
0000
1000
,
0010
0000
1000
0000
0001
0000
0010
0100
,
1000
0000
0001
0000
0100
0000
0001
0001
,
1000
0001
0011
0000
,
1000
0000
0010
0000
1000
0100
0000
0100
,
1000
0010
0100
0001
,
1001
0000
0001
0000
0100
0000
0010
0100
,
0010
1000
1001
0000
,
1001
1000
0001
1000
,
0100
0000
0000
0000
0010
0000
0000
0000
0100
0000
0000
1000
0000
0000
0000
0000
,
0010
0100
0001
0100
,
0010
0000
0000
0000
1000
0000
0000
0000
0100
0000
0000
1000
0000
0000
0000
0000
,
0001
1000
0010
0100
,
0010
0000
0000
0000
1000
0000
0000
0000
0010
0000
0000
0100
0000
0000
0000
0000
,
0001
0000
0000
0000
0010
0000
0000
0000
0100
0000
0000
0010
0000
0000
0001
0000
,
0000
0200
0000
0000
,
0000
0310
0100
0001
,
0010
0000
0000
0000
0100
0000
0000
0000
0010
0000
0000
0001
0000
0000
0000
0000
,
1000
0010
1000
0100
,
1000
0000
0000
0000
0001
0000
0000
0000
0100
0000
0000
0010
0000
0000
0000
0000
,
0100
0001
0010
0001
,
0100
0000
0000
0000
0010
0000
0000
0000
0100
0000
0000
0010
0000
0000
0000
0000
,
1000
0000
0000
0000
0100
0000
0000
0000
0010
0000
0000
0001
0000
0000
0000
0000
,
0100
0000
0000
0000
0010
0000
0000
0000
1000
0000
0000
0010
0000
0000
0000
0000
,
0100
1001
0000
0000
;

//---------------dance-single - M. Simmons----------------
#NOTES:
     dance-single:
     M. Simmons:
     Easy:
     3:
     0.252,0.257,0.088,0.061,0:
0000
0000
0000
0000
,
0000
0000
0000
0000
,
0000
0000
0000
0000
,
0000
0000
0000
0000
,
0001
0001
1000
0000
,
1000
1000
0001
0000
,
0100
0000
0010
0000
,
0220
0000
0330
0000
,
0100
0010
1000
0001
,
0100
0001
1000
0100
,
0010
0100
1000
0001
,
0100
0010
1000
0000
,
0001
1000
0001
0100
,
0001
0010
0100
0010
,
0001
0100
0010
0100
,
0001
1000
0100
0000
,
0110
0100
1000
0010
,
1000
0001
0100
0001
,
1000
0100
0010
0100
,
1000
0010
0100
0000
,
0010
0100
0001
1000
,
0001
0100
0001
0010
,
0100
1000
0010
0100
,
0010
1000
0001
0000
,
2002
0000
3003
0000
,
0001
0000
1000
0000
,
0001
0000
0000
0000
,
0100
0000
0010
0000
,
0100
0000
0000
0000
,
0001
0000
0010
0000
,
0100
0000
1000
0000
,
0010
0000
0100
0000
,
0001
0001
0001
0001
,
1000
0001
0100
0001
,
1000
0100
0010
0100
,
1000
0010
0100
0010
,
1000
0001
0100
0001
,
1000
0001
0100
0001
,
0010
0100
1000
0100
,
0010
0001
1000
0001
,
0200
0000
0010
0010
,
0310
0000
0100
0000
,
0001
1000
0100
1000
,
1001
0000
0001
0000
,
1000
0010
0110
0000
,
0010
0100
0001
0000
,
0010
0000
0100
1000
,
0110
0000
0100
0100
,
1000
0001
1001
0000
,
1001
0001
0000
1000
,
0000
0010
0000
0000
,
0000
0100
0000
0010
,
0000
1000
0000
0000
,
0000
0100
0000
0010
,
0000
0001
0000
0000
,
0000
0100
0000
0001
,
0000
2002
0000
3003
,
0000
0001
1000
0100
,
1000
0010
0100
0010
,
1000
0001
0100
0001
,
1000
0100
0010
0100
,
1000
0010
0100
0010
,
1000
0001
0100
0001
,
0010
0100
1000
0010
,
0000
0100
0010
1000
,
0000
1001
0000
0000
;

//---------------dance-single - M. Simmons----------------
#NOTES:
     dance-single:
     M. Simmons:
     Beginner:
     1:
     0.143,0.172,0.070,0,0:
0000
0000
0000
0000
,
0000
0000
0000
0000
,
0000
0000
0000
0000
,
0000
0000
0000
0000
,
0001
0000
0000
0000
,
1000
0000
0000
0000
,
0001
0000
0000
0000
,
1001
0000
0000
0000
,
0100
0000
0010
0000
,
0100
0000
0000
0000
,
0001
0000
1000
0000
,
0001
0000
0000
0000
,
0010
0000
0100
0000
,
0010
0000
0000
0000
,
1000
0000
0001
0000
,
1000
0000
0000
0000
,
0010
0000
0100
0000
,
0010
0000
1000
0000
,
0001
0000
1000
0000
,
0001
0000
0000
0000
,
0010
0000
0100
0000
,
1000
0000
0100
0000
,
0010
0000
0001
0000
,
1000
0000
0000
0000
,
1001
0000
0000
0000
,
0001
0000
1000
0000
,
0001
0000
0000
0000
,
0010
0000
0100
0000
,
0010
0000
0000
0000
,
0100
0000
1000
0000
,
0100
0000
0000
0000
,
0010
0000
0001
0000
,
0010
0000
0001
0000
,
1001
0000
1000
0000
,
0010
0000
0100
0000
,
0010
0000
1000
0000
,
0001
0000
0010
0000
,
0100
0000
0010
0000
,
0001
0000
1000
0000
,
0010
0000
0100
0000
,
0010
0000
0000
0000
,
0100
0100
0100
0000
,
0001
0000
1000
0000
,
1001
0000
0001
0000
,
0010
0000
0100
0000
,
0010
0010
0010
0000
,
0100
0000
1000
0000
,
1001
0000
0001
0000
,
0100
0000
0010
0000
,
0110
0010
0000
0100
,
0000
0001
0000
0000
,
0000
1000
0000
0100
,
0000
0010
0000
0000
,
0000
0100
0000
1000
,
0000
0010
0000
0000
,
0000
0100
0000
0001
,
0000
0100
0000
0000
,
0000
0010
0000
1000
,
0000
0001
0000
0010
,
0000
0100
0000
0010
,
0000
0001
0000
1000
,
0000
0010
0000
0100
,
0000
0010
0000
1000
,
0000
0001
0000
0010
,
0000
0110
0000
0000
,
0000
1001
0000
0000
;

//---------------dance-double - M. Simmons----------------
#NOTES:
     dance-double:
     M. Simmons:
     Challenge:
     10:
     0.705,0.715,0.237,0.114,0.793:
00000000
00000000
00000000
00000000
,
00000000
00000000
00000000
00000000
,
00000000
00000000
00000000
00000000
,
00000000
00000000
00000000
00000000
00000000
00000000
00000000
10000000
,
00100000
00000000
01000000
00000000
00001000
00000000
00001000
00010000
00000000
00000000
00000000
00000000
00000001
00000000
00000010
00000000
,
00000100
00000000
00001000
00000000
00001000
00000000
00000001
00000100
00000000
00000000
00000000
00000000
00000000
00000000
00000010
00000000
,
00000100
00000000
00000010
00000000
00001000
00000000
00000100
00010000
00000000
00000000
00001000
00000000
00000000
00100000
00000000
00000000
,
00004000
00400000
00000000
00000000
00000000
00000000
00000000
00000000
00000000
00000000
00000000
00000000
00303000
00000000
00100000
00000000
,
00001000
00010000
00000010
00000200
00000000
00001300
00010000
02000000
,
00000000
00000000
03100000
00000000
01000000
00000000
00100000
00010000
00000000
00010000
01000000
00000000
00100000
00000000
00100000
00000000
,
10000000
00000000
00010000
00000000
10000000
00000000
10000000
01000000
00000000
00000000
00100000
00000000
00010000
00000000
00010000
01000000
,
00000000
00000000
00001000
00000000
00010000
00000000
00000010
00010000
00000000
00000010
00000000
00000100
00000001
00000000
00001000
00000000
,
00000100
00000000
00000010
00000000
00000011
00000000
00000010
00000001
00000000
00000000
00000010
00000001
00000100
00000000
00000010
00000000
,
00000110
00000000
00000001
00000000
00001000
00000000
00000010
00001000
00000000
00000100
00000000
00001000
00000010
00000000
00000100
00000000
,
00000001
00000000
00000100
00000000
00000010
00000000
00010000
00001000
00000000
00000000
00100000
00000000
00000000
01000000
00000000
00000000
,
10000000
00000000
00010000
00000000
10000000
00000000
00010000
00100000
00000000
01000000
00000000
10000000
00100000
00000000
01000000
00000000
,
00010000
00000000
00010000
00000000
01000000
00000000
00001000
01000000
00000000
00000000
00000000
00000000
00000100
00000000
00000100
00000000
,
00010000
00000000
00000010
00000000
00010000
00000000
00010000
00000100
00000000
00000000
00000000
00000000
00000000
00000000
01000000
00000000
,
00100000
00000000
00010000
00000000
00001000
00000000
00100000
00002000
00000000
00000000
00000000
00000000
00013000
00000000
00000010
00000000
,
00010000
00000000
00000100
00000000
00000010
00000000
00000001
00000020
00000000
00000000
00000000
00000000
00000130
00000000
00001000
00000000
,
00000100
00000000
00010000
00000000
00001000
01000000
00000000
00001000
00000000
00000000
00000000
00000000
01000000
00000000
00100000
00000000
,
10000000
00000000
01000000
00000000
00100000
00000000
00001000
00010000
00000000
00000000
00000000
00010000
00000100
00000000
00000100
00000000
,
00000010
00000000
00000001
00000000
00000010
00000000
00000100
00000010
00000000
00000000
00000000
00000001
00000100
00000000
00000010
00000000
,
00002000
00000000
00000000
00000000
00003100
00000000
00001000
00000100
00000000
00000000
00000000
00000000
00000100
00001000
00000000
00000100
,
00000000
00000000
00000000
00000000
00000000
00000000
00000010
00000000
00000000
00000001
00000000
00000000
00000010
00000000
00000000
00000100
00000000
00000000
00001000
00000000
00000000
00000100
00000000
00000000
00010000
00000000
00000000
00000100
00000000
00000000
00010000
00000000
00000000
00001000
00000000
00000000
00100000
00000000
00000000
00000000
00010000
00000000
00100000
00000000
00000000
00000000
00010000
00000000
,
10000000
00000000
00000000
00010000
00000000
00000000
01010000
00000000
00000000
00010000
00000000
10000000
00000000
00000000
01000000
00000000
00000000
00100000
00000000
00000000
01000000
00100000
00000000
01000000
,
10000000
00000000
00000000
00000000
00000000
00000000
00100000
00000000
00000000
00000000
00000000
00000000
01000000
00000000
00000000
00000000
00000000
00000000
00010000
00000000
00000000
00000000
00100000
00000000
00000000
00000000
00000000
00000000
00000000
00000000
00001000
00000000
00000000
00010000
00000000
00000000
00000100
00000000
00000000
00010000
00000000
00000000
00001000
00000000
00000000
00100000
00000000
00000000
,
00001000
00000000
00000000
00010000
00000000
00000000
00000010
00000000
00000000
00000100
00000000
00000001
00001000
00000000
00000100
00000000
00000000
00000100
00000000
00000000
00000100
00001000
00000000
00001000
,
00000010
00000000
00000000
00000100
00000000
00000000
00000101
00000000
00000000
00000001
00000000
00001000
00000000
00000000
00000100
00000000
00000000
00010000
00000000
00000000
00001000
00000000
00000000
01000000
,
00010000
00000000
00000000
00100000
00000000
00000000
01100000
00000000
00000000
01000000
00000000
10000000
00000000
00000000
00100000
00000000
00000000
10000000
00000000
00000000
00010000
00100000
00000000
00100000
,
01000000
00000000
00000000
10000000
00000000
00000000
00100000
00000000
00000000
01000000
00000000
00010000
00000000
00000000
01000000
00000000
00000000
00010000
00000000
00000000
00100000
00001000
00000000
00000000
,
00010000
00001000
00010000
00000100
00000010
00000001
00001000
00000001
00000100
00000010
00001000
00000100
00010000
00001000
01000000
00001000
,
00010000
00001000
00100000
01000000
10000000
00010000
10000000
01000000
00200000
00000000
00000000
00000000
00000000
00000000
00000000
00000000
,
01300000
00000000
00000000
10000000
00000000
00000000
11000000
00000000
00000000
10000000
00000000
00010000
00000000
00000000
00100000
00000000
00000000
01000000
00000000
00000000
00100000
00010000
00000000
00010000
,
01000000
00000000
00000000
00001000
00000000
00000000
00010000
00000000
00000000
00000100
00000000
00001000
00000000
00000000
00000010
00000000
00000000
00001000
00000000
00000000
00000100
00000010
00000000
00000010
,
00000100
00000000
00000000
00001000
00000000
00000000
00000001
00000000
00000000
00000100
00000000
00000001
00000010
00000000
00000100
00000000
00000000
00001000
00000000
00000000
00000010
00000100
00000000
00000100
,
00000001
00000000
00000000
00001000
00000000
00000000
00001100
00000000
00000000
00000100
00000000
00010000
00000000
00000000
00001000
00000000
00000000
01000000
00000000
00000000
00000100
00000000
00000000
00010000
,
00001000
00000000
00000000
00100000
00000000
00000000
00110000
00000000
00000000
00010000
00000000
10000000
00000000
00000000
00100000
00000000
00000000
10000000
00000000
00000000
01000000
00100000
00000000
00100000
,
00010000
00000000
00000000
01000000
00000000
00000000
00100000
00000000
00000000
01000000
00000000
00010000
00000000
00000000
10000000
00000000
00000000
00010000
00000000
00000000
10000000
01000000
00000000
01000000
,
00100000
00000000
00010000
00000000
00100000
00000000
00001000
00000000
00010000
00000100
00000010
00000001
00001000
00000001
00000100
00000010
,
00000200
00000000
00000000
00000000
,
00000300
00000000
00000001
00001000
00000100
00000000
00000010
00000100
00001000
00000000
00000010
00000000
00000000
00000000
00001000
00000000
,
00001100
00000000
00110000
00000000
11000000
00000000
10000000
00100000
,
01010000
00000000
00000000
00000000
00011000
00000000
00000000
00000000
00000001
00000100
00000001
00001000
00000100
00000000
00000100
00000000
,
00001000
00000000
00001000
00000000
00000010
00000100
00000010
00001000
00001100
00000000
00000000
00000000
00000000
00000000
00000000
00000000
,
00000000
00000000
00010000
00001000
01000000
00000000
00000100
00010000
00001000
00000000
00100000
00000000
00000000
00000000
00001000
00000000
,
00011000
00000000
01000100
00000000
00100010
00000000
00010000
00001000
,
00010001
00000000
00000000
00000000
00000100
00000000
00010000
00000000
00001000
01000000
00001000
00010000
00000010
00000000
00000010
00000000
,
00010000
00000000
00010000
00000000
00001000
00010000
00000100
00010000
00011000
00000000
00000000
00000000
00001000
00000000
00000000
00000000
,
01001000
00001000
01010000
01000000
00100000
10000000
00000000
01000000
,
00100000
00000000
00020000
00000000
00000000
00000000
00130000
00000000
01000000
00000000
00010000
00002000
00000000
00000000
00000000
00000000
,
00013000
00000000
00000100
00000000
00010100
00000000
00000100
00000000
00000010
00000000
00000010
00000002
00000000
00000000
00000103
00000000
,
00000010
00000000
00000010
00002000
00000000
00000000
00003100
00000000
00001000
00000000
00000010
00000100
00000000
00000001
00000000
00001000
,
00000100
00010000
00000100
00001000
00000010
00000000
00000100
00000000
00000001
00000000
00001000
00000200
00000000
00000000
00000000
00000000
,
00010300
00000000
00001000
00000000
01000000
00000000
00100000
00000000
01000000
00000000
00010000
10000000
00000000
00000000
00000000
00000000
,
01000000
10000000
01000000
00100000
00010000
00000000
10000000
00000000
00100000
00000000
01000000
00010000
00000000
00000000
00110000
00000000
,
00000000
00010100
00000000
00000000
00000100
00001000
00000100
00001000
00000010
00010000
00000010
00010000
00000100
00010000
00000100
00010000
,
00001000
00000000
00000000
00100000
00000000
00000000
00001000
00000000
00000000
00100000
00000000
00000000
00010000
00000000
00000000
00000000
00000000
00000000
10000000
00000000
00000000
00000000
00000000
00000000
00010000
00000000
00000000
00000000
00000000
00000000
01000000
00000000
00000000
00000000
00010000
00000000
00000000
00000000
00000000
00000000
00100000
00000000
00000000
00000000
00000000
00000000
01000000
00000000
,
00000000
00000000
10000000
01000000
00000000
01000000
00100000
00000000
00000000
00010000
00000000
00000000
01000000
00000000
00000000
00100000
00000000
01000000
00000000
00000000
00001000
00000000
00000000
00100000
,
00000000
00000000
01000000
00100000
00000000
00100000
00001000
00000000
00000000
00010000
00000000
00000000
00000100
00000000
00000000
00001000
00000000
00000010
00001000
00000000
00000001
00000000
00000000
00001000
,
00000000
00000000
00000001
00001000
00000000
00001000
00000100
00000000
00000000
00000010
00000000
00000000
00000100
00000000
00000000
00001000
00000000
00000010
00000000
00000000
00000100
00000000
00000000
00000010
,
00000000
00000000
00000100
00000001
00000000
00000001
00000010
00000000
00000000
00000100
00000000
00000000
00010000
00000000
00000000
00001000
00000000
00010000
00000000
00000000
00001000
00000000
00000000
01000000
,
00000000
00000000
00100000
01000000
00000000
01000000
00100000
00000000
00000000
10000000
00000000
00000000
01000000
00000000
00000000
00100000
00000000
01000000
00000000
00000000
10000000
00000000
00000000
00010000
,
00000000
00000000
00000000
00000000
01000000
00000000
00100000
00000000
00000000
00000000
00100000
00000000
10000000
00000000
00000000
00000000
00000000
00000000
01000000
00000000
00000000
00000000
00000000
00000000
00100000
00000000
00000000
00000000
00000000
00000000
01000000
00000000
00000000
20000000
00000000
00000000
00000000
00000000
00000000
00000000
00000000
00000000
00000000
00000000
00000000
00000000
00000000
00000000
,
30010000
01000000
01001000
00000000
00010000
00000000
00010100
00000000
,
00000100
00000110
00000000
00000000
;

//---------------dance-double - M. Simmons----------------
#NOTES:
     dance-double:
     M. Simmons:
     Medium:
     5:
     0.346,0.400,0.131,0.079,0.061:
00000000
00000000
00000000
00000000
,
00000000
00000000
00000000
00000000
,
00000000
00000000
00000000
00000000
,
00000000
00000000
00000000
00000000
,
00000010
00000000
00000000
00000000
00000100
00000000
00000000
00000001
00000000
00000000
00000000
00000000
00001000
00000000
00000000
00000000
,
00000100
00000000
00000000
00000000
00000010
00000000
00000000
00000001
00000000
00000000
00000000
00000000
00000000
00000000
00000000
00000000
,
00000100
00000000
00000000
00000000
00000010
00000000
00000000
00001000
00000000
00000000
00000100
00000000
00000000
00000000
00000000
00000000
,
00020200
00000000
00030300
00000000
,
00000100
00010000
00001000
00100000
,
00010000
00000000
00000000
00000000
01000000
00000000
00000000
00010000
00000000
00000000
00000000
00000000
01000000
00000000
00000000
00000000
,
00100000
00000000
00000000
00000000
10000000
00000000
00000000
01000000
00000000
00000000
00000000
00000000
10000000
00000000
00000000
00100000
,
00000000
00000000
00000000
00000000
01000000
00000000
00000000
00010000
00000000
00000000
00000000
00000000
00000000
00000000
00000000
00000000
,
00100000
00001000
00010000
00000100
,
00010000
00000000
00000000
00000000
00000010
00000000
00000000
00001000
00000000
00000000
00000000
00000000
00000000
00000000
00000000
00000000
,
00000001
00000000
00000000
00000000
00000010
00000000
00000000
00000100
00000000
00000000
00001000
00000000
00000000
00000000
00000000
00000000
,
00001010
00000000
00000101
00000000
,
00000001
00001000
00000001
00000000
00000010
00000100
00001000
00000000
,
00000100
00010000
00001000
00000000
01000000
00001000
00010000
00000000
,
00001000
00100000
00010000
00000000
10000000
00010000
01000000
00000000
,
00010000
10000000
00100000
00000000
10000000
01000000
00100000
00000000
,
01000000
00100000
00010000
01000000
,
00100000
00000000
00000000
00000000
01000000
00000000
00000000
00010000
00000000
00000000
00000000
00000000
00100000
00000000
00010000
00000000
,
01000000
00000000
00100000
01000000
00010000
00000000
00100000
00001000
,
00010000
00000000
00000100
00001000
00000010
00000000
00000220
00000000
,
00000000
00000000
00000330
00000220
,
00000330
00000100
00000001
00001000
,
00000100
00010000
00002000
00000000
,
00013000
00001000
01000000
00010000
,
00100000
01000000
10000000
00100000
,
10000000
00010000
01000000
00001000
,
00010000
00000100
00001000
00000001
,
00000010
00000001
00000100
00000010
,
00000110
00001001
00000110
00001001
,
00001000
00000100
00001000
00000000
00000100
00010000
00000100
00000000
,
00010000
00001000
00100000
00000000
00010000
10000000
01000000
00000000
,
00100000
00010000
00100000
00000000
01000000
10000000
01000000
00000000
,
00100000
00001000
00010000
00000000
00000100
00001000
00000001
00000000
,
00000100
00000010
00000100
00000000
00000001
00001000
00000001
00000000
,
00000010
00000100
00001000
00000000
00000100
00000010
00000001
00000000
,
00001000
00000100
00001000
00000000
00000100
00010000
00000100
00000000
,
00020000
00000000
00001000
00001000
,
00031000
00010000
00001000
00000000
,
01001000
00000000
00010000
00010000
,
00100000
00000000
01000000
00000000
10000000
00000000
00100000
00100000
,
01000000
00010000
10010000
00000000
,
00100000
00001000
00010000
00000000
,
00000100
00001000
00000100
00000010
,
00000110
00000000
00000000
00000000
00000001
00000000
00001000
00001000
,
00000001
00000100
00000110
00000000
,
00001001
00001000
00000100
00010000
,
00001000
00000000
00000000
00000000
01000000
00000000
00000000
00000000
00010000
00000000
00000000
10000000
00000000
00000000
00000000
00000000
,
01000000
00000000
00000000
00000000
00100000
00000000
00000000
00000000
01000000
00000000
00000000
10000000
00000000
00000000
00000000
00000000
,
00010000
00000000
00000000
00000000
00100000
00000000
00000000
00000000
00010000
00000000
00000000
01000000
00000000
00000000
00000000
00000000
,
00000000
00100000
10000000
00010000
,
00100000
00000000
00000000
00000000
00001000
00000000
00000000
00000000
00010000
00000000
00000000
00000100
00000000
00000000
00000000
00000000
,
00000000
00000010
00000100
00001000
,
00000010
00000200
00000000
00000000
,
00000300
00000010
00000100
00000001
,
00001000
00000100
00010000
00001000
,
01000000
00010000
00100000
01000000
,
00100000
00010000
10000000
00100000
,
01000000
00000000
00010000
00100000
00010000
00000000
01000000
00010000
,
01000000
00000000
00001000
00010000
00001000
00000000
00010000
00000100
,
00010000
00001000
00010000
00000010
,
00000100
00000010
00001000
00000100
,
00000000
00001100
00000000
00000000
;

//---------------dance-double - M. Simmons----------------
#NOTES:
     dance-double:
     M. Simmons:
     Easy:
     2:
     0.184,0.172,0.070,0.070,0:
00000000
00000000
00000000
00000000
,
00000000
00000000
00000000
00000000
,
00000000
00000000
00000000
00000000
,
00000000
00000000
00000000
00000000
,
00100000
00000000
00010000
00000000
,
10000000
00000000
01000000
00000000
,
00100000
00000000
00010000
00000000
,
00022000
00000000
00033000
00000000
,
00010000
00000000
00000100
00000000
,
00000010
00000000
00000001
00000000
,
00001000
00000000
00000010
00000000
,
00000100
00000000
00000010
00000000
,
00010000
00000000
00001000
00000000
,
00100000
00000000
00001000
00000000
,
01000000
00000000
00010000
00000000
,
10010000
00000000
00000000
00000000
,
10000000
00010000
10000000
00000000
,
00010000
00100000
00010000
00000000
,
00100000
00001000
00100000
00000000
,
00001000
00010000
00001000
00000000
,
00010000
00000100
00010000
00000000
,
00000100
00000010
00000100
00000000
,
00000010
00000001
00000010
00000000
,
00000001
00001000
00000001
00000000
,
00002002
00000000
00000000
00003003
,
00000001
00000000
00001000
00000000
,
00000100
00000000
00010000
00000000
,
00001000
00000000
01000000
00000000
,
00100000
00000000
10000000
00000000
,
01000000
00000000
10000000
00000000
,
00100000
00000000
01000000
00000000
,
00010000
00000000
00100000
00000000
,
01000000
01000000
01000000
01000000
,
01000000
00000000
10000000
00000000
,
00010000
00000000
01000000
00000000
,
00100000
00000000
01000000
00000000
,
00010000
00000000
00100000
00000000
,
00001000
00000000
00010000
00000000
,
00000010
00000000
00001000
00000000
,
00000001
00000000
00001000
00000000
,
00002002
00000000
00003003
00000000
,
00000001
00000000
00000100
00000000
,
00000010
00000000
00000100
00000100
,
00000001
00000000
00001000
00000000
,
00000100
00000000
00001100
00000000
,
00000100
00000000
00010000
00000000
,
00001000
00000000
00010000
00010000
,
00001000
00000000
00100000
00000000
,
00010000
00000000
00110000
00000000
,
00100000
01000000
00000000
10000000
,
00000000
00100000
00000000
01000000
,
00000000
00100000
00000000
10000000
,
00000000
01000000
00000000
00100000
,
00000000
00010000
00000000
00100000
,
00000000
00001000
00000000
00010000
,
00000000
00000100
00000000
00000010
,
00000000
00000220
00000000
00000330
,
00000000
00000100
00000000
00001000
,
00000000
00000001
00000000
00000100
,
00000000
00000010
00000000
00000100
,
00000000
00000010
00000000
00010000
,
00000000
00001000
00000000
00010000
,
00000000
00001000
00000000
01000000
,
00000000
00010000
00000000
00100000
,
00000000
01000000
00000000
10000000
,
00000000
10010000
00000000
00000000
;

//---------------dance-double - D. Bernardone----------------
#NOTES:
     dance-double:
     D. Bernardone:
     Hard:
     9:
     0.538,0.572,0.140,0.105,0.276:
00000000
00000000
00000000
00000000
,
00000000
00000000
00000000
00000000
,
00000000
00000000
00000000
00000000
,
00000000
00000000
00000000
00000000
00000000
00000000
00000000
00000001
,
00000100
00000000
00000010
00000000
00000100
00000000
00001000
00010000
00000000
00000000
00000000
00000000
00001000
00000000
00010000
00000000
,
01000000
00000000
00100000
00000000
01000000
00000000
10000000
00010000
00000000
00000000
00000000
00000000
00000000
00000000
10000000
00000000
,
00100000
00000000
01000000
00000000
00010000
00000000
00100000
00010000
00000000
00000000
00001000
00000000
00000100
00000000
00000000
00000000
,
00000010
00000000
00000000
00000000
00000000
00000000
00000000
00000001
,
00000100
00000010
00010000
00000010
00000100
00000000
00000100
00000010
,
00020000
00000000
01000000
00000000
00031000
00000000
01000000
00100000
,
00020000
00000000
00000010
00000000
00030010
00001000
00000100
00000010
,
00002000
00000000
00100000
00000000
00103000
00000000
00000000
00010000
,
01000000
10000000
01000000
00100000
01000000
00000000
01000000
00001000
,
00020000
00000000
01000000
00000000
00031000
00000000
00000000
00010000
,
00000010
00000100
00000010
00000001
00000010
00010000
00001000
00100000
,
00010000
00000000
10000000
00000000
00100000
01000000
00000000
00010000
00000000
00010000
00000000
10000000
00100000
00000000
01000000
00000000
,
00010000
00100000
10000000
00100000
00010000
00100000
10000000
00100000
,
00001000
00000100
00000001
00000100
00001000
00000100
00000001
00000100
,
00000010
00010000
00001000
01000000
00100000
00000000
00100000
01000000
,
00001000
00010000
00000100
00000010
00000001
00000000
00000000
00000100
,
00001000
00000100
00000010
00010000
00000100
00000000
00000100
00010000
,
00001000
01000000
00100000
00010000
00100000
00000000
00000000
10000000
,
01000000
00010000
00001000
00000100
00000001
00000000
00000001
00000100
,
00001000
00010000
01000000
10000000
00010000
00000000
01100000
00000000
,
00000000
00000000
00000000
00000000
00000000
00000000
00000000
00000000
00000000
00000000
00000000
00000000
00000000
00000000
00000000
00000000
00000000
00000000
00010000
00000000
10000000
01000000
00000000
10000000
,
01000000
00000000
00000000
00100000
00000000
00000000
00001000
00000000
00000000
00000000
00000000
00010000
00000000
00000000
00000100
00000000
00000000
00010000
00000000
00000000
00000000
00000010
00000000
00000000
,
00000100
00001000
00000100
00000001
00000100
00000100
00000000
00000000
,
00000001
00000000
00000000
00000010
00000000
00000000
00001000
00000000
00000000
00000000
00000000
00000010
00000000
00000000
00001000
00000000
00000000
00010000
00000000
00000000
00000000
00001000
00000000
00000000
,
00010000
00000000
00000000
01000000
00000000
00000000
10000000
00000000
00000000
00100000
00000000
00000000
00010000
00000000
00000000
00010000
00000000
00000000
00010000
00000000
00000000
00010000
00000000
00001000
,
00010000
00000100
00000010
00000100
00010000
00000100
00000010
00000100
,
00010000
00000010
00001000
00000010
00010000
00000010
00001000
00000010
,
00000100
00000001
00001000
00000010
00010000
00001000
01000000
00100000
,
10000000
00010000
10000000
00010000
10000000
00010000
10000000
00010000
10000000
00000000
00000000
00000000
00000000
00000000
00000000
00000000
,
00010000
00000000
00000000
10000000
00000000
00000000
01000000
00000000
00000000
00010000
00000000
00000000
00001000
00000000
00000000
00010000
00000000
00000000
00000010
00000000
00001000
00000001
00000000
00001000
,
00000001
00000000
00000000
00000010
00000000
00000000
00001000
00000000
00000000
00010000
00000000
00000000
01000000
00000000
00000000
10000000
00000000
00000000
00100000
00000000
01000000
00010000
00000000
01000000
,
00010000
00000000
00000000
00100000
00000000
00000000
00100000
00000000
00000000
00100000
00000000
00001000
00010000
00000000
00000000
00000100
00000000
00000000
00000100
00000000
00000000
00000100
00000000
00000010
,
00000001
00000000
00000000
00000001
00000000
00000000
00000001
00000000
00000000
00000100
00000000
00000000
00000100
00000000
00000000
00000100
00000000
00000000
00000100
00000000
00000000
00000100
00000000
00000001
,
00001000
00000000
00000000
00000010
00000000
00000000
00010000
00000000
00000000
00001000
00000000
00000000
00010000
00000000
00000000
00000010
00000000
00000000
00001000
00000000
00000100
00010000
00000000
00000100
,
00010000
00000000
00000000
00001000
00000000
00000000
01000000
00000000
00000000
00010000
00000000
00000000
00100000
00000000
00000000
00010000
00000000
00000000
10000000
00000000
00010000
01000000
00000000
00010000
,
01000000
00100000
01000000
00100000
10000000
00100000
10000000
00100000
,
20020000
00000000
00000000
30030000
,
00010000
00000000
10000000
01000000
10000000
00000000
10000000
01000000
10000000
00000000
00100000
00000000
00000000
00000000
01000000
00000000
,
00201000
00010000
10000000
01300000
,
00011000
00000000
00000000
00000000
00000010
00000000
00001000
00000000
00000100
00000010
00000001
00000010
00000001
00000000
00000001
00000000
,
00000100
00000000
00000100
00000000
00000010
00000100
00000010
00000100
00000010
00000000
00000000
00000000
00000000
00000000
00000000
00000000
,
00001000
00000000
00001000
00000001
00001000
00000000
00001000
00000001
00001000
00000000
00000100
00000000
00000000
00000000
00010000
00000000
,
02001000
10000000
00010000
03001000
,
01100000
00000000
00000000
00000000
00010000
00000000
10000000
00000000
01000000
00100000
00010000
00100000
00010000
00000000
00010000
00000000
,
10000000
00000000
10000000
00000000
00010000
01000000
00010000
01000000
00010000
00000000
00000000
00000000
00000000
00000000
00000000
00000000
,
00011000
00000001
00000012
00000000
00000100
00000000
00001003
00000000
,
00000000
00020100
00000010
00030100
,
00000000
00021000
01000000
01000000
,
01030000
00000000
10200000
00000000
01000000
00000000
01300000
00010000
,
10000000
01000000
00100000
00000000
00011000
00000000
00000000
00000010
,
00001000
00000000
00001100
00000000
00000100
00000000
00000000
00010000
,
00001000
00000000
01010000
00000000
01000000
00000000
00000000
00100000
,
10000000
00000000
00000000
00000000
01000000
00000000
10000000
00000000
00010000
00000000
00000000
01000000
00000000
01000000
00000000
00000000
,
00000000
00000000
00000000
00000000
00000000
00000000
00001000
00000000
00000000
00010000
00000000
00000000
00000100
00000000
00000000
00000000
00000000
00000010
00000000
00000000
00000100
00000000
00000000
00001000
,
00000000
00000000
00000000
00000001
00000000
00000000
00000100
00000000
00000000
00000010
00000000
00000000
00001000
00000000
00000000
00000000
00000000
00000100
00000000
00000000
00010000
00000000
00000000
00001000
,
00000000
00000000
00000000
00010000
00000000
00000000
01000000
00000000
00000000
10000000
00000000
00000000
01000000
00000000
00000000
00000000
00000000
10000000
00000000
00000000
00100000
00000000
00000000
10000000
,
00000000
00000000
00000000
01000000
00000000
00000000
00010000
00000000
00000000
00001000
00000000
00000000
00010000
00000000
00000000
00000000
00000000
00000100
00000000
00000000
00001000
00000000
00000000
00000100
,
00000000
00000000
00000000
00000010
00000000
00000000
00000001
00000000
00000000
00001000
00000000
00000000
00000010
00000000
00000000
00000000
00000000
00010000
00000000
00000000
00001000
00000000
00000000
00010000
,
00000000
00000000
00000000
00000000
00000000
00000000
01000000
00000000
00000000
10000000
00000000
00000000
00010000
00000000
00000000
00000000
00000000
00100000
00000000
00000000
01000000
00000000
00000000
00100000
,
00000000
00011000
00000100
00001000
,
00000000
00000001
00000100
00001000
,
00000000
00011000
00000000
00000000
;
