#TITLE:Beats and Pieces;
#ARTIST:Scratch Perverts;
#BANNER:Beats and Pieces.png;
#BACKGROUND:Beats and Pieces-bg.png;
#MUSIC:Beats and Pieces.ogg;
#OFFSET:-8.351;
#SAMPLESTART:105.1;
#SAMPLELENGTH:16.0;
#BPMS:0=70,64=100,130=120,196=130,262=140,328=160,394=180,460=200;
#STOPS:64=0.919,130=1.092,196=1.211,262=1.27,328=1.36,394=1.465,460=0.879;

//---------------dance-single - Blank----------------
#NOTES:
     dance-single:
     :
     Challenge:
     13:
     0.846,1,0.054,0.832,1,1399,15,231,270,0,6,0.846,1,0.054,0.832,1,1399,15,231,270,0,6: // measure 0
0002
0003
1000
0000
0002
0003
1000
0002
0003
1000
1000
0002
0003
1000
0002
0003
,  // measure 1
0002
0003
1000
1000
0002
0003
1000
1000
0002
0003
0000
0000
0000
0000
MMMM
0000
,  // measure 2
2000
3000
0001
0000
2000
3000
0001
2000
3000
0001
0001
2000
3000
0001
2000
3000
,  // measure 3
2000
3000
0001
0001
2000
3000
0001
0001
2000
3000
0000
0000
0MM0
0000
MMMM
0000
,  // measure 4
0200
0300
0010
0000
0200
0300
0010
0200
0300
0010
0010
0200
0300
0010
0200
0300
,  // measure 5
0200
0300
0010
0010
0200
0300
0010
0010
0200
0300
0000
0000
0000
0000
MMMM
0000
,  // measure 6
0020
0030
0100
0000
0020
0030
0100
0020
0030
0100
0100
0020
0030
0100
0020
0030
,  // measure 7
0020
0030
0100
0100
0020
0030
0100
0100
0020
0030
0000
0000
M00M
0000
MMMM
0000
,  // measure 8
2000
3001
0000
0002
1003
0000
1000
1000
0000
0002
1003
0000
0200
0010
0010
0300
,  // measure 9
2000
3001
0010
0010
0200
0300
0000
0010
0001
1000
0020
0130
0200
0300
MMMM
0000
,  // measure 10
0001
0000
0000
0000
0000
0000
0100
0000
0000
0000
0000
0000
0010
0000
0000
0000
0000
0000
1000
0000
0000
0000
0000
0000
0100
0000
0000
1000
0000
0000
0100
0000
0000
1000
0000
0000
0100
0000
0000
0000
0000
0000
0010
0000
0000
0000
0000
0000
0002
0000
0000
0000
0000
0000
0003
0000
0000
0000
0000
0000
0010
0000
0000
0000
0000
0000
0000
0000
0000
0000
0000
0000
0100
0000
0000
0000
0000
0000
0000
0000
0000
0000
0000
0000
2000
0000
0000
0000
0000
0000
3000
0000
0000
0000
0000
0000
0000
0000
0000
0000
0000
0000
0000
0000
0000
0000
0000
0000
0001
0000
0000
0000
1000
0000
0000
0000
0001
0000
0000
0000
1000
0000
0000
0000
0000
0000
0000
0000
0000
0000
0000
0000
0001
0000
0000
0000
0000
0000
0000
0000
0000
0000
0000
0000
0002
0000
0000
0000
0000
0000
0000
0000
0000
0000
0000
0000
0003
0000
0000
0000
0000
0000
0000
0000
0000
0000
0000
0000
2000
0000
0000
0000
0000
0000
3000
0000
0000
0000
0000
0000
0002
0000
0000
0000
0000
0000
0000
0000
0000
0000
0000
0000
,  // measure 11
1003
0100
1000
0001
0100
0010
0200
0000
0310
0000
0200
0000
0301
1000
0001
0000
2000
3000
0001
0000
0010
0000
0200
0000
0300
0000
0010
0000
0001
0000
1000
0000
,  // measure 12
0001
0010
0001
1000
0001
0100
0001
0010
0002
0003
0000
0000
1000
0001
1000
0010
1000
0001
1000
0100
1000
0001
1000
0010
2000
0000
0000
0000
3000
0000
0000
0000
,  // measure 13
1000
0000
0000
0000
0000
0000
0001
0000
0000
0000
0000
0000
0000
0000
0000
0000
0000
0000
0000
0000
0000
0000
0000
0000
0001
0000
0000
0000
0000
0000
0100
0000
0000
0000
0000
0000
0010
0000
0000
0000
0000
0000
0100
0000
0000
0000
0000
0000
0001
0000
0000
0000
0000
0000
1000
0000
0000
0000
0000
0000
0100
0000
0000
0000
0000
0000
0010
0000
0000
0000
0000
0000
0001
0000
0000
0000
0000
0000
1000
0000
0000
0000
0000
0000
0001
0000
0000
0000
0000
0000
1000
0000
0000
0000
0000
0000
0200
0000
0000
0000
0000
0000
0000
0000
0000
0000
0000
0000
0300
0000
0000
0000
0000
0000
0000
0000
0000
0000
0000
0000
0010
0000
0000
0000
0000
0000
0100
0000
0000
0000
0000
0000
0010
0000
0000
0000
0001
0000
0000
0000
0000
0000
0000
0000
0200
0000
0000
0000
0000
0000
0000
0000
0000
0000
0000
0000
0300
0000
0000
0000
0000
0000
0000
0000
0000
0000
0000
0000
MMMM
0000
0000
0000
0000
0000
0000
0000
0000
0000
0000
0000
0000
0000
0000
0000
0000
0000
0000
0000
0000
0000
0000
0000
,  // measure 14
0010
0000
1000
0000
0001
0000
0200
0000
0300
0000
0010
0000
1000
0000
0200
0000
0310
0000
0001
1000
0100
0010
0001
1000
0100
0010
0001
1000
0002
0003
0000
0000
,  // measure 15
1000
0001
1000
0000
0001
0000
0000
0000
1000
0000
0010
0000
1000
0000
0001
0000
1000
0000
0100
0000
0010
0000
0001
0000
0200
0000
0000
0000
0300
0000
0000
0000
0010
0000
1000
0000
0001
0000
1000
0000
0100
0000
1000
0000
0001
0000
1000
0000
0010
0000
0100
0000
0001
0000
1000
0001
2000
0000
0000
0000
3000
0000
0000
0000
,  // measure 16
2002
0000
0000
0000
0000
0000
3003
0000
2000
3000
0000
0001
0100
0010
1000
0001
,  // measure 17
0000
1000
1000
1000
0000
0001
0100
0000
0010
0000
1000
0100
1000
0000
1000
0001
,  // measure 18
1000
0000
0000
0000
MMMM
0000
0000
0000
0002
0003
0000
0000
2000
3000
0001
0100
,  // measure 19
0000
0010
1000
0001
0000
1000
0100
0000
0100
0000
1000
0010
0100
0000
0001
0001
,  // measure 20
1000
0000
MMMM
0000
0000
0000
MMMM
0000
0002
0003
1000
0000
0002
0003
0100
0020
,  // measure 21
0030
1000
0100
2000
3000
0001
2000
3000
2000
3000
0010
0100
0002
0003
0100
0010
,  // measure 22
2000
3000
0000
0000
MMMM
0000
0000
0000
1000
0000
0000
0000
0002
0003
0100
0020
,  // measure 23
0030
1000
0001
0020
0030
0001
2000
3000
2000
3000
0010
0100
0020
0030
1000
0100
,  // measure 24
0020
0000
0030
0000
MMMM
0000
0000
0000
0000
0000
0000
0000
MMMM
0000
0000
0000
0001
1000
0001
0000
0000
0000
0001
1000
0001
0000
0000
0000
0001
1000
0001
0000
,  // measure 25
0000
0000
0001
1000
0001
0000
0000
0000
1000
0000
0100
0000
0100
0000
0010
0000
0004
4000
0000
0000
0000
0000
0000
0003
3200
0300
0000
0000
0010
0000
0001
0000
,  // measure 26
1000
0000
0001
0000
0100
0000
0010
1000
0001
0000
0000
0000
MMMM
0000
0000
0000
1000
0001
1000
0000
0000
0000
1000
0001
1000
0000
0000
0000
1000
0001
1000
0000
,  // measure 27
0000
0000
1000
0001
1000
0000
0000
0000
0010
0000
1000
0000
0001
0000
0100
0000
0001
0000
1000
0000
0100
0000
1000
0000
0001
0000
0010
0100
1000
0000
0001
0000
,  // measure 28
1000
0000
0010
0100
0001
0000
1000
0001
0010
0000
0000
0000
MMMM
0000
0000
0000
0010
0100
0010
0000
0000
0000
0010
0100
0010
0000
0000
0000
0010
0100
0010
0000
,  // measure 29
0000
0000
0010
0100
0010
0000
0000
0000
0002
0000
2003
0000
3002
0000
2003
0000
3100
0010
0001
1000
0002
0000
0003
0000
1000
0000
0400
4000
0000
0000
0000
0300
,  // measure 30
3001
0000
0000
0000
0000
0000
0100
0000
0000
0000
0000
0000
0000
0000
0000
0000
0010
0000
0000
0000
0000
0000
0000
0000
1000
0000
0000
0000
0000
0000
0001
0000
0000
0000
0000
0000
1000
0000
0000
0000
0000
0000
0000
0000
0000
0000
0000
0000
0004
0000
0000
0000
0000
0000
0000
0000
0000
0000
0000
0000
0003
0000
0000
0000
0000
0000
0000
0000
0000
0000
0000
0000
0004
0000
0000
0000
0000
0000
0000
0000
0000
0000
0000
0000
0000
0000
0000
0000
0000
0000
0000
0000
0000
0000
0000
0000
1003
0000
0000
0000
0000
0000
0000
0000
0000
0000
0000
0000
0001
0000
0000
0000
0000
0000
1000
0000
0000
0000
0000
0000
0002
0000
0000
0000
0000
0000
0003
0000
0000
0000
0000
0000
0002
0000
0000
0000
0000
0000
0003
0000
0000
0000
0000
0000
2000
0000
0000
0000
0000
0000
0000
0000
0000
0000
0000
0000
3001
0000
0000
0000
0000
0000
0100
0000
0000
0000
0000
0000
0010
0000
0000
0000
0000
0000
1000
0000
0000
0000
0000
0000
0001
0000
0000
0000
0000
0000
1000
0000
0000
0000
0000
0000
,  // measure 31
0100
0000
0000
0000
0000
0000
0000
0000
0000
0000
0000
0000
0010
0000
0000
0000
0000
0000
0001
0000
0000
0000
0000
0000
0100
0000
0000
0000
0000
0000
0010
0000
0000
0000
0000
0000
1000
0000
0000
0000
0000
0000
0001
0000
0000
0000
0000
0000
1000
0000
0000
0000
0000
0000
0000
0000
0000
0000
0000
0000
0000
0000
0000
0000
0000
0000
0000
0000
0000
0000
0000
0000
MMMM
0000
0000
0000
0000
0000
0000
0000
0000
0000
0000
0000
0000
0000
0000
0000
0000
0000
0000
0000
0000
0000
0000
0000
0001
0000
0000
0000
1000
0000
0000
0000
0001
0000
0000
0000
1000
0000
0000
0000
0001
0000
0000
0000
1000
0000
0000
0000
0001
0000
0000
0000
0000
0000
0000
0000
0000
0000
0000
0000
0000
0000
0000
0000
0000
0000
0000
0000
0000
0000
0000
0000
1001
0000
0000
0000
0000
0000
0000
0000
0000
0000
0000
0000
0000
0000
0000
0000
0000
0000
0000
0000
0000
0000
0000
0000
0001
0000
0000
0000
0000
0000
0000
0000
1000
0000
0000
0000
0000
0000
0000
0000
0001
0000
0000
0000
0000
0000
0000
0000
,  // measure 32
1000
0000
0000
0000
0001
0000
0000
0000
1000
0000
0000
0000
0001
0000
0000
0000
1000
0000
0000
0000
0001
0000
0000
0000
1000
0000
0000
0000
0000
0000
0000
0000
0000
0000
0000
0000
0000
0000
0000
0000
0000
0000
0000
0000
0000
0000
0000
0000
0002
0000
0000
0000
0000
0000
1003
0000
0000
0000
0000
0000
0000
0000
0000
0000
0000
0000
0000
0000
0000
0000
0000
0000
MMMM
0000
0000
0000
0000
0000
0000
0000
0000
0000
0000
0000
0000
0000
0000
0000
0000
0000
0000
0000
0000
0000
0000
0000
2002
0000
0000
0000
0000
0000
0000
0000
0000
0000
0000
0000
0000
0000
0000
0000
0000
0000
0000
0000
0000
0000
0000
0000
0000
0000
0000
0000
0000
0000
0000
0000
0000
0000
0000
0000
0000
0000
0000
0000
0000
0000
0000
0000
0000
0000
0000
0000
0000
0000
0000
0000
0000
0000
0000
0000
0000
0000
0000
0000
0000
0000
0000
0000
0000
0000
0000
0000
0000
0000
0000
0000
3003
0000
0000
0000
0000
0000
0000
0000
0000
0000
0000
0000
0000
0000
0000
0000
0000
0000
0000
0000
0000
0000
0000
0000
,  // measure 33
2000
3100
0010
0001
2000
3100
0010
0200
1300
0010
0010
0020
0130
0001
0002
1003
,  // measure 34
0002
1003
0010
0010
0200
0301
1000
1000
0200
1300
0000
0000
1100
0000
0000
0000
,  // measure 35
0020
0031
0100
0100
0020
0130
0001
0010
0002
1003
0001
0002
0103
0010
0020
1030
,  // measure 36
0020
1030
0001
0001
0020
0130
1000
0001
2000
300M
0000
0000
0000
0000
0000
0000
,  // measure 37
1000
0010
0100
0010
1000
0001
0100
0001
0010
0100
1000
0001
1000
0010
0100
0010
,  // measure 38
1000
0100
0010
0001
1000
0001
0100
0010
2000
3000
0000
0000
MMMM
0000
0000
0000
,  // measure 39
0001
0100
0010
0100
0001
0010
0100
1000
0001
1000
0010
0100
0010
1000
0001
1000
,  // measure 40
0100
0010
0100
1000
0001
0100
0010
0100
0002
0003
0000
0000
MMMM
0000
0000
0000
,  // measure 41
1000
0000
0000
0000
0000
0000
0000
0000
0001
0000
0000
0000
0000
0000
0000
0000
1000
0000
0000
0000
0000
0000
0000
0000
0001
0000
0000
0000
0000
0000
1000
0000
0000
0000
0000
0000
0001
0000
0000
0000
0000
0000
1000
0000
0000
0000
0000
0000
0200
0000
0000
0000
0000
0000
0000
0000
0000
0000
0000
0000
0300
0000
0000
0000
0000
0000
0000
0000
0000
0000
0000
0000
0010
0000
0000
0000
0000
0000
0000
0000
0000
0000
0000
0000
0000
0000
0000
0000
0000
0000
0000
0000
0000
0000
0000
0000
0010
0000
0000
0000
0000
0000
0000
0000
0000
0000
0000
0000
0010
0000
0000
0000
0000
0000
0000
0000
0000
0000
0000
0000
0002
0000
0000
0000
0000
0000
0000
0000
0000
0000
0000
0000
1003
0000
0000
0000
0000
0000
0000
0000
0000
0000
0000
0000
0000
0000
0000
0000
0000
0000
0000
0000
0000
0000
0000
0000
0000
0000
0000
0000
0000
0000
0000
0000
0000
0000
0000
0000
0200
0000
0000
0000
0000
0000
0000
0000
0000
0000
0000
0000
1300
0000
0000
0000
0000
0000
0000
0000
0000
0000
0000
0000
,  // measure 42
0010
0000
0100
0000
0002
0000
1003
0000
0100
0000
0010
0001
0010
0001
1000
0000
0020
0000
0030
0000
0000
0000
0000
0000
MMMM
0000
0000
0000
0000
0000
0000
0000
,  // measure 43
0200
0300
0010
0010
0200
0300
0001
2000
3000
0100
0100
0020
0030
0001
2000
3000
,  // measure 44
0002
0003
0000
0000
2000
3000
0000
0000
0020
0030
0000
0000
0200
0300
0000
0000
0020
0030
0200
0320
0230
0300
0000
0000
0002
0000
0003
0000
MMMM
0000
0000
0000
,  // measure 45
2000
0000
3100
0010
0001
0100
0010
0000
1000
0000
0002
0003
0000
0001
1000
0000
,  // measure 46
0100
0000
0000
0000
0000
0000
0000
0000
1000
0000
0000
0000
0000
0000
0000
0000
0100
0000
0000
0000
0000
0000
0000
0000
1000
0000
0000
0000
0000
0000
0000
0000
0000
0000
0000
0000
0000
0000
0000
0000
0000
0000
0000
0000
0000
0000
0000
0000
1100
0000
0000
0000
0000
0000
0000
0000
0000
0000
0000
0000
0000
0000
0000
0000
0000
0000
0000
0000
0000
0000
0000
0000
0001
0000
0000
0000
0000
0000
0000
0000
0010
0000
0000
0000
0000
0000
0000
0000
0001
0000
0000
0000
0000
0000
0000
0000
0010
0000
0000
0000
0000
0000
0000
0000
0000
0000
0000
0000
0000
0000
0000
0000
0000
0000
0000
0000
0000
0000
0000
0000
1000
0000
0000
0000
0000
0000
0010
0000
0000
0000
0000
0000
1000
0000
0000
0000
0000
0000
0000
0000
0000
0000
0000
0000
0020
0000
0000
0000
0000
0000
0000
0000
0000
0000
0000
0000
0030
0000
0000
0000
0000
0000
0000
0000
0000
0000
0000
0000
MMMM
0000
0000
0000
0000
0000
0000
0000
0000
0000
0000
0000
0000
0000
0000
0000
0000
0000
0000
0000
0000
0000
0000
0000
,  // measure 47
0100
0000
0010
0000
1000
0000
0001
0000
1000
0000
0100
1000
0100
1000
0010
0000
0100
0001
0100
0000
0010
0000
1000
0000
0001
0000
1000
0100
0010
0000
0001
0000
,  // measure 48
1000
0000
0000
0000
0000
0000
0000
0000
0000
0000
0000
0000
0001
0000
0000
0000
0000
0000
0000
0000
0000
0000
0000
0000
1000
0000
0000
0000
0000
0000
0000
0000
0010
0000
0000
0000
0000
0000
0000
0000
1000
0000
0000
0000
0000
0000
0000
0000
0010
0000
0000
0000
0000
0000
0000
0000
0000
0000
0000
0000
0100
0000
0000
0000
0000
0000
0000
0000
0000
0000
0000
0000
0001
0000
0000
0000
0000
0000
1000
0000
0000
0000
0000
0000
0001
0000
0000
0000
0000
0000
0000
0000
0000
0000
0000
0000
1000
0000
0000
0000
0000
0000
0000
0000
0000
0000
0000
0000
0010
0000
0000
0000
0000
0000
0000
0000
0000
0000
0000
0000
0100
0000
0000
0000
0000
0000
0000
0000
0000
0000
0000
0000
0002
0000
0000
0000
0000
0000
0000
0000
0000
0000
0000
0000
0003
0000
0000
0000
0000
0000
0000
0000
0000
0000
0000
0000
0001
0000
0000
0000
0000
0000
1000
0000
0000
0000
0000
0000
0002
0000
0000
0000
0000
0000
0000
0000
0000
0000
0000
0000
0003
0000
0000
0000
0000
0000
0000
0000
0000
0000
0000
0000
,  // measure 49
2002
0000
0000
0000
0000
0000
3003
0000
2000
3000
0000
0000
0002
0003
1000
0020
,  // measure 50
0030
0100
0100
0002
0003
0010
0200
0300
0200
0300
0010
0001
0200
0300
0010
1000
,  // measure 51
0200
0300
0000
1MMM
0000
0000
MMM1
0000
2000
3100
0010
0002
0103
0010
1000
0200
,  // measure 52
1300
0010
0200
0300
0200
0300
0010
1000
0002
1003
0010
0200
0310
1000
0001
2000
,  // measure 53
31MM
0000
0000
1MMM
0000
0000
MMM1
0000
0002
0003
0000
0000
2000
3000
0001
0200
,  // measure 54
0300
0010
0010
2000
3000
0100
0020
0030
0020
0030
0100
1000
0020
0030
0100
0001
,  // measure 55
0020
0030
0000
MMM1
0000
0000
1MMM
0000
0002
0013
0100
2000
3010
0100
0001
0020
,  // measure 56
0031
0100
0020
0030
0020
0030
0100
0001
2000
3001
0100
0020
0130
0001
1000
0002
,  // measure 57
MM13
0000
0000
0000
0000
0000
MMM1
0000
0000
0000
0000
0000
1MMM
0000
0000
0000
0200
0000
0310
0000
0001
0000
2000
0000
3000
0000
0001
1000
0001
1000
0001
1000
,  // measure 58
0010
0000
0100
0000
0010
0100
0010
0000
2000
0000
0002
3000
0003
0000
0000
0000
0200
0000
0310
0000
1000
0000
0200
0000
0310
0000
0001
0000
1000
0001
1000
0000
,  // measure 59
0002
0000
1003
0100
1000
0000
0020
0000
0230
0000
0000
0000
0300
0000
0000
0000
M001
0000
M100
0000
M010
0000
M100
0000
M001
0000
M010
0000
M100
0000
M010
0000
,  // measure 60
0001
0000
1000
0000
0200
0000
0300
0000
0020
0000
0030
0000
0100
0000
0100
0000
200M
0000
301M
0000
010M
0000
002M
0000
003M
1000
010M
1000
010M
1000
010M
1000
,  // measure 61
000M
0000
0000
000M
0000
1000
000M
0010
0000
100M
0000
0020
000M
0000
0030
000M
0000
0000
000M
0000
0000
000M
0000
0000
1000
0000
0100
0000
0010
0000
0001
0000
0000
1000
0000
0000
0001
0000
0010
0000
0100
0000
1000
0000
0000
0001
0000
0000
,  // measure 62
0200
0300
0001
1000
0001
1000
0200
0300
0010
0001
0010
0001
0200
0300
0001
1000
,  // measure 63
0M01
1000
0M10
0000
1M00
0000
0M01
0000
0M20
0000
0M30
0000
MMMM
0000
0000
0000
0001
0000
0000
0000
0001
0000
0100
0000
000M
0000
010M
0000
001M
0000
100M
0000
,  // measure 64
0000
1000
0001
M000
M002
M003
0001
0100
0010
0000
20M0
30M0
00M1
10M0
01M0
00M0
,  // measure 65
1000
0001
0000
0002
0000
0003
0000
0000
2002
0000
0000
0000
0000
0000
3003
0000
,  // measure 66
0002
0003
0000
0000
0100
0000
0010
1000
0000
1000
0010
0100
0000
0001
1000
0000
,  // measure 67
1000
0000
0001
0100
1000
0000
1000
0100
0002
0003
0000
0000
MMMM
0000
0000
0000
,  // measure 68
0001
0000
0100
0010
0000
0010
1000
0100
0000
0100
1000
0000
1000
0000
0100
0010
,  // measure 69
1000
0000
1000
0010
0000
0010
0100
1000
0MM2
0003
0000
1000
0000
0000
1001
0000
,  // measure 70
0020
0030
0000
0000
0100
0000
0001
0010
0000
0100
1000
0010
0000
1000
0001
0000
,  // measure 71
1000
0000
0100
0001
0100
0000
1000
0010
0100
0000
0000
0000
MMMM
0000
0000
0000
,  // measure 72
0010
0000
0100
0010
0000
0100
0001
0010
0000
0100
1000
0000
0001
0000
1000
0100
,  // measure 73
0001
0000
0100
1000
0000
0001
0000
0100
M01M
0000
0000
1000
0000
0000
1001
0000
,  // measure 74
0002
0000
0000
0000
0000
0000
0003
0000
0000
0000
0000
0000
0000
0000
0000
0000
0000
0000
0000
0000
0000
0000
0000
0000
1000
0000
0000
0000
0000
0000
0000
0000
0000
0000
0000
0000
0000
0000
0000
0000
0000
0000
0000
0000
0000
0000
0000
0000
0100
0000
0000
0000
0000
0000
0000
0000
1000
0000
0000
0000
0000
0000
0000
0000
0100
0000
0000
0000
0000
0000
0000
0000
1000
0000
0000
0000
0000
0000
0000
0000
0000
0000
0000
0000
0000
0000
0000
0000
0000
0000
0000
0000
0000
0000
0000
0000
0200
0000
0000
0000
0000
0000
0000
0000
0000
0000
0000
0000
0300
0000
0000
0000
0000
0000
0000
0000
0000
0000
0000
0000
0010
0000
0000
0000
0000
0000
0000
0000
0000
0000
0000
0000
0001
0000
0000
0000
0000
0000
0000
0000
0000
0000
0000
0000
1000
0000
0000
0000
0000
0000
0000
0000
0000
0000
0000
0000
0000
0000
0000
0000
0000
0000
0000
0000
0000
0000
0000
0000
0200
0000
0000
0000
0000
0000
0000
0000
0000
0000
0000
0000
0300
0000
0000
0000
0000
0000
0000
0000
0000
0000
0000
0000
,  // measure 75
M020
0000
0030
0000
0M01
0000
0000
0000
0000
0000
0000
0000
M020
0000
0030
0000
0M01
0000
0000
0000
0000
0000
0000
0000
2000
0000
3000
0000
0000
0000
0001
0000
0000
0100
0000
0000
M02M
0000
0000
0030
0000
0000
0000
0000
0000
0000
0000
0000
,  // measure 76
1000
0000
0000
0000
0000
0000
0000
0000
0000
0000
0000
0000
0100
0000
0000
0000
0000
0000
0000
0000
0000
0000
0000
0000
0010
0000
0000
0000
0000
0000
0000
0000
0000
0000
0000
0000
0100
0000
0000
0000
0000
0000
0000
0000
0000
0000
0000
0000
1000
0000
0000
0000
0000
0000
0000
0000
0000
0000
0000
0000
0001
0000
0000
0000
0000
0000
0000
0000
0000
0000
0000
0000
1000
0000
0000
0000
0000
0000
0000
0000
0000
0000
0000
0000
0000
0000
0000
0000
0000
0000
0002
0000
0000
0000
0000
0000
1000
0000
0000
0000
0000
0000
0003
0000
0000
0000
0000
0000
0000
0000
0000
0000
0000
0000
0000
0000
0000
0000
0000
0000
0001
0000
0000
0000
0000
0000
0000
0000
0010
0000
0000
0000
0000
0000
0000
0000
0100
0000
0000
0000
0000
0000
0000
0000
1000
0000
0000
0000
0000
0000
0000
0000
0000
0000
0000
0000
0000
0000
0000
0000
0000
0000
0000
0000
0000
0000
0000
0000
0001
0000
0000
0000
0000
0000
0000
0000
0000
0000
0000
0000
0010
0000
0000
0000
0000
0000
0000
0000
0000
0000
0000
0000
,  // measure 77
0100
1000
0100
1000
0100
0000
0010
0000
0001
0000
0000
0000
1000
0000
0010
0000
0001
0000
0010
0000
0100
0000
0001
0000
2000
0000
3000
0000
0000
0000
0000
0000
,  // measure 78
0002
0000
0003
0000
0000
0000
0000
0000
0100
0001
0100
0001
0100
0000
0001
0000
1000
0000
0000
0000
0100
0000
0010
0000
0002
0000
0003
0000
0001
0000
0100
0000
,  // measure 79
M010
M100
M001
M000
0010
0100
1000
0100
1000
0001
1000
0000
MMMM
0000
0000
0000
,  // measure 80
0001
0000
1000
0001
0000
1000
0100
0010
0000
0100
1000
0000
0001
0000
0100
0010
,  // measure 81
1000
0100
1000
0001
1000
0010
0100
0001
M1M0
0000
0000
0000
0020
0000
0030
0000
,  // measure 82
2002
0000
0000
0000
0000
0000
3003
0000
2000
3000
0000
0000
0001
0000
0100
0010
,  // measure 83
0000
1000
0100
0010
0000
0100
1000
0000
0001
0000
0001
0100
0010
0000
0100
0001
,  // measure 84
0020
0030
0000
0000
MMMM
0000
0000
0002
0003
0000
1000
0010
0000
0100
0001
0010
,  // measure 85
0000
0001
1000
0000
0001
0000
0001
0010
0100
0000
0100
1000
0000
0010
0100
0002
,  // measure 86
0003
0000
1MMM
0000
0000
0000
MMM1
0000
0002
0003
0000
0000
1000
0000
0010
0100
,  // measure 87
0000
0001
0010
0100
0000
0010
0001
0000
1000
0000
1000
0010
0100
0000
0010
1000
,  // measure 88
0200
0300
0000
0000
MMMM
0000
0000
0000
0020
0032
0003
1000
0000
0001
0100
0010
,  // measure 89
0000
1000
0100
1000
0100
0010
0001
0010
0001
0000
0001
1000
0000
1000
0000
2000
,  // measure 90
3000
0000
MMM1
0000
0000
0000
1MMM
0000
0200
0000
0300
0000
0010
0000
0001
1000
,  // measure 91
0000
1000
0100
0010
0000
0010
0001
0000
1000
0000
0001
1000
0001
0000
1000
0001
,  // measure 92
0100
0000
0000
0000
MMMM
0000
0000
0000
001M
000M
001M
100M
0000
0100
0010
0001
,  // measure 93
0000
1000
0001
0000
0001
0000
0001
1000
0010
0100
0010
1000
0100
0010
0001
1000
,  // measure 94
0002
0000
2MM3
0000
3020
0000
M23M
0000
0302
0003
0000
0000
1000
0100
0010
0001
,  // measure 95
0000
1000
0010
0100
0000
0001
1000
0000
0100
0000
1000
0010
0100
0000
0001
1000
,  // measure 96
0100
0000
0000
0000
0000
0000
0000
0000
0000
0000
0000
0000
MMMM
0000
0000
0000
0000
0000
0000
0000
0000
0000
0000
0000
0100
0000
0000
0000
0000
0000
2000
0000
0000
3000
0000
0000
0001
0000
0100
0000
0010
0000
2000
0000
0000
0000
0000
0000
,  // measure 97
3000
0000
0001
0100
0010
1000
0100
1000
0100
0010
0001
0100
0010
0100
0001
0010
,  // measure 98
0100
1000
0001
1000
0002
0000
1003
0000
2002
0000
0000
0000
0000
0000
3003
0000
,  // measure 99
0001
0000
0000
0000
0001
0000
0001
1000
0000
0000
1000
0000
0010
0100
0001
0000
,  // measure 100
1000
0000
0100
1000
0001
0000
1000
0000
0001
0010
0100
0000
1000
0000
0000
0000
,  // measure 101
0001
0000
0000
0000
1000
0000
0010
0100
0000
0000
0001
0000
0010
0100
1000
0000
,  // measure 102
0001
0000
1000
0010
0100
0000
0001
0000
0100
0010
1000
0000
1000
0000
0000
0000
,  // measure 103
0001
0000
0000
0000
1000
0000
0010
0100
0000
0000
0010
0000
1000
0001
0000
0000
,  // measure 104
1000
0000
0100
0010
0001
0000
1000
0000
1000
0001
0010
0000
0001
0000
0000
0000
,  // measure 105
0001
0000
0000
0000
1000
0000
0001
0010
0000
0000
0001
0000
1000
0100
1000
0000
,  // measure 106
0100
0000
0010
0001
1000
0000
0001
0000
0100
0010
1000
0000
0001
0000
0000
0000
,  // measure 107
M010
M000
M100
M000
M010
M001
M100
M000
M010
M000
M100
M001
M010
M000
M001
M000
,  // measure 108
0100
0000
0010
0100
0001
0000
1000
0000
0001
0100
0010
0000
1000
0000
0000
0000
,  // measure 109
1000
0000
0000
0000
0001
0000
0100
0010
0000
0000
0100
0000
0001
0010
0100
0000
,  // measure 110
1000
0000
0001
0100
0010
0000
0100
0000
0001
0010
0100
0000
1000
0000
0000
0000
,  // measure 111
00M1
01M0
10M0
01M0
00M1
01M0
10M0
01M0
00M1
01M0
10M0
01M0
00M1
00M0
00M0
00M0
,  // measure 112
1000
0000
0100
0010
0001
0000
1000
0000
0001
1000
0010
0000
0100
0000
0000
0000
,  // measure 113
0010
0000
0000
0000
1000
0000
0001
0010
0000
0000
0100
0000
1000
0001
0100
0000
,  // measure 114
0010
0000
1000
0100
0010
0000
0001
0000
1000
0001
0100
0000
0010
0000
0000
0000
,  // measure 115
2002
0000
0000
3003
,  // measure 116
1000
0000
0000
0000
0100
0000
0010
0001
0000
0000
0100
0000
0010
1000
0100
0000
,  // measure 117
1000
0000
0001
1000
0001
0000
0100
0000
0010
0100
0001
0000
0010
0000
0000
0000
,  // measure 118
0100
0000
0000
0000
0010
0000
0001
0100
0000
0000
0010
0000
1000
0001
1000
0000
,  // measure 119
0100
0000
1000
0010
0100
0000
0010
0000
1000
0000
0001
0000
1000
0000
0000
0000
,  // measure 120
0001
00M0
0000
0000
0010
0M00
0100
M000
,  // measure 121
1000
00M0
0000
0000
0010
0100
0100
0001
,  // measure 122
0001
M000
0000
0000
1000
000M
0001
0M00
,  // measure 123
0100
0010
1000
0100
0010
0001
1000
0000
,  // measure 124
0010
1000
0010
1000
0001
0000
0100
0000
0000
0000
0010
0000
1000
0000
0100
0000
,  // measure 125
0010
0001
0010
0001
1000
0000
0010
0000
0100
0000
0010
0000
0100
0000
0001
0000
,  // measure 126
1000
0100
1000
0100
0010
0000
0001
0000
0000
0000
0010
0000
0100
0000
1000
0000
,  // measure 127
0001
0000
1000
0000
0001
0000
1000
0001
1000
0000
0001
0000
2000
0000
3000
0000
,  // measure 128
0100
00M0
0000
0000
0010
000M
0000
0000
,  // measure 129
0001
M000
0000
0000
1000
1000
0100
0100
,  // measure 130
0010
0000
0000
0000
0001
0000
1000
0010
0000
0000
0100
0000
0010
1000
0100
0000
,  // measure 131
0010
0000
0001
1000
0001
0000
1000
0000
0010
0100
0002
0000
2000
0000
0000
0000
,  // measure 132
0000
0000
0000
0000
,  // measure 133
0000
0000
0000
0000
,  // measure 134
0000
0000
0000
0000
,  // measure 135
0000
0000
0000
3003;

//---------------dance-single - ----------------
#NOTES:
     dance-single:
     :
     Medium:
     8:
     0.427,0.577,0.169,0.079,0.115:
0001
0000
1000
0000
0001
0000
1000
0001
0000
1000
0010
1000
0000
0010
0100
0000
,
0001
0000
1000
0001
1000
0000
0100
0010
0100
0000
0000
0000
1001
0000
0000
0000
,
1000
0000
0000
0000
0100
0000
0010
0100
0000
0010
0001
0100
0000
0010
0100
0000
,
0001
0000
1000
0001
0100
0000
0010
0100
0001
0000
0000
0000
0110
0000
0000
0000
,
1010
0000
0000
0000
1000
0000
0010
0010
0000
0100
0100
0001
0000
1000
0001
0000
,
1000
0000
0100
0100
0010
0000
0100
0100
1000
0000
0000
0000
0001
0000
0100
0000
,
0010
0000
0100
0000
0001
0000
1000
1000
0000
0001
0001
0001
0000
0100
0100
0000
,
0010
0000
0100
0100
0100
0000
0001
0001
0001
0000
0000
0000
1000
0000
0100
0000
,
0010
0100
0000
0100
0010
0000
0010
0001
0000
0001
0100
0000
0010
0100
0001
0000
,
0100
0001
0100
0000
0001
0000
0000
0000
1000
0001
1000
0100
1000
0000
0000
0000
,
0010
0010
0100
0000
0100
0100
0010
0000
0010
0010
1000
0000
1001
0000
0000
0000
,
0001
0001
0001
0000
0001
0001
0001
0001
0000
1000
1000
0000
1100
0000
0000
0000
,
1000
0010
0100
0000
0010
0000
0010
1000
0000
1000
0010
0000
0110
0000
0000
0000
,
0100
0001
0100
0001
0100
0000
0001
0001
0000
1000
1000
0000
1100
0000
0000
0000
,
0010
0100
0010
0100
0010
0000
0100
0100
0000
0001
0001
0000
1001
0000
0000
0000
,
1000
0100
0010
0100
1000
0000
1000
0010
0000
0010
0100
0000
1010
0000
0000
0000
,
2002
3003
0001
1000
,
0100
0000
0100
1000
0010
0100
0010
0100
,
0010
0000
0000
1000
0000
0000
1000
0000
0001
0000
0000
0000
0001
0000
0000
0000
,
0100
0001
0001
0100
0010
0000
0100
0000
,
0001
0000
0000
1000
0000
0000
0001
0000
0100
0000
0000
0000
0010
0000
0000
0000
,
0100
0001
0001
0100
0010
0000
1000
0000
,
0100
0000
0000
0010
0000
0000
0010
0000
0100
0000
0000
0000
1000
0000
0000
0000
,
0100
1000
0010
0100
0010
0000
1000
0000
,
0100
0000
0000
1000
0000
0000
1000
0000
0010
0000
0000
0000
0100
0000
0000
0010
,
0000
0010
1000
0000
0010
0000
0100
0000
0010
0000
1000
0000
0001
0000
0000
0000
,
1000
0000
1000
0000
0100
0000
0000
0000
1000
0000
1000
0000
0010
0000
0000
0010
,
0000
0010
0100
0000
0010
0000
0000
0000
1000
0000
0010
0000
0100
0000
0000
0000
,
0100
0001
0001
0000
1000
1000
0100
0100
,
0010
0010
0100
0000
1000
0001
1000
0000
,
0100
0000
0010
0000
0100
0100
1000
0001
,
0100
0000
0010
0000
0100
0000
0000
0000
0001
1000
0001
0000
1000
0001
1000
0000
,
0100
0100
0010
0000
2200
0000
3300
0000
,
1000
0000
0001
0000
0100
0010
0010
0010
,
0100
0010
1001
0000
,
0001
0000
1000
0000
0100
1000
1000
0010
,
0100
0000
0010
0000
0101
0000
0001
0001
,
0100
0000
0010
0000
0010
0100
0010
0000
,
1000
0000
0010
0000
0101
0000
0001
0001
,
1000
0000
0100
0000
0110
0000
0100
0100
,
1000
0000
0001
0000
1001
0000
1000
0001
,
0100
0000
0010
0000
1000
1000
0010
0000
,
0100
0000
0010
0000
1001
0000
0001
1000
,
1000
0000
0100
0000
0010
0010
0100
0000
,
0010
0100
1000
0000
1000
1000
1010
0000
,
0100
0010
0100
0010
0100
0000
0001
0000
,
1000
0100
1000
0010
1000
0000
1010
0000
,
0100
0010
0100
0010
1000
0000
0100
0000
,
0010
0100
0010
0001
0100
0000
1001
0000
,
0220
0330
0100
0010
,
0100
0010
0010
0000
0100
0000
0001
0000
,
0110
0000
0010
0010
1000
0000
1000
0000
,
0001
0000
0100
0100
0010
0000
0100
0000
,
1001
0000
0001
1000
0100
0000
1000
0000
,
0010
0000
0100
0010
1000
0000
0010
0000
,
0110
0000
0100
0001
0100
0000
0001
0000
,
1000
0100
1000
0000
0010
0000
0100
0000
,
1010
0000
1000
0010
0100
0000
0010
0000
,
1000
1000
0010
0000
0100
0000
0010
0000
,
0101
0000
0000
0001
0100
0000
0001
0000
,
0100
0010
0100
0000
0001
0000
0010
0000
,
0010
0001
0100
0000
0010
0000
0100
0000
,
0001
0100
0001
0000
0100
0000
0010
0000
,
1000
0010
0100
0100
0010
0000
0010
0000
,
0100
0100
0100
0000
0001
0000
0001
0000
,
1000
1000
0100
0000
2002
0000
3003
0000
,
1000
0000
0010
1000
0010
0000
0100
0010
,
0100
0010
1001
0001
,
1000
0000
0010
0000
0100
0010
0100
0000
,
0001
0000
1000
0100
1000
0000
1100
0000
,
0010
0000
0100
0000
0010
0010
0100
0000
,
0001
0000
0100
0001
0001
0000
0101
0000
,
0001
0000
1000
0000
0100
0100
0010
0000
,
0100
0000
1000
1000
0010
0000
0110
0000
,
0010
0000
0100
0000
0001
0100
0001
0000
,
1000
0000
0010
0000
0100
0010
0100
0000
,
0001
0000
1000
0000
0100
0010
0100
0000
,
0010
0000
0001
0000
0100
0010
0100
0000
,
0001
1000
0001
1000
0001
1000
0001
0000
,
1000
0100
1000
0100
1000
0100
0010
0000
,
0010
0100
0010
0100
0010
0100
1000
0000
,
0001
0100
0001
0010
0100
0010
0001
0000
,
0220
0330
0001
1000
,
0100
0010
0100
0000
1000
0000
0010
0000
,
0100
0010
0010
0000
1000
0000
0010
0000
,
0100
0010
1000
0000
0100
0000
0010
0000
,
0100
0010
0001
0000
0100
0000
0010
0000
,
0100
0001
0100
0000
0001
0000
1000
0000
,
0100
0010
0100
0000
1000
0000
0010
0000
,
0100
0010
0100
0000
0010
0000
1000
0000
,
0100
0010
0100
0000
1000
0000
0010
0000
,
0100
0010
0100
0010
0100
0000
0001
0000
,
1000
0001
1000
0001
1000
0000
0100
0000
,
0010
0100
0010
0000
0001
0000
0100
0000
,
0010
0100
0010
0000
0100
0000
0001
0000
,
1000
0100
1000
0000
0100
0000
0010
0000
,
0100
0010
0100
0000
0010
0000
0001
0000
,
0100
0001
0100
0001
0100
0001
1000
0000
,
0100
1000
0100
1000
2200
0000
3300
0000
,
1000
0010
0100
0010
,
0100
0000
0001
0000
1000
0001
1000
0000
,
0100
0010
0100
1000
,
0001
0000
0010
0000
0100
0010
0001
0000
,
0001
0000
0100
0000
0010
0100
0010
0000
,
0100
0000
0001
0000
1000
0100
1000
0000
,
0010
0000
0100
0000
0010
0100
0001
0000
,
0101
0000
0001
0000
0001
0100
0001
0000
,
1000
0100
1000
0100
1000
0000
1000
0000
,
1000
0010
1000
0010
0100
0010
0100
0000
,
0001
0000
0100
0000
0001
0100
0001
0000
,
1000
0000
0100
0010
0100
0010
0100
0000
,
1000
0000
0100
0000
0010
0100
0010
0000
,
0100
0000
1000
0000
0001
0100
0001
0000
,
1000
0000
0100
0010
0100
1000
0010
0000
,
0100
0000
0010
1000
0100
0010
0100
0000
,
2002
3003
0000
0000
,
1000
0000
0010
0000
0100
0000
0100
0010
,
0100
0010
0100
0001
0100
0001
0100
0000
,
0001
0000
1000
0100
1000
0100
1000
0100
,
1000
0100
0010
0100
0010
0100
0010
0000
,
0001
0000
0110
1010
,
0110
0000
1001
0110
,
1001
0010
0001
0100
,
0010
0000
0100
0000
0001
0100
0001
0000
,
1000
0000
0100
0000
0010
0100
0010
0100
,
0010
0000
0001
0000
0100
0010
0100
0010
,
0100
0000
0001
0000
1000
0100
1000
0100
,
1000
0000
0010
0000
0100
0010
0100
0010
,
0202
0303
0220
0330
,
2020
3030
1010
1001
,
1000
0010
0100
0010
,
0010
0100
0010
0100
0010
1000
0010
0000
,
2020
0000
0000
0000
,
0000
0000
3030
0000
;

//---------------dance-single - ----------------
#NOTES:
     dance-single:
     :
     Hard:
     11:
     0.731,1.000,0.054,0.266,0.985:
0002
0003
1000
0000
0002
0003
1000
0002
0003
1000
1000
0002
0003
1000
0002
0003
,
0002
0003
1000
1000
0002
0003
1000
1000
0002
0003
0000
0000
0000
0000
0000
0000
,
2000
3000
0001
0000
2000
3000
0001
2000
3000
0001
0001
2000
3000
0001
2000
3000
,
2000
3000
0001
0001
2000
3000
0001
0001
2000
3000
0000
0000
0000
0000
0000
0000
,
0200
0300
0010
0000
0200
0300
0010
0200
0300
0010
0010
0200
0300
0010
0200
0300
,
0200
0300
0010
0010
0200
0300
0010
0010
0200
0300
0000
0000
0000
0000
0000
0000
,
0020
0030
0100
0000
0020
0030
0100
0020
0030
0100
0100
0020
0030
0100
0020
0030
,
0020
0030
0100
0100
0020
0030
0100
0100
0020
0030
0000
0000
0000
0000
0000
0000
,
2000
3001
0000
0002
1003
0000
1000
1000
0000
0002
1003
0000
0200
0010
0010
0300
,
2000
3001
0010
0010
0200
0300
0000
0010
0001
1000
0020
0130
0200
0300
0000
0000
,
0001
0000
0100
0010
1000
0000
0100
1000
0001
0000
0010
0000
0100
0000
2000
3000
0000
0000
0001
1000
0001
0000
0001
0000
0002
0000
0003
0000
1000
0000
0001
0000
,
1000
0100
1000
0000
0100
0010
0200
0000
0310
0000
0200
0000
0301
1000
0001
0000
2000
3000
0001
0000
0010
0000
0200
0000
0300
0000
0010
0000
0001
0000
1000
0000
,
0001
0010
0001
0000
0001
0100
0001
0000
0001
0000
0000
0000
1000
0010
1000
0010
1000
0010
1000
0010
1000
0010
1000
0010
2000
0000
0000
0000
3000
0000
0000
0000
,
1000
0001
0000
0000
0001
0100
0001
0100
0001
0100
0001
0100
0001
0100
0001
0100
0002
0000
0003
0000
0010
0100
0010
0000
0200
0000
0300
0000
0000
0000
0000
0000
,
0010
0000
1000
0000
0001
0000
0200
0000
0300
0000
0010
0000
1000
0000
0200
0000
0310
0000
0100
0010
0100
0010
0100
0010
0100
0010
0100
0010
0100
0000
0000
0000
,
1000
0001
1000
0000
1000
0001
1000
0001
1000
0001
1000
0001
1000
0000
0000
0000
0001
1000
0001
1000
0001
1000
0001
1000
0001
1000
0001
1000
0001
0000
0000
0000
,
2002
0000
0000
0000
0000
0000
3003
0000
1000
0000
0000
0001
0100
0010
1000
0001
,
0000
1000
1000
1000
0000
0001
0100
0000
0010
0000
1000
0100
1000
0000
1000
0001
,
1000
0000
0000
0000
0000
0000
0000
0000
0001
0000
0000
0000
1000
0000
0001
0100
,
0000
0010
1000
0001
0000
1000
0100
0000
0100
0000
1000
0010
0100
0000
0001
0001
,
1000
0000
0000
0000
0000
0000
0000
0000
0001
0000
1000
0000
0001
0000
0100
0010
,
0000
1000
0100
1000
0000
0001
1000
0000
1000
0000
0010
0100
0001
0000
0100
0010
,
1000
0000
0000
0000
0000
0000
0000
0000
1000
0000
0000
0000
0001
0000
0100
0010
,
0000
1000
0001
0010
0000
0001
1000
0000
1000
0000
0010
0100
0010
0000
1000
0100
,
0010
0000
0000
0000
0000
0000
0000
0000
0000
0000
0000
0000
0000
0000
0000
0000
0001
1000
0001
0000
0000
0000
0001
1000
0001
0000
0000
0000
0001
1000
0001
0000
,
0000
0000
0001
1000
0001
0000
0000
0000
1000
0000
0100
0000
0100
0000
0010
0000
0200
0000
0000
0000
0300
0000
0000
0000
3100
0000
0000
0000
0010
0000
0001
0000
,
1000
0000
0001
0000
0100
0000
0010
1000
0001
0000
0000
0000
0000
0000
0000
0000
1000
0001
1000
0000
0000
0000
1000
0001
1000
0000
0000
0000
1000
0001
1000
0000
,
0000
0000
1000
0001
1000
0000
0000
0000
0010
0000
1000
0000
0001
0000
0100
0000
0001
0000
1000
0000
0100
0000
1000
0000
0001
0000
0010
0100
0010
0000
0001
0000
,
1000
0000
0010
0100
0010
0000
1000
0001
0010
0000
0000
0000
0000
0000
0000
0000
0010
0100
0010
0000
0000
0000
0010
0100
0010
0000
0000
0000
0010
0100
0010
0000
,
0000
0000
0010
0100
0010
0000
0000
0000
0001
0000
1000
0000
0001
0000
1000
0000
0100
0010
0100
0010
1000
0000
0000
0000
1000
0000
0000
0000
0000
0000
0000
0000
,
1000
0000
0001
0000
1000
0001
1000
0000
0001
0000
0000
0000
0000
0000
0000
0000
1003
0000
0001
1000
0001
0000
0001
0000
1000
0000
0010
0100
0010
0000
1000
0001
,
1000
0000
0010
0100
0010
0100
0010
0100
0010
0000
0000
0000
0000
0000
0000
0000
0001
1000
0001
1000
0001
0000
0000
0000
1001
0000
0000
0000
0001
1000
0001
1000
,
0001
1000
0001
1000
0001
0000
0000
0000
1001
0000
0000
0000
0000
0000
0000
0000
2002
0000
0000
0000
0000
0000
0000
0000
0000
0000
0000
0000
3003
0000
0000
0000
,
1000
0100
0010
0001
1000
0100
0010
0100
0000
0010
0010
0100
0000
1000
0001
0000
,
1000
0000
0010
0010
0100
0000
1000
1000
0100
0000
0000
0000
1100
0000
0000
0000
,
0001
0010
0100
1000
0001
0010
0100
0010
0000
0100
0100
0010
0000
0001
1000
0000
,
0001
0000
0100
0100
0010
0000
0001
0001
0010
0000
0000
0000
0011
0000
0000
0000
,
1000
0010
0100
0010
1000
0001
0100
0001
0010
0100
1000
0001
1000
0010
0100
0010
,
1000
0100
0010
0001
1000
0001
0100
0010
1000
0000
0000
0000
0000
0000
0000
0000
,
0001
0100
0010
0100
0001
0010
0100
1000
0001
1000
0010
0100
0010
1000
0001
1000
,
0100
0010
0100
1000
0001
0100
0010
0100
0001
0000
0000
0000
0000
0000
0000
0000
,
1000
0001
1000
0001
1000
0000
0010
0000
0010
1000
0001
1000
0000
0000
0100
1000
,
0010
0100
0001
1000
0100
0010
0010
0001
0010
0000
0000
0000
0000
0000
0000
0000
,
0100
0000
0010
0010
0100
0000
0001
1000
0000
0100
0100
0010
0000
0001
1000
0000
,
0001
0000
1000
0000
0010
0000
0100
0000
0100
0010
0100
0000
0001
0000
0000
0000
,
1000
0000
0100
0010
0001
0100
0010
0000
1000
0000
0001
0000
0000
0001
1000
0000
,
0100
0000
1000
0000
0100
0000
1000
0000
0000
0000
0000
0000
1100
0000
0000
0000
0000
0000
0001
0000
0010
0000
0001
0000
0010
0000
0000
0000
0000
0000
1000
0000
0000
0010
0000
0000
1000
0000
0000
0000
0000
0000
0000
0000
0000
0000
0000
0000
,
0100
0010
1000
0001
1000
0100
0100
0010
0100
0100
0010
1000
0001
1000
0100
1000
,
0001
1000
0010
1000
0010
0100
0001
1000
1000
0010
0100
0001
0000
1000
0001
0000
,
2002
0000
0000
0000
0000
0000
3003
0000
1000
0000
0000
0000
0001
0000
1000
0010
,
0000
0100
0100
0001
0000
0010
0100
0000
0100
0000
0010
0001
0100
0000
0010
1000
,
0100
0000
0000
1000
0000
0000
0001
0000
1000
0100
0010
0001
0100
0010
1000
0100
,
1000
0010
0100
0000
0100
0000
0010
1000
0001
1000
0010
0100
0010
1000
0001
1000
,
0100
0000
0000
1000
0000
0000
0001
0000
0001
0000
0000
0000
1000
0000
0001
0100
,
0000
0010
0010
1000
0000
0100
0010
0000
0010
0000
0100
1000
0010
0000
0100
0001
,
0010
0000
0000
0001
0000
0000
1000
0000
0001
0010
0100
1000
0010
0100
0001
0010
,
0001
0100
0010
0000
0010
0000
0100
0001
1000
0001
0100
0010
0100
0001
1000
0001
,
0010
0000
0000
0001
0000
0000
1000
0000
0100
0010
0001
1000
0000
0001
1000
0001
,
1000
0001
0010
0100
0001
1000
0000
0000
0100
0010
1000
0100
0010
0001
1000
0001
,
1000
0001
0010
0100
0010
0000
0000
0000
0001
0100
0010
0100
0001
0010
0100
0010
,
0001
1000
0100
0000
0010
0000
0100
0100
1000
0010
0100
0010
0000
1000
0100
1000
,
0000
0000
0000
0000
0000
0000
1000
0000
0000
0010
0000
0000
1000
0000
0000
0000
0000
0000
0000
0000
0000
0000
0000
0000
1000
0000
0100
0000
1000
0000
0100
0000
0000
0000
0000
0000
0010
0000
0001
0000
0010
0000
0001
0000
0000
0000
0000
0000
,
0100
0000
0001
1000
0001
1000
0100
0000
0010
0001
0010
0001
0100
0000
0010
1000
,
0001
0010
0001
0010
0001
0000
0000
0000
0001
0000
0001
0100
0000
0100
0010
1000
,
0000
1000
0001
0000
0001
0000
0001
0100
0010
0000
1000
0000
0001
1000
0100
0000
,
1000
0001
0000
0001
0000
0000
0000
0000
2002
0000
0000
0000
0000
0000
3003
0000
,
0001
0000
0000
0000
0100
0000
0010
1000
0000
1000
0010
0100
0000
0001
1000
0000
,
1000
0000
0001
0100
1000
0000
1000
0100
0001
0000
0000
0000
0000
0000
0000
0000
,
0001
0000
0100
0010
0000
0010
1000
0100
0000
0100
1000
0000
1000
0000
0100
0010
,
0001
0000
1000
0010
0000
0010
0100
0010
1000
0000
0000
1000
0000
0000
1000
0000
,
0010
0000
0000
0000
0100
0000
0001
0010
0000
0100
1000
0010
0000
1000
0001
0000
,
1000
0000
0100
0001
0100
0000
1000
0010
0100
0000
0000
0000
0000
0000
0000
0000
,
0010
0000
0100
0010
0000
0100
0001
0010
0000
0100
1000
0000
0001
0000
1000
0100
,
0001
0000
0100
1000
0000
0001
0000
0100
0010
0000
0000
1000
0000
0000
1001
0000
,
0001
0000
0000
0000
0000
0000
1000
0000
0000
0000
0000
0000
0100
0000
1000
0000
0100
0000
1000
0000
0000
0000
0000
0000
0100
0000
0000
0000
0000
0000
0010
0000
0000
0001
0000
0000
1000
0000
0000
0000
0000
0000
0100
0000
0000
0000
0000
0000
,
0010
0000
0000
0000
0001
0000
0000
0000
0000
0000
0000
0000
0010
0000
0000
0000
0001
0000
0000
0000
0000
0000
0000
0000
1000
0000
0000
0000
0000
0000
0001
0000
0000
0100
0000
0000
0010
0000
0000
0000
0000
0000
0000
0000
0000
0000
0000
0000
,
1000
0000
0000
0100
0000
0000
0010
0000
0000
0100
0000
0000
1000
0000
0000
0001
0000
0000
1000
0000
0000
0001
0000
0000
1000
0000
0000
0000
0000
0000
0001
0000
0010
0000
0001
0000
0010
0000
0000
0000
0000
0000
0001
0000
0000
1000
0000
0000
,
0100
1000
0010
1000
0100
0000
0010
0001
0010
0001
0100
0001
1000
0000
0000
0000
,
0001
0000
0000
0000
0100
0001
0100
0001
1000
0000
0100
0010
0001
0000
0001
0100
,
0010
0100
0001
0000
0010
0100
1000
0100
1000
0001
1000
0000
0000
0000
0000
0000
,
0001
0000
1000
0001
0000
1000
0100
0010
0000
0100
1000
0000
0001
0000
0100
0010
,
1000
0100
1000
0001
1000
0010
0100
0001
0100
0000
0000
0000
0010
0000
0000
0000
,
2002
0000
0000
0000
0000
0000
3003
0000
1000
0000
0000
0000
0001
0000
0100
0010
,
0000
1000
0100
0010
0000
0100
1000
0000
0001
0000
0001
0100
0010
0000
0100
0001
,
0010
0000
0000
0000
0000
0000
0000
0000
0001
0000
1000
0010
0000
0100
0001
0010
,
0000
0001
1000
0000
0001
0000
0001
0010
0100
0000
0100
1000
0000
0010
0100
0001
,
0000
0000
1000
0000
0000
0000
0001
0000
0001
0000
0000
0000
1000
0000
0010
0100
,
0000
0001
0010
0100
0000
0010
0001
0000
1000
0000
1000
0010
0100
0000
0010
1000
,
0100
0000
0000
0000
0000
0000
0000
0000
0010
0001
0000
1000
0000
0001
0100
0010
,
0000
1000
0100
1000
0100
0010
0001
0010
0001
0000
0001
1000
0000
1000
0000
1000
,
0000
0000
0001
0000
0000
0000
1000
0000
0100
0000
0000
0000
0010
0000
0001
1000
,
0000
1000
0100
0010
0000
0010
0001
0000
1000
0000
0001
1000
0001
0000
1000
0001
,
0100
0000
0000
0000
0000
0000
0000
0000
0010
0000
0010
1000
0000
0100
0010
0001
,
0000
1000
0001
0000
0001
0000
0001
1000
0010
1000
0010
1000
0010
1000
0010
1000
,
0002
0000
2003
0000
3020
0000
0230
0000
0302
0003
0000
0000
1000
0100
0010
0001
,
0000
1000
0010
0100
0000
0001
1000
0000
0100
0000
1000
0010
0100
0000
0001
1000
,
0100
0000
0000
0000
0000
0000
0000
0000
0000
0000
0000
0000
0100
0000
0000
1000
0000
0000
0010
0100
0010
0100
0000
0000
,
0000
0000
0001
1000
0001
1000
0001
1000
0001
1000
0010
0100
0010
0100
0010
0100
,
0010
0100
0010
0100
0001
0000
1000
0000
2002
0000
0000
0000
0000
0000
3003
0000
,
0001
0000
0000
0000
0001
0000
0001
1000
0000
0000
1000
0000
0010
0100
0001
0000
,
1000
0000
0100
1000
0001
0000
1000
0000
0001
0010
0100
0000
1000
0000
0000
0000
,
0001
0000
0000
0000
1000
0000
0010
0100
0000
0000
0001
0000
0010
0100
1000
0000
,
0001
0000
1000
0010
0100
0000
0001
0000
0100
0010
1000
0000
1000
0000
0000
0000
,
0001
0000
0000
0000
1000
0000
0010
0100
0000
0000
0010
0000
1000
0001
0000
0000
,
1000
0000
0100
0010
0001
0000
1000
0000
1000
0001
0010
0000
0001
0000
0000
0000
,
0001
0000
0000
0000
1000
0000
0001
0010
0000
0000
0001
0000
1000
0100
1000
0000
,
0100
0000
0010
0001
1000
0000
0001
0000
0100
0010
1000
0000
0001
0000
0000
0000
,
0010
0000
0100
0000
0010
0001
0100
0000
0010
0000
0100
0001
0010
0000
0001
0000
,
0100
0000
0010
0100
0001
0000
1000
0000
0001
0100
0010
0000
1000
0000
0000
0000
,
1000
0000
0000
0000
0001
0000
0100
0010
0000
0000
0100
0000
0001
0010
0100
0000
,
1000
0000
0001
0100
0010
0000
0100
0000
0001
0010
0100
0000
1000
0000
0000
0000
,
0001
0100
0001
0100
0001
0100
0001
0100
0001
0100
0001
0100
0001
0000
0000
0000
,
1000
0000
0100
0010
0001
0000
1000
0000
0001
1000
0010
0000
0100
0000
0000
0000
,
0010
0000
0000
0000
1000
0000
0001
0010
0000
0000
0100
0000
1000
0001
0100
0000
,
0010
0000
1000
0100
0010
0000
0001
0000
1000
0001
0100
0000
0010
0000
0000
0000
,
2002
0000
0000
3003
,
1000
0000
0000
0000
0100
0000
0010
0001
0000
0000
0100
0000
0010
1000
0100
0000
,
1000
0000
0001
1000
0001
0000
0100
0000
0010
0100
0001
0000
0010
0000
0000
0000
,
0100
0000
0000
0000
0010
0000
0001
0100
0000
0000
0010
0000
1000
0001
1000
0000
,
0100
0000
1000
0010
0100
0000
0010
0000
1000
0000
0001
0000
1000
0000
0000
0000
,
0001
0000
0010
0100
,
1000
0000
0000
0000
0010
0100
0100
0001
,
0001
0000
1000
0001
,
0100
0010
1000
0100
0010
0001
1000
0000
,
0010
1000
0010
1000
0001
0000
0100
0000
0000
0000
0010
0000
1000
0000
0100
0000
,
0010
0001
0010
0001
1000
0000
0010
0000
0100
0000
0010
0000
0100
0000
0001
0000
,
1000
0100
1000
0100
0010
0000
0001
0000
0000
0000
0010
0000
0100
0000
1000
0000
,
0001
0000
1000
0000
0001
0000
1000
0001
1000
0000
0001
0000
2000
0000
3000
0000
,
0100
0000
0010
0000
,
0001
0000
0000
0000
1000
1000
0100
0100
,
0010
0000
0000
0000
0001
0000
1000
0010
0000
0000
0100
0000
0010
1000
0100
0000
,
0010
0000
0001
1000
0001
0000
1000
0000
0010
0100
0002
0000
2000
0000
0000
0000
,
0000
0000
0000
0000
,
0000
0000
0000
0000
,
0000
0000
0000
0000
,
0000
0000
0000
3003
;

//---------------dance-single - ----------------
#NOTES:
     dance-single:
     :
     Easy:
     5:
     0.308,0.355,0.187,0.004,0.000:
1000
0001
1000
0001
,
1000
0001
1000
1001
,
0001
1000
0001
1000
,
0001
1000
0001
1001
,
0001
1000
0001
1000
,
0001
1000
0001
1001
,
0001
0010
0001
1000
,
0100
1000
0001
1001
,
0010
0000
0001
0000
1000
0001
1000
0000
,
0001
0010
0001
0100
0001
0100
0010
0000
,
0100
0001
0100
0001
0100
0010
1000
0000
,
0100
0010
0100
0010
0001
0100
0010
0000
,
0100
0100
0001
1000
0001
0001
0100
0000
,
0010
0100
0010
0100
0001
0100
0100
0000
,
0001
0000
1000
0100
1000
0000
0001
0000
,
0010
0001
0010
0010
0100
0010
0001
0000
,
1001
0000
0001
1000
,
0001
0001
1000
0000
0001
0000
0100
0000
,
0010
0100
0001
1000
,
0100
0100
1000
0000
0010
0000
0100
0000
,
0010
1000
0001
0010
,
0001
0001
1000
0000
0100
0000
0010
0000
,
0100
1000
0001
1000
,
0010
0010
1000
0000
0001
0000
0100
0000
,
0010
0100
0001
1000
,
0001
0001
1000
0000
0001
0000
0010
0000
,
0001
0001
1000
0000
0100
0000
0010
0000
,
0100
0100
1000
0000
0100
0000
0010
0000
,
0100
0100
0010
0000
0001
0000
0100
0000
,
0010
1000
0010
0000
0100
0000
0010
0000
,
1000
0001
1000
0000
0100
0000
0010
0000
,
0100
0010
0100
0000
0010
0000
0001
0000
,
0010
0001
0010
0000
0001
0000
0000
0000
,
1000
0010
0100
0010
,
0100
0010
1000
1000
,
1001
0000
1000
0000
0001
1000
0001
0000
,
1000
0010
0100
0010
,
0110
0000
0001
0000
1000
0100
1000
0000
,
0100
0010
0100
0010
,
0101
0000
0100
0000
0010
0100
0001
0000
,
0100
0010
1000
0100
,
0110
0000
0100
0000
1000
0100
1000
0000
,
0010
0000
1000
0000
0010
0100
0010
0000
,
0110
0000
0010
0000
1000
0001
1000
0000
,
0100
0000
0010
0000
0100
1000
0001
0000
,
1001
0000
1000
0000
0100
1000
0100
0000
,
1000
0000
1000
0000
0001
0100
0001
0000
,
0011
0000
0010
0000
0001
0010
0001
0000
,
0100
0000
0100
0000
0010
0100
0010
0000
,
0100
0000
0001
1000
,
0001
0001
1000
0001
,
0110
0100
0001
0001
,
1000
0001
1000
0000
0100
0000
0100
0000
,
0110
0100
0010
0001
,
0100
0100
0010
0000
0100
0000
0001
0000
,
1001
0000
0001
0001
0100
0000
0010
0000
,
0100
0001
0100
0000
0001
0000
0010
0000
,
0110
0000
0100
0100
0010
0000
0001
0000
,
0100
0010
0100
0000
0010
0000
1000
0000
,
0010
1000
0010
0000
1000
0000
1000
0000
,
0010
0100
0010
0000
0100
0000
0100
0000
,
0001
0001
0100
0001
1000
0000
1000
0000
,
0100
0100
0100
1000
,
1000
0010
0010
0000
0110
0000
0010
0000
,
0110
0100
0101
0010
,
1010
1000
1000
0000
,
1000
0001
1000
1000
,
0001
1000
1010
0010
,
0100
0010
0100
0100
,
0001
1000
1100
0001
,
1000
0001
0010
0001
,
0001
1000
1001
1000
,
0001
0010
0001
0001
,
1000
0001
0101
0001
,
0100
0010
0100
0100
,
0010
0100
0110
1000
,
0010
1000
0001
1000
,
0001
0010
0011
1000
,
0001
0001
1000
0100
,
1000
0010
0110
0010
,
0100
0010
0100
0100
,
0010
1000
2010
0000
,
3010
0000
1000
1000
,
0001
0001
1000
0010
,
0110
0000
0010
1000
,
0001
0001
1000
0100
,
1100
0000
1000
0010
,
0100
0010
1000
0001
,
1001
0000
0001
0010
,
0100
0100
0010
0001
,
0011
0000
0001
0100
,
0010
0010
0100
0010
,
1010
0000
1000
0100
,
1000
1000
0010
0100
,
0110
0000
0100
0001
,
1001
1000
0001
0010
,
0011
0000
0001
1000
,
1100
0100
1000
0010
,
1010
0000
0100
0000
,
0100
0010
0000
0100
,
0100
0010
0100
0000
,
0001
1000
0001
0001
,
1000
0001
0100
0000
,
0010
0100
0010
0010
,
0100
0001
0101
0000
,
0001
1000
0100
1000
,
0010
0100
0110
0000
,
1000
1000
0001
0000
,
1000
0001
0100
0010
,
0100
0001
0001
1000
,
0100
0010
1100
0000
,
0001
0000
1000
0000
,
0001
1000
0010
0100
,
0010
1000
0010
0010
,
0100
0100
0001
1000
,
1001
0000
0000
0000
,
0001
1000
0001
0001
,
1000
0010
0101
0000
,
0010
0100
0001
0001
,
1000
0001
1001
0000
,
0001
0010
0001
0001
,
1000
0001
1001
0000
,
0001
0001
0010
0001
,
0001
0001
1000
0001
,
1001
0000
0001
0001
,
0010
0001
1001
0000
,
0001
0010
0010
0010
,
0100
0010
0110
0000
,
1001
0000
1010
0000
,
0110
0000
0100
0010
,
0100
0100
0010
0010
,
0100
0001
1001
0000
;

//---------------dance-single - ----------------
#NOTES:
     dance-single:
     :
     Beginner:
     3:
     0.172,0.213,0.000,0.000,0.000:
0000
0000
0000
0000
,
0000
0000
0000
0000
,
0001
0000
1000
0000
,
0001
0000
1000
0010
,
1000
0000
0001
0000
,
0100
0001
0010
0000
,
0001
0000
1000
0000
,
0001
1000
0100
1000
,
0010
0000
0100
0000
,
0001
0100
0010
0100
,
0001
0001
1000
1000
,
0001
1000
0001
0010
,
0100
0100
0010
0001
,
1000
1000
0001
0010
,
0001
1000
0100
1000
,
0010
0010
1000
0001
,
1000
0000
0001
0000
,
1000
0000
0010
0010
,
0100
0000
0010
0000
,
1000
0000
1000
0001
,
0010
0000
0001
0000
,
1000
0000
0100
0000
,
0010
0100
1000
0000
,
0001
0000
0100
0000
,
0010
0100
0001
0000
,
0001
0000
0001
1000
,
0001
0001
1000
0000
,
0100
0000
1000
0001
,
1000
1000
0010
0000
,
0100
0000
0010
0100
,
0010
1000
0001
0000
,
0010
0000
0001
1000
,
0100
0100
1000
0000
,
1000
0001
1000
0000
,
0010
0100
0010
0000
,
1000
0001
1000
0000
,
0100
0010
0100
0000
,
1000
0000
0001
0000
,
1000
0010
1000
0000
,
0001
0000
0100
0000
,
0001
0010
0100
0000
,
0010
0000
0001
0000
,
1000
0001
0100
0000
,
0010
0000
0100
0000
,
0010
1000
0001
0000
,
1000
0000
0001
0000
,
1000
0001
1000
0000
,
0001
0000
0100
0000
,
0001
0100
0001
0000
,
1000
0000
0100
0000
,
0010
0000
0100
0000
,
1000
0000
0001
0000
,
0100
0000
0001
1000
,
0100
0000
0010
0000
,
0100
0000
0010
0000
,
0001
0100
0010
0000
,
0100
0000
0001
0000
,
0010
0001
1000
0000
,
0100
0000
1000
0000
,
0010
0100
0010
0000
,
0100
0000
0001
0000
,
1000
0000
0010
0000
,
0010
0000
1000
0000
,
0001
0000
0010
0000
,
0001
0000
1000
0000
,
0100
1000
0010
0000
,
0100
0000
0010
0000
,
0100
0000
0001
0000
,
1000
0000
0100
0000
,
0010
0000
0100
0000
,
1000
0000
0001
0000
,
0010
0000
0001
0000
,
1000
0000
0100
0000
,
0010
0000
0100
0000
,
0010
0000
0001
0000
,
0100
0000
0010
0000
,
0100
0000
0001
0000
,
1000
0000
0100
0000
,
0010
0000
0100
0000
,
0010
0000
0001
0000
,
1000
0000
0100
0000
,
1000
0000
0010
0000
,
1000
0000
0001
0000
,
0100
0000
0010
0100
,
0001
0000
1000
0000
,
0100
0000
0010
0100
,
0010
0000
0001
0000
,
1000
0000
0100
1000
,
0100
0000
1000
0000
,
0010
0000
0100
0010
,
0100
0000
0001
0000
,
0100
0000
0001
1000
,
0010
0000
1000
0000
,
0001
0000
0100
0001
,
0010
0000
0100
0000
,
0010
0000
0100
0010
,
0001
0000
0100
0000
,
0010
0000
0100
0010
,
1000
0000
0001
0000
,
1000
0000
0001
0000
,
1000
0000
0000
0000
,
0001
0000
1000
0000
,
0001
0000
0010
0000
,
0001
0000
1000
0000
,
0100
0000
0010
0000
,
0100
0000
0010
0000
,
0001
0000
1000
0000
,
0100
1000
0100
1000
,
0100
1000
0100
0000
,
1000
0000
0010
0000
,
0100
0000
0010
0000
,
0100
0001
0100
0001
,
0100
0001
0100
0000
,
0010
0000
0100
0000
,
0001
0000
1000
0000
,
0100
0000
0000
0000
,
0001
1000
0001
1000
,
0001
1000
0001
0000
,
0100
0010
0100
0010
,
0100
0010
0100
0000
,
0100
0000
0001
1000
,
0001
0000
1000
0100
,
0010
0000
0100
0010
,
0001
0000
0100
0000
,
0010
0100
0010
0000
,
1000
0001
1000
0000
,
0100
0010
0100
0000
,
1000
0100
1000
0000
,
0010
0000
1000
0000
,
0001
0000
0100
0010
,
0100
0001
1000
0001
,
1000
0100
0010
0000
;
