#TITLE:All Jacked Up;
#ARTIST:Gretchen Wilson;
#BANNER:All Jacked Up-bn.png;
#BACKGROUND:All Jacked Up-bg.png;
#CDTITLE:.\CDTITLES\DanceTrax.png;
#MUSIC:All Jacked Up.ogg;
#OFFSET:0.038;
#SAMPLESTART:31.58;
#SAMPLELENGTH:12;
#BPMS:0=144,3=140,6=121.3,7=116.5,8=95,9=97.1,19=110,19.25=120,19.75=140,20.25=150,20.5=160,20.75=170,21=180.7,25=188.7,81=188.4,89=189.66,128=176,129=178,130=180,131=183,132=185.5,133=187,135=188.4,153=189.3,184=189.8,209=188.1,216=189.1,257=102,271=74,272=95,280=105,280.667=110.5,280.750=110,282=111,284=115,286.25=130,286.5=140,286.75=150,287=160,287.25=170,287.5=180,287.75=181,294=191.9,328=192.3,334=140.2,336=120,338=94.7,339.333=64,340=65;
#BGCHANGES:0=All Jacked Up.AVI=1=1=1=0,999=-=1=0=0=0;

//---------------dance-single - ----------------
#NOTES:
     dance-single:
     :
     Challenge:
     8:
     0.608,0.706,0.619,0.095,0.548:
0001
1000
0010
0001
,
1000
0100
0001
1000
,
0110
2002
0000
0000
,
0000
0000
0000
0000
,
0000
0000
3003
0200
,
0000
0000
0000
0300
,
0000
0001
0000
0001
,
0000
0000
0000
0001
0000
0000
0000
0000
0000
0001
0000
0001
,
0100
0000
0001
1000
0000
0000
0000
0000
0000
1000
0000
0000
,
0000
0000
0000
1000
0000
0000
0000
0000
0000
1000
0000
1000
,
0100
0000
1000
0010
0000
0000
0000
0000
0000
0100
0000
0000
,
0000
0000
0000
0010
0000
0000
0000
0000
0000
0010
0000
0010
,
0100
0000
0001
0100
0000
0000
0000
0000
0000
0001
0000
0000
,
0000
0100
0100
0001
,
0001
0000
0000
1001
0000
0000
1000
0000
0000
1000
0000
0100
,
1000
0000
0010
0100
0000
0000
0100
0000
0000
0010
0000
0000
,
0010
0000
0000
1000
0000
0000
1000
0000
0010
1000
0000
0000
,
1010
0000
0000
0001
0000
0000
0001
0000
0010
0001
0000
0000
,
0011
0000
0000
1000
0000
1000
0010
0000
0010
0100
0000
0100
,
0001
0000
0001
1000
0000
0000
1010
0000
0000
1001
0000
0000
,
0101
0000
0001
1000
0000
0000
0000
0000
0000
0000
0000
0000
,
0000
1001
0000
0000
,
0010
1001
0101
1001
,
0010
0000
1000
0000
0000
0010
0100
0000
0001
1000
0000
0100
,
0010
0001
1010
0101
,
1000
0000
0100
0000
0000
0001
0100
0000
0010
1000
0000
0001
,
0010
1000
1100
0001
,
0101
1000
1100
0001
,
0101
0010
1000
0100
,
0001
0000
1000
0000
0000
0100
1000
0000
0001
0100
0000
0010
,
0000
0010
1001
0101
,
1001
1100
1001
0101
,
1001
0000
1000
0001
0000
0000
0001
0000
0000
0001
0000
0000
,
0100
0000
0010
1000
0000
0000
1000
0000
0000
1000
0001
1000
,
0001
1000
0001
1000
0000
0000
1000
0000
0010
0100
0000
0010
,
0100
0000
0000
0001
0000
0000
0001
0000
0010
0100
0000
0010
,
0100
0000
1000
0100
0000
1000
0001
0000
0000
0100
0000
0001
,
1000
0000
1000
0100
0000
1000
0001
0000
0000
0100
0000
0001
,
1000
0000
0010
0100
0000
0000
0100
0000
0000
0001
0000
0000
,
0001
0000
0000
0100
0000
0010
0000
0000
1000
0010
0000
0000
,
0100
0000
0000
0010
0000
0000
1000
0000
0100
0000
0000
0001
,
0100
0000
0001
0100
0000
0000
0010
0000
0000
1001
0000
0000
,
0001
0000
1000
0100
0000
0000
1000
0000
1000
0100
0000
0000
,
1000
0000
0001
0100
0000
0000
0001
0000
0001
0100
0000
0000
,
0010
0000
0000
1000
0000
0010
0100
0000
0010
1000
0000
0010
,
0100
0000
0001
0010
0000
0000
0001
0000
0000
0110
0000
0000
,
0110
0000
0001
1000
0000
0000
0100
0000
0000
1000
0000
0000
,
0001
0000
0000
0100
0000
0010
1000
0000
0001
0010
0000
0000
,
0100
0010
1001
1001
,
0100
0000
0010
1000
0000
0001
0100
0000
0010
0000
0000
0000
,
1000
0000
0010
0100
0000
0000
0001
0000
0010
0100
0000
0000
,
1000
0000
0010
0100
0000
0000
0001
0000
0010
0100
0000
0000
,
1000
0110
0000
0000
,
0000
0001
0001
1000
,
1000
1001
1010
1001
,
0100
0000
0001
0000
0000
0100
0010
0000
1000
0001
0000
0010
,
0100
1000
0101
1010
,
0001
0000
0010
0000
0000
1000
0010
0000
0100
0001
0000
1000
,
0100
0001
0011
1000
,
1010
0001
0011
1000
,
1010
0000
0000
0100
0000
0000
0001
0000
0000
0010
0000
0100
,
0000
0000
0000
0100
0000
0010
0001
0000
1000
0010
0000
0100
,
0000
1010
0011
1001
,
0011
1001
1100
1001
,
1100
0000
1000
0002
0000
0000
0000
0000
0000
0000
0000
0000
,
0000
0000
0000
0000
0000
0000
0000
0000
0000
0003
0000
0010
,
2000
0000
0000
0000
,
0000
0000
0000
0000
0000
0000
0000
0000
0000
3000
0000
0100
,
2002
0000
0000
0000
,
0000
0000
0000
0000
,
3003
0000
0100
0000
0010
0000
1000
0000
0100
0000
0010
0000
,
1000
0000
0100
0000
0010
0000
2000
0000
0000
0000
0000
0000
,
0000
0000
0000
3000
,
0000
0001
1001
0101
,
1001
0000
0000
1100
0000
0000
0001
0000
0100
0010
0000
1000
,
0010
0000
0100
0000
0000
1010
0000
0000
0001
0100
0000
0000
,
1000
0000
0000
0101
0000
0000
1000
0000
0010
0100
0000
0001
,
0100
0000
0010
0000
0000
1001
0000
0000
0000
1100
0000
0000
,
1001
0000
0000
0011
0000
0000
1000
0000
0001
0010
0000
0001
,
1000
0000
0010
0000
0000
0101
0000
0000
0000
1010
0000
0000
,
1001
0000
0000
0101
0000
0000
0001
0000
1000
0010
0000
1000
,
0001
0000
0010
0000
0000
0100
0000
0000
1000
0001
0000
0000
,
0100
0000
0001
1000
0000
0000
0100
0000
1000
0001
0000
0000
,
0100
0000
0001
1000
0000
0000
0010
0000
0100
0000
0001
0000
,
0010
0000
0100
0000
0001
0000
0010
0000
0100
0000
1000
0000
,
0202
0000
0000
0000
,
0000
0000
0000
0000
,
0303
1001
0000
0000
;

//---------------dance-single - ----------------
#NOTES:
     dance-single:
     :
     Hard:
     7:
     0.562,0.665,0.667,0.095,0.343:
0010
0010
1000
0100
,
0010
0100
1000
0001
,
0100
2002
0000
0000
,
0000
0000
0000
0000
,
0000
0000
3003
0200
,
0000
0000
0000
0300
,
0000
0001
0000
0001
,
0000
0001
0000
0001
,
1001
1000
0000
1000
,
0000
1000
0000
1000
,
0110
0001
0000
1000
,
0000
0001
0000
1000
,
1010
0100
0100
0010
,
0010
1000
1100
0001
,
0101
1000
0100
0001
,
1000
0000
1000
0100
0000
0000
0001
0000
0000
1100
0000
0000
,
0101
0000
0000
0010
0000
0001
0000
0000
0010
0001
0000
0000
,
0110
0000
0000
1000
0000
0100
0000
0000
1000
0100
0000
0000
,
1001
0000
0000
0010
0000
1000
0100
0000
0000
0010
0000
0001
,
0100
1010
1001
0101
,
0110
1000
0000
0000
,
0000
1001
0000
0000
,
1000
0110
0010
0010
,
1000
0000
0001
0000
0000
0100
0001
0000
0100
0001
0000
0100
,
0000
0010
1100
0010
,
0101
0000
0000
1000
0000
0100
1000
0000
0100
1000
0000
0100
,
0000
0010
0001
0100
,
1000
0010
0001
0100
,
1000
0000
0000
0010
0000
0000
0010
0000
0000
0100
0000
0010
,
0000
0000
1000
0000
0000
0010
0100
0000
0010
0100
0000
0001
,
0000
1000
1100
0001
,
0101
1000
1100
0001
,
0101
1000
1000
1000
,
0010
0000
0100
0001
0000
0000
0001
0000
0000
1001
0000
0001
,
1000
0001
1000
0001
0000
0000
0101
0000
0000
1000
0000
0000
,
1010
0000
0000
0001
0000
0000
0101
0000
0000
1000
0000
0010
,
0100
0000
0001
1000
0000
0000
1100
0000
0000
0001
0000
0000
,
0011
1000
1100
0001
,
0011
0100
0100
1000
,
1000
0000
0000
0001
0000
1000
0000
0000
0001
1000
0000
0000
,
1010
0001
0101
0101
,
1000
0000
0000
1100
0000
0000
1001
0000
0000
0011
0000
0100
,
0010
0000
0000
1000
0000
0001
0100
0000
0000
0001
0000
1000
,
0100
0000
0000
1000
0000
0001
0100
0000
0001
0100
0000
0000
,
0010
1000
0100
0001
,
0010
1000
0100
0001
,
0010
1001
0001
0100
,
0001
0000
0000
0010
0000
0001
0100
0000
0010
1000
0000
0000
,
0001
0100
0110
0110
,
0001
1000
1001
1001
,
0100
0000
0000
0010
0000
1000
0100
0000
0000
0010
0000
0001
,
0100
0000
0000
0010
0000
1000
0100
0000
0000
0010
0000
0001
,
0100
1001
0000
0000
,
0000
0010
0100
0001
,
1000
0110
0100
0100
,
0001
0000
1000
0000
0000
0010
1000
0000
0010
1000
0000
0010
,
0000
0100
0011
0100
,
1010
0000
0000
0001
0000
0010
0001
0000
0010
0001
0000
0010
,
0000
0100
1000
0010
,
0001
0100
1000
0010
,
0001
0000
0000
0100
0000
0000
0100
0000
0000
0010
0000
0100
,
0000
0000
0001
0000
0000
0100
0010
0000
0100
0010
0000
1000
,
0000
0001
0011
1000
,
1010
0001
0011
1000
,
1010
0102
0000
0000
,
0000
0000
0000
0003
,
2100
0000
0000
0000
,
0000
0000
0000
3000
,
0220
0000
0000
0000
,
0000
0000
0000
0000
,
0330
0000
0000
0000
1000
0000
0001
0000
0000
0000
0010
0000
,
0100
0000
0000
0000
0001
0000
2000
0000
0000
0000
0000
0000
,
0000
0000
0000
3000
,
0000
0010
1001
0101
,
1001
0000
0000
1100
0000
0000
0001
0000
1000
0100
0000
0000
,
0001
0000
1000
0100
0000
0000
0011
0000
0000
0101
0000
0000
,
1100
0000
0000
1010
0000
0000
1000
0000
0001
0100
0000
0000
,
1000
0000
0001
0100
0000
0000
1010
0000
0000
1001
0000
0000
,
0011
0000
0000
1001
0000
0000
0010
0000
1000
0001
0000
0000
,
0010
0000
1000
0001
0000
0000
1100
0000
0000
0101
0000
0000
,
0011
0000
0000
1010
0000
0000
0100
0000
0001
1000
0000
0000
,
0100
0000
0001
0000
0000
1000
0000
0000
0001
0100
0000
0000
,
1000
0000
1000
0100
0000
0000
0001
0000
0001
0100
0000
0000
,
1000
0000
1000
0100
0000
0000
0010
0000
0001
0000
0010
0000
,
0001
0000
1000
0000
0001
0000
1000
0000
0100
0000
1000
0000
,
0202
0000
0000
0000
,
0000
0000
0000
0000
,
0303
0101
0000
0000
;

//---------------dance-single - ----------------
#NOTES:
     dance-single:
     :
     Medium:
     6:
     0.441,0.623,0.352,0.076,0.133:
0010
0000
0010
1000
,
0000
1000
0001
0000
,
0001
0200
0000
0000
,
0000
0000
0000
0000
,
0000
0000
0300
0020
,
0000
0000
0000
0030
,
0000
1000
0000
1000
,
0000
1000
0000
1000
,
0000
0001
0000
0001
,
0000
0001
0000
0001
,
1001
0100
0000
0010
,
0000
0100
0000
0010
,
0000
1000
0000
0100
,
0000
0001
0100
1000
,
0100
0001
0001
1000
,
0100
0001
1000
0001
,
1000
0000
0000
0010
0000
0000
0110
0000
0010
0100
0000
0000
,
0100
0000
0000
0001
0000
0000
1001
0000
0001
1000
0000
0000
,
1000
0001
0100
0010
,
1000
0001
0101
0110
,
1010
1001
0000
0000
,
0000
1001
0000
0000
,
0000
0010
0010
0010
,
0100
0000
0000
0010
0000
0000
1000
0000
0000
0001
0000
0100
,
0000
0001
0100
1000
,
0100
0000
0000
0001
0000
0000
0001
0000
0000
1000
0000
0100
,
0000
0010
0001
0100
,
0001
0010
0001
0100
,
0001
0000
0000
0010
0000
0000
0010
0000
0000
0001
0000
0001
,
0000
0000
0000
1000
0000
0000
0010
0000
0000
0100
0000
0001
,
0000
1000
0010
0001
,
0010
1000
0010
0001
,
0010
1001
0000
0000
,
0100
0000
0000
0001
0000
0000
1000
0000
0000
0001
0000
1000
,
0001
0000
1000
0001
0000
0000
0101
0000
0000
0001
0000
0000
,
0101
1000
1000
0001
,
1000
0001
0011
0001
,
0011
0001
0001
1000
,
0001
0100
0100
0010
,
1000
0100
0100
0010
,
0001
0000
0000
0100
0000
0000
0010
0000
1000
0000
0000
0000
,
0001
0010
0100
0010
,
0001
0000
0000
1000
0000
0000
0100
0000
1000
0100
0000
0000
,
1000
0000
0000
0001
0000
0010
0001
0000
0000
0010
0000
0000
,
0001
0000
0000
0100
0000
0010
1000
0000
0000
1010
0000
0000
,
1010
0000
0000
0100
0000
0001
0100
0000
0000
0101
0000
0000
,
0101
0010
1000
0100
,
1000
0010
1000
0100
,
1000
0001
0011
0011
,
0001
1000
1100
1100
,
0010
1000
1100
0001
,
0101
1000
1100
0110
,
0011
1001
0000
0000
,
0000
0001
0001
1000
,
1000
0100
0100
0100
,
0010
0000
0000
0100
0000
0000
0001
0000
0000
1000
0000
0010
,
0000
1000
0010
0001
,
0010
0000
0000
1000
0000
0000
1000
0000
0000
0001
0000
0010
,
0000
0100
1000
0010
,
1000
0100
1000
0010
,
1000
0000
0000
0100
0000
0000
0100
0000
0000
1000
0000
1000
,
0000
0000
0000
0001
0000
0000
0100
0000
0000
0010
0000
1000
,
0000
0001
0100
1000
,
0100
0001
0100
1000
,
0100
0002
0000
0000
,
0000
0000
0000
0003
,
2000
0000
0000
0000
,
0000
0000
0000
3000
,
2002
0000
0000
0000
,
0000
0000
0000
0000
,
3003
0000
1000
0000
,
1000
0000
2000
0000
,
0000
0000
0000
3000
,
0000
0001
0110
1000
,
0110
0001
1000
0001
,
1000
0000
0100
0000
0000
0100
0000
0000
0000
0110
0000
0000
,
0001
0110
1000
0001
,
1000
0000
0010
0000
0000
0010
0000
0000
0000
0101
0000
0000
,
0010
1100
0010
0100
,
0001
0000
1000
0000
0000
1000
0000
0000
0000
0011
0000
0000
,
0100
1010
0100
0001
,
1000
0000
0001
0000
0000
0001
0000
0000
0000
0100
0000
0000
,
1000
0001
0100
1000
,
0010
0000
0000
0100
0000
0000
0001
0000
0000
0000
0010
0000
,
0001
0000
0000
0000
0001
0000
1000
0000
0000
0000
1000
0000
,
0200
0000
0000
0000
,
0000
0000
0000
0000
,
0300
0110
0000
0000
;

//---------------dance-single - ----------------
#NOTES:
     dance-single:
     :
     Easy:
     4:
     0.366,0.415,0.248,0.076,0.000:
0001
0000
0000
1000
,
0000
0000
0010
0000
,
0000
2002
0000
0000
,
0000
0000
0000
0000
,
0000
0000
3003
0200
,
0000
0000
0000
0300
,
0000
0010
0000
0010
,
0000
0010
0000
0010
,
0000
0100
0000
0100
,
0000
0100
0000
0100
,
0000
0001
0000
0001
,
0000
0001
0000
0001
,
0000
1000
0000
1000
,
0000
1000
0000
1000
,
0000
0001
0100
0001
,
0000
1000
0100
1000
,
1000
0010
0000
0110
,
0000
0001
0000
1001
,
0000
0001
0001
0010
,
0010
0100
0100
1000
,
1000
0110
0000
0000
,
0000
0110
0000
0000
,
0000
0001
1000
0001
,
0000
0100
0100
0010
,
1000
0001
0100
0001
,
0000
0100
0100
0010
,
1000
0001
0100
1000
,
0100
0001
0100
1000
,
0100
0001
0001
1000
,
1000
0001
0100
0010
,
1000
0001
0000
0101
,
0000
1000
0000
1100
,
0000
1001
0100
0100
,
0000
0010
0010
1001
,
1001
1000
1000
0001
,
0001
1000
1000
0001
,
0001
1000
0100
0001
,
0010
1000
0100
0001
,
0010
1000
0100
1000
,
1000
0001
0010
0100
,
0000
1000
0001
0010
,
0100
1000
1000
0100
,
0000
0010
0001
0100
,
1000
0010
0001
0100
,
1000
0001
0001
0010
,
0010
1000
1000
0100
,
0100
0010
0001
0010
,
0000
0100
1000
0100
,
1000
0001
0000
1001
,
0000
0100
0000
0110
,
0000
1000
1000
0010
,
0010
0100
0100
0001
,
0001
0110
0000
0000
,
0000
0110
0001
0110
,
0001
1000
0001
1000
,
0000
0010
0010
0100
,
0001
1000
0010
1000
,
0000
0010
0010
0100
,
0001
1000
0010
0001
,
0010
1000
0010
0001
,
0010
1000
1000
0001
,
0001
1000
0010
0100
,
0001
1000
0000
1100
,
0000
0001
0000
0101
,
0000
1002
0000
0000
,
0000
0000
0000
0003
,
2000
0000
0000
0000
,
0000
0000
0000
3000
,
0020
0000
0000
0000
,
0000
0000
0000
0000
,
0030
0000
1000
0000
,
1000
0000
2000
0000
,
0000
0000
0000
3000
,
0000
0001
1001
0100
,
0001
0100
1000
0100
,
0001
0000
1001
1000
,
0100
0001
0100
1000
,
0100
0000
0011
0010
,
1000
0010
0001
0010
,
1000
0000
1010
0010
,
0001
0100
1000
0100
,
0001
0000
1001
0001
,
0100
1100
1000
0100
,
0101
0001
0010
0000
,
0001
0000
0100
0000
,
2000
0000
0000
0000
,
0000
0000
0000
0000
,
3000
1001
0000
0000
;

//---------------dance-double - Copied f----------------
#NOTES:
     dance-double:
     Copied f:
     Challenge:
     8:
     0.622,0.706,0.610,0.095,0.595:
01000000
00010000
00001000
00000100
,
00000001
00000010
00001000
00010000
,
01100000
20020000
00000000
00000000
,
00000000
00000000
00000000
00000000
,
00000000
00000000
30030000
02000000
,
00000000
00000000
00000000
03000000
,
00000000
00001000
00000000
00001000
,
00000000
00000000
00000000
00001000
00000000
00000000
00000000
00000000
00000000
00010000
00000000
00000010
,
00001000
00000000
00000100
00001000
00000000
00000000
00000000
00000000
00000000
00001000
00000000
00000000
,
00000000
00000000
00000000
00001000
00000000
00000000
00000000
00000000
00000000
00001000
00000000
00000010
,
00000100
00000000
00000001
00000010
00000000
00000000
00000000
00000000
00000000
00000001
00000000
00000000
,
00000000
00000000
00000000
00000100
00000000
00000000
00000000
00000000
00000000
00001000
00000000
00010000
,
00001000
00000000
00100000
00010000
00000000
00000000
00100000
00000000
00000000
10000000
00000000
00000000
,
01000000
00010000
01100000
00001000
,
00110000
00000000
00000000
00011000
00000000
00000000
00001100
00000000
00000000
00000110
00000000
00000001
,
00001000
00000000
00000010
00001000
00000000
00000000
00000101
00000000
00000000
00000001
00000000
00000000
,
00001100
00000000
00000000
00010000
00000000
00000000
00010000
00000000
00001000
00010000
00000000
00000000
,
00011000
00000000
00000000
00100000
00000000
00000000
00100000
00000000
00010000
00100000
00000000
00000000
,
00110000
00000000
00000000
01000000
00000000
00100000
10000000
00000000
01000000
00010000
00000000
00001000
,
00010000
00000000
00000100
00000010
00000000
00000000
00000001
00000000
00000000
00000110
00000000
00000000
,
00001001
00000000
00000000
00000100
00000000
00000010
00000000
00000000
00001000
00000010
00000000
00000000
,
00001010
00000000
00000000
00010000
00000000
00001000
00000000
00000000
00010000
00001000
00000000
00000000
,
00110000
00000000
10000000
01000000
00000000
00000000
11000000
00000000
00000000
11000000
00000000
00000000
,
00100000
00000000
10000000
00000000
00000000
00100000
01000000
00000000
00010000
10000000
00000000
01000000
,
00000000
00000000
00100000
00010000
00000000
00000000
00001000
00000000
00000000
00010000
00000000
00000000
,
01000000
00000000
00100000
00000000
00000000
00010000
00001000
00000000
00001000
00010000
00000000
00011000
,
00000000
00000001
00000101
00001000
,
00001100
00010000
00011000
00110000
,
10100000
01000000
00010000
00100000
,
10000000
00000000
01000000
00000000
00000000
00100000
00010000
00000000
01000000
00100000
00000000
10000000
,
00000000
00010000
00010000
00001000
,
00001000
00000000
00000010
00000001
00000000
00000100
00000010
00000000
00001000
00000100
00000000
00000000
,
00011000
01000000
01000000
01000000
,
00100000
00000000
10000000
00010000
00000000
00000000
01000000
00000000
00000000
00001000
00010000
00001000
,
00010000
00001000
00010000
00001000
00000000
00100000
00010000
00000000
00010000
00100000
00000000
00100000
,
00010000
00000000
00000000
00001000
00000000
00001000
00010000
00000000
00010000
00001000
00000000
00001000
,
00000100
00000000
00000100
00000001
00000000
00001000
00000100
00000000
00000000
00000001
00000000
00001000
,
00000100
00000000
00000000
00011000
00000000
00001000
00100000
00000000
00000000
00011000
00000000
00001000
,
00100000
00000000
00010000
01000000
00000000
00000000
01000000
00000000
00000000
00100000
00000000
00000000
,
00100000
00000000
00000000
10000000
00000000
00010000
00000000
00000000
01000000
00010000
00000000
00000000
,
00100000
00000000
00000000
00010000
00000000
00000000
00001000
00000000
01000000
00000000
00000000
00001000
,
00010000
00000000
00001000
00010000
00000000
00000100
00001000
00000000
00000000
00000010
00000000
00000000
,
00000101
00000000
00000001
00000010
00000000
00000000
00000001
00000000
00000100
00000010
00000000
00000000
,
00001000
00000000
00000010
00000100
00000000
00000010
00001000
00000000
00000100
00010000
00000000
00000000
,
00101000
00000000
00000000
00010000
00000000
00010000
00100000
00000000
00100000
10000000
00000000
10000000
,
00100000
00000000
00100000
00010000
00000000
00000000
00011000
00000000
00000000
00001010
00000000
00000000
,
00000001
00000100
00000100
00001000
,
00001000
00000000
00000000
00010000
00000000
00001000
00100000
00000000
00001000
00100000
00000000
00000000
,
00110000
10000000
01000000
10000000
,
00100000
00000000
10000000
01000000
00000000
00100000
00010000
00000000
01000000
00000000
00000000
00000000
,
10010000
10000000
11000000
00010000
,
01010000
00001000
00011000
00000100
,
00000110
00011000
00000000
00000000
,
00000000
00000010
00001000
00000010
,
00000100
00000000
00000001
00000010
00000000
00000000
00000011
00000000
00000000
00000011
00000000
00000000
,
00000100
00000000
00000001
00000000
00000000
00000100
00000010
00000000
00001000
00000001
00000000
00000010
,
00000000
00000000
00000100
00001000
00000000
00000000
00010000
00000000
00000000
00001000
00000000
00000000
,
00000010
00000000
00000100
00000000
00000000
00001000
00010000
00000000
00010000
00001000
00000000
00011000
,
00000000
10000000
10100000
00010000
,
00110000
00001000
00011000
00001100
,
00000101
00000010
00001000
00000100
,
00000001
00000000
00000010
00000000
00000000
00000100
00001000
00000000
00000010
00000100
00000000
00000001
,
00000000
00001000
00001000
00010000
,
00010000
00000000
01000000
10000000
00000000
00100000
01000000
00000000
00010000
00100000
00000000
00000000
,
00010000
10000000
00010000
20000000
00000000
00000000
00000000
00000000
00000000
00000000
00000000
00000000
,
00000000
00000000
00000000
00000000
00000000
00000000
00000000
00000000
00000000
30000000
00000000
00010000
,
00000200
00000000
00000000
00000000
,
00000000
00000000
00000000
00000000
00000000
00000000
00000000
00000000
00000000
00000300
00000000
00100000
,
20020000
00000000
00000000
00000000
,
00000000
00000000
00000000
00000000
,
30030000
00000000
01000000
00000000
00100000
00000000
00010000
00000000
01000000
00000000
00100000
00000000
,
00010000
00000000
00001000
00000000
00000100
00000000
00000020
00000000
00000000
00000000
00000000
00000000
,
00000000
00000000
00000000
00000030
,
00000000
00000001
00001001
00001001
,
00000110
00000000
00000000
00001001
00000000
00000000
00000010
00000000
00000100
00000001
00000000
00000001
,
00000100
00000000
00000010
00000000
00000000
00001100
00000000
00000000
00000000
00110000
00000000
00000000
,
10010000
00000000
00000000
01010000
00000000
00000000
00100000
00000000
10000000
01000000
00000000
01000000
,
10000000
00000000
00100000
00000000
00000000
10010000
00000000
00000000
00000000
00110000
00000000
00000000
,
00011000
00000000
00000000
00010010
00000000
00000000
00000100
00000000
00000010
00001000
00000000
00001000
,
00000010
00000000
00000100
00000000
00000000
00000011
00000000
00000000
00000000
00001100
00000000
00000000
,
00011000
00000000
00000000
01010000
00000000
00000000
00100000
00000000
10000000
00010000
00000000
00010000
,
10000000
00000000
00100000
00000000
00000000
01000000
00000000
00000000
00010000
00100000
00000000
00000000
,
00001000
00000000
00100000
00010000
00000000
00000000
00000100
00000000
00010000
00001000
00000000
00000000
,
01000000
00000000
00001000
00010000
00000000
00000000
00100000
00000000
01000000
00000000
10000000
00000000
,
00010000
00000000
00100000
00000000
01000000
00000000
00010000
00000000
00001000
00000000
00000100
00000000
,
00022000
00000000
00000000
00000000
,
00000000
00000000
00000000
00000000
,
00033000
00010100
00000000
00000000
;

//---------------dance-double - ----------------
#NOTES:
     dance-double:
     :
     Hard:
     7:
     0.559,0.623,0.629,0.095,0.343:
00100000
00100000
10000000
01000000
,
00010000
00001000
00000100
00000001
,
00000100
00002002
00000000
00000000
,
00000000
00000000
00000000
00000000
,
00000000
00000000
00003003
00000200
,
00000000
00000000
00000000
00000300
,
00000000
00010000
00000000
00010000
,
00000000
00010000
00000000
00010000
,
11000000
00100000
00000000
00100000
,
00000000
00100000
00000000
00100000
,
01010000
00001000
00000000
00001000
,
00000000
00001000
00000000
00001000
,
00000110
00000001
00000100
00001000
,
00000100
00000001
00000010
00001000
,
00010000
00000000
00000000
00100000
00000000
00000000
10000000
00000000
01000000
00000000
00000000
10000000
,
00010000
01000000
00010000
00010000
,
10010000
00000000
00000000
00100000
00000000
00000000
01000000
00000000
00001000
00010000
00000000
00000000
,
00011000
00000000
00000000
00000010
00000000
00000000
00001000
00000000
00000001
00000100
00000000
00000000
,
00000101
00000010
00001010
00010000
,
00011000
01000000
01010000
00100000
,
10100000
10010000
00000000
00000000
,
00000000
00011000
00000000
00000000
,
00000001
00001001
00001001
00001001
,
00000100
00000000
00000000
00000010
00000000
00001000
00000100
00000000
00001000
00000100
00000000
00001000
,
00000000
00000000
00000001
00000100
00000000
00000000
00001010
00000000
00000000
00000101
00000000
00000000
,
00000010
00000000
00000000
00001000
00000000
00000100
00010000
00000000
00000100
00010000
00000000
00000100
,
00000000
00100000
10010000
01000000
,
10010000
00100000
01000000
00010000
,
10000000
00000000
00000000
01000000
00000000
00000000
01000000
00000000
00000000
00100000
00000000
00010000
,
00000000
00000000
00000000
10000000
00000000
00100000
01000000
00000000
00100000
01000000
00000000
00100000
,
00000000
01000000
01010000
00001000
,
00011000
00000010
00000110
00001001
,
00000100
00000001
00000001
00000001
,
00000100
00000000
00000010
00001000
00000000
00000000
00011000
00000000
00000000
00001000
00010000
00001000
,
00010000
00001000
00010000
00001000
00000000
01000000
00010000
00000000
00000000
10000000
00000000
00010000
,
01000000
00000000
00000000
00001000
00000000
00100000
00010000
00000000
00000000
01000000
00000000
00001000
,
00010000
00000000
00000000
00000010
00000000
00001000
00000100
00000000
00000000
00000010
00000000
00000001
,
00000100
00000000
00000000
00000010
00000000
00001000
00000100
00000000
00000000
00000010
00000000
00000001
,
00000100
00000010
00000010
00001000
,
00001000
00000000
00000000
00000010
00000000
00000100
00000000
00000000
00000010
00001000
00000000
00000000
,
00001100
00010000
00001000
00010000
,
01000000
10000000
00100000
00010000
,
10010000
00100000
01010000
00100000
,
11000000
00000000
00000000
00100000
00000000
01000000
00010000
00000000
01000000
00010000
00000000
00000000
,
00110000
00000000
00000000
00001000
00000000
00000100
00000010
00000000
00000000
00001000
00000000
00000010
,
00000100
00000000
00000000
00000001
00000000
00001000
00000100
00000000
00000000
00000001
00000000
00000000
,
00001100
00000010
00000001
00000010
,
00001000
00010000
00001000
00000100
,
00000001
00000110
00000001
00000001
,
00000100
00000000
00000001
00000010
00000000
00000001
00000100
00000000
00000010
00001000
00000000
00000000
,
00010100
00001000
00001000
01000000
,
01000000
00100000
10000000
01000000
,
00010000
00011000
00000000
00000000
,
00000000
00001000
00010000
00001000
,
00100000
10010000
10010000
10010000
,
00100000
00000000
00000000
01000000
00000000
00010000
00100000
00000000
00010000
00100000
00000000
00010000
,
00000000
00000000
10000000
00100000
00000000
00000000
01010000
00000000
00000000
10100000
00000000
00000000
,
01000000
00000000
00000000
00010000
00000000
00100000
00001000
00000000
00100000
00001000
00000000
00100000
,
00000000
00000100
00001001
00000010
,
00001001
00000100
00000010
00001000
,
00000001
00000000
00000000
00000010
00000000
00000000
00000010
00000000
00000000
00000100
00000000
00001000
,
00000000
00000000
00000000
00000001
00000000
00000100
00000010
00000000
00000100
00000010
00000000
00000100
,
00000000
00000010
00001010
00010000
,
00011000
01000000
01100000
10010000
,
00100000
02010000
00000000
00000000
,
00000000
00000000
00000000
03000000
,
00012000
00000000
00000000
00000000
,
00000000
00000000
00000000
00003000
,
00000202
00000000
00000000
00000000
,
00000000
00000000
00000000
00000000
,
00000303
00000000
00000100
00000000
00000010
00000000
00001000
00000000
00000000
00000000
00010000
00000000
,
00100000
00000000
00000000
00000000
10000000
00000000
00200000
00000000
00000000
00000000
00000000
00000000
,
00000000
00000000
00000000
00300000
,
00000000
01000000
10010000
01010000
,
10010000
00000000
00000000
11000000
00000000
00000000
00010000
00000000
01000000
00100000
00000000
00000000
,
10000000
00000000
10000000
00000000
00000000
00000000
01100000
00000000
00000000
10010000
00000000
00000000
,
01010000
00000000
00000000
00011000
00000000
00000000
00000010
00000000
00001000
00000100
00000000
00000000
,
00000001
00000000
00000001
00000000
00000000
00000000
00000110
00000000
00000000
00001100
00000000
00000000
,
00011000
00000000
00000000
00110000
00000000
00000000
10000000
00000000
00100000
01000000
00000000
00000000
,
00010000
00000000
00010000
00000000
00000000
00000000
01100000
00000000
00000000
00110000
00000000
00000000
,
00011000
00000000
00000000
00001100
00000000
00000000
00000010
00000000
00000001
00000100
00000000
00000000
,
00001000
00000000
00001000
00000000
00000000
00000001
00000000
00000000
00001000
00000100
00000000
00000000
,
00010000
00000000
00001000
00010000
00000000
00000000
00100000
00000000
00010000
01000000
00000000
00000000
,
00100000
00000000
10000000
00100000
00000000
00000000
10000000
00000000
10000000
00000000
00010000
00000000
,
01000000
00000000
01000000
00000000
00001000
00000000
00010000
00000000
00010000
00000000
00000100
00000000
,
00002200
00000000
00000000
00000000
,
00000000
00000000
00000000
00000000
,
00003300
00001100
00000000
00000000
;

//---------------dance-double - ----------------
#NOTES:
     dance-double:
     :
     Medium:
     6:
     0.456,0.582,0.410,0.086,0.100:
00100000
00000000
00100000
01000000
,
00000000
01000000
00001000
00000000
,
00001000
00022000
00000000
00000000
,
00000000
00000000
00000000
00000000
,
00000000
00000000
00033000
02000000
,
00000000
00000000
00000000
03000000
,
00000000
00100000
00000000
00100000
,
00000000
00100000
00000000
00100000
,
00100000
10000000
00000000
10000000
,
00000000
10000000
00000000
10000000
,
10010000
01000000
00000000
01000000
,
00000000
01000000
00000000
01000000
,
01000000
00010000
00010000
00100000
,
00001000
00010000
00001000
00000100
,
00000001
00000010
00000001
00000100
,
00001000
00000010
00000010
00000100
,
00001001
00000000
00000000
00000010
00000000
00000000
00000100
00000000
00000001
00000100
00000000
00000000
,
00000101
00000000
00000000
00000010
00000000
00000000
00001000
00000000
00000010
00001000
00000000
00000000
,
00001010
00010000
01000000
10000000
,
00100000
00010000
00010000
10000000
,
10000000
10010000
00000000
00000000
,
00000000
10010000
00000000
00000000
,
00001000
00011000
00011000
00011000
,
00000000
00000000
00000000
00000010
00000000
00000000
00000001
00000000
00000000
00000100
00000000
00000010
,
00000000
00001000
00001100
00000001
,
00000101
00000000
00000000
00000010
00000000
00000000
00001000
00000000
00000000
00010000
00000000
00001000
,
00000000
00100000
10000000
01000000
,
00010000
00001000
00000010
00000001
,
00001000
00010000
00010000
00001000
,
00001000
00000000
00000000
00010000
00000000
00000000
00100000
00000000
00000000
10000000
00000000
01000000
,
00000000
00010000
01010000
10000000
,
11000000
00010000
01010000
10000000
,
00010000
10010000
00100000
00100000
,
01000000
00001000
00010000
00011000
,
00011000
00000100
00000100
00000001
,
00000001
00000100
00000100
00000010
,
00000010
00001000
00010000
00001000
,
01000000
00010000
00100000
00010000
,
01000000
00001000
00001000
00010000
,
00000010
00000000
00000000
00000100
00000000
00000000
00000001
00000000
00000001
00001000
00000000
00000000
,
00000110
00000001
00000100
00000010
,
00001000
00001010
00000011
00001010
,
00000100
00000010
00010000
00001000
,
00100000
00010000
01000000
00100000
,
10000000
00010000
00010000
10000000
,
10000000
00000000
10000000
00100000
00000000
00000000
01010000
00000000
00000000
11000000
00000000
00000000
,
01010000
00100000
01000000
00010000
,
00100000
01000000
00010000
00001000
,
00010000
00000010
00001010
00001010
,
00000001
00000100
00000010
00001000
,
00000001
00000100
00000100
00001000
,
00001000
00010000
00100000
10000000
,
01000000
11000000
00000000
00000000
,
00000000
00100000
10000000
01000000
,
00010000
00011000
00011000
00011000
,
00000000
00000000
00000000
01000000
00000000
00000000
10000000
00000000
00000000
00100000
00000000
01000000
,
00000000
00010000
00110000
10000000
,
10100000
00000000
00000000
01000000
00000000
00000000
00010000
00000000
00000000
00001000
00000000
00010000
,
00000000
00000100
00000001
00000010
,
00001000
00010000
01000000
10000000
,
00010000
01000000
01000000
00100000
,
00100000
00000000
00000000
00010000
00000000
00000000
00001000
00000000
00000000
00000010
00000000
00000100
,
00000000
00001000
00001010
00000001
,
00000011
00001000
00001010
00001001
,
00000100
00000200
00000000
00000000
,
00000000
00000000
00000000
00000300
,
00020000
00000000
00000000
00000000
,
00000000
00000000
00000000
00030000
,
02200000
00000000
00000000
00000000
,
00000000
00000000
00000000
00000000
,
03300000
00000000
00000000
00000000
01000000
00000000
00010000
00000000
00000000
00000000
01000000
00000000
,
00010000
00000000
00000000
00000000
01000000
00000000
00200000
00000000
00000000
00000000
00000000
00000000
,
00000000
00000000
00000000
00300000
,
00000000
00100000
00100000
10000000
,
00100000
00010000
00100000
10000000
,
00010000
00000000
01000000
00000000
00000000
00000000
00001000
00000000
00000000
00001000
00000000
00000000
,
00001000
00010000
00000010
00000100
,
00001000
00000000
00010000
00000000
00000000
00000000
00100000
00000000
00000000
10000000
00000000
00000000
,
01000000
00010000
00001000
00000100
,
00000001
00000000
00000010
00000000
00000000
00000000
00000100
00000000
00000000
00000001
00000000
00000000
,
00000010
00001000
00010000
00100000
,
10000000
00000000
01000000
00000000
00000000
00010000
00000000
00000000
00000000
11000000
00000000
00000000
,
00010000
01010000
00001000
00011000
,
00000010
00000000
00000000
00001010
00000000
00000000
00000001
00000000
00000000
00000000
00000100
00000000
,
00001000
00000000
00000000
00000000
00010000
00000000
00100000
00000000
00000000
00000000
10000000
00000000
,
02000000
00000000
00000000
00000000
,
00000000
00000000
00000000
00000000
,
03000000
10010000
00000000
00000000
;

//---------------dance-double - ----------------
#NOTES:
     dance-double:
     :
     Easy:
     4:
     0.339,0.374,0.067,0.076,0.000:
00000100
00000000
00000000
00010000
,
00000000
00000000
00001000
00000000
,
00000000
00202000
00000000
00000000
,
00000000
00000000
00000000
00000000
,
00000000
00000000
00303000
02000000
,
00000000
00000000
00000000
03000000
,
00000000
00100000
00000000
00100000
,
00000000
00100000
00000000
00100000
,
00000000
10000000
00000000
10000000
,
00000000
10000000
00000000
10000000
,
10000000
00010000
00000000
00010000
,
00000000
00010000
00000000
00010000
,
00000000
01000000
00000000
01000000
,
00000000
01000000
00010000
01000000
,
00010000
10000000
01000000
10000000
,
00000000
00010000
01000000
00001000
,
00010000
00000100
00000100
00000010
,
00000000
00000001
00000001
00000100
,
00000000
00000010
00001000
00000100
,
00010000
00001000
00001000
00100000
,
00100000
00110000
00000000
00000000
,
00000000
00110000
00000000
00000000
,
01000000
00100000
00100000
00100000
,
00000000
10000000
01000000
00010000
,
00000000
00000100
00000100
00000100
,
00000000
00000010
00000001
00000100
,
00001000
00010000
00000000
00001000
,
00000000
00010000
00010000
00100000
,
10000000
01000000
10000000
00010000
,
10000000
01000000
10000000
00010000
,
00000000
01000000
01000000
00001000
,
00001000
00010000
00000010
00001000
,
00000010
00001001
00000000
00000000
,
00000000
00000100
00000100
00000100
,
00000100
00000001
00000000
00001000
,
00000000
00000001
00000000
00001000
,
00000000
00000001
00000001
00001000
,
00001000
00000001
00000100
00001000
,
00000100
00000001
00000010
00000001
,
00001000
00000100
00001000
00000000
,
00010000
01000000
00010000
01000000
,
10000000
00100000
01000000
00000000
,
00100000
01000000
00010000
01000000
,
00100000
00010000
00001000
00010000
,
01000000
10000000
10000000
01000000
,
01000000
00010000
00001000
00010000
,
00000000
00000010
00000100
00000010
,
00000000
00000001
00001000
00000001
,
00000001
00000100
00000010
00000110
,
00000000
00010000
00001000
00011000
,
00000000
00100000
10000000
01000000
,
00010000
00001000
00010000
00001000
,
00000010
00000110
00000000
00000000
,
00000000
00000100
00000010
00000100
,
00000010
00000100
00000100
00000100
,
00000000
00000001
00000010
00001000
,
00000000
00100000
00100000
00100000
,
00000000
01000000
10000000
00100000
,
00010000
00001000
00000000
00010000
,
00000000
00001000
00001000
00000100
,
00000001
00000010
00000001
00001000
,
00000001
00000010
00000001
00001000
,
00000000
00000010
00000010
00010000
,
00010000
00001000
01000000
00010000
,
01000000
00200000
00000000
00000000
,
00000000
00000000
00000000
00300000
,
02000000
00000000
00000000
00000000
,
00000000
00000000
00000000
03000000
,
00002000
00000000
00000000
00000000
,
00000000
00000000
00000000
00000000
,
00003000
00000000
01000000
00000000
,
01000000
00000000
02000000
00000000
,
00000000
00000000
00000000
03000000
,
00000000
00100000
00100000
10000000
,
00100000
00000000
00010000
01000000
,
00001000
00000000
00000010
00000100
,
00000010
00000000
00000001
00000100
,
00001000
00000000
00010000
00100000
,
01000000
00100000
00010000
00001000
,
00010000
00000000
00000010
00000100
,
00001000
00000100
00000010
00010000
,
00001000
00000000
10000000
10000000
,
00010000
00010000
01000000
01000000
,
00100000
00100000
10000000
00000000
,
00010000
00000000
00001000
00000000
,
00000002
00000000
00000000
00000000
,
00000000
00000000
00000000
00000000
,
00000003
00001000
00000000
00000000
;
