#TITLE:Spøkelses Dans;
#ARTIST:Hi-G;
#BANNER:Spokeless Dans-bn.png;
#BACKGROUND:Spokeless Dans-bg.png;
#CDTITLE:.\CDTITLES\DanceTrax.png;
#MUSIC:Spokelses Dans.ogg;
#OFFSET:0.668;
#SAMPLESTART:23.03;
#SAMPLELENGTH:12;
#BPMS:0=78,20=312,176=220,182=440,184=220,264=90,266=100,268=110,270=120,272=130,274=140,276=150,278=160,280=170,282=180,284=190,286=200,288=210,290=220,292=230,294=240,296=250,300=260,304=270,308=280,312=290,316=295,320=300,324=305,328=310,332=315,336=320,340=325,344=330,348=335,352=340,356=345,360=350,364=355,368=360,372=365,376=370,380=375,384=380,388=385,392=390,396=395,400=400,404=405,408=410,412=415;
#STOPS:182=0.4091;
#BGCHANGES:4=Spokelses Dans.AVI=1=1=1=0,999=-=1=0=0=0;

//---------------dance-single - ----------------
#NOTES:
     dance-single:
     :
     Easy:
     5:
     0.399,0.492,0.378,0.028,0.000:
0000
0000
0000
0000
,
0000
0000
0000
0000
,
0000
0000
0000
0000
,
1001
0000
0100
0010
,
0001
0000
0100
0010
,
2000
0000
0000
0000
,
0000
0000
0000
0000
,
0000
0000
0000
0000
,
3001
0000
0010
0000
,
0100
1000
0100
0000
,
1000
0000
0001
0000
,
0100
0001
0100
0000
,
0001
0000
0010
0000
,
0100
0010
0100
0000
,
1000
0000
0001
0000
,
0100
0010
0100
0000
,
1001
0000
0110
0000
,
1100
0000
0101
0000
,
1000
0000
0001
0000
,
1000
0000
0001
0000
,
0110
0000
1001
0000
,
0101
0000
1100
0000
,
0010
0000
0100
0000
,
0001
1000
0001
0000
,
1000
0001
1000
0000
,
0001
0100
0001
0000
,
1000
0100
1000
0010
,
0100
0001
0010
0000
,
0100
1000
0100
0000
,
1000
0010
1000
0000
,
0010
0100
0010
0000
,
0100
0001
0100
0000
,
0001
0010
0001
0000
,
0010
0100
0010
0000
,
0100
1000
0100
0000
,
1000
0100
0010
0000
,
0001
0100
0010
0000
,
1000
0100
0010
0000
,
0001
0000
1000
0000
,
0010
0100
0001
0000
,
1000
0100
0010
0000
,
0001
0100
0010
0000
,
1001
0000
0110
0000
,
1001
0000
0000
0000
,
0002
0000
0000
0000
,
0000
0000
0003
0000
,
1000
0100
0010
0001
,
1000
0100
1100
0010
,
0001
0100
0010
0100
,
0001
1000
0100
0000
,
0010
0100
1000
0001
,
0100
0010
0010
0100
,
0001
0001
0010
0100
,
1000
0001
0100
0000
,
0001
0100
0010
1000
,
0001
0100
0101
0010
,
1000
0100
0010
0100
,
1000
0001
0100
0000
,
0010
0100
0001
1000
,
0100
0010
0010
0100
,
1000
1000
0001
0001
,
1000
0001
1000
0001
,
0100
0010
0100
0010
,
0100
0001
1001
0000
,
0002
0000
0000
0000
,
0000
0000
0000
0000
,
1003
0000
0001
0000
,
1000
0000
0001
0000
,
1100
0000
0101
0000
,
0110
0000
1001
0000
,
0001
0000
0010
0000
,
0100
0000
1100
0000
,
1000
0000
0010
0000
,
0100
0000
0101
0000
,
0001
0000
0010
0000
,
0100
0000
0110
0000
,
1000
0000
0010
0000
,
0100
0000
0110
0000
,
0001
0000
0010
0000
,
0100
0000
0110
0000
,
1000
0000
0010
0000
,
0100
0000
0110
0000
,
0100
0000
0001
0000
,
1000
0100
0010
0000
,
0011
0000
1100
0000
,
0010
0100
0001
0000
,
1000
0000
0001
0000
,
1000
0001
1000
0000
,
1100
0000
0101
0000
,
0110
0000
1001
0000
,
0001
0000
1000
0000
,
0100
0010
0100
0000
,
1000
0000
0010
0000
,
0100
0000
0001
0000
,
0010
0000
0100
0000
,
1000
0000
0001
0000
,
0100
0000
0010
0000
,
0110
0000
1001
0000
,
1000
0000
0100
0000
,
0110
0000
1001
0000
,
0001
0000
0100
0000
,
0110
0000
1001
0000
,
1000
0000
0100
0000
,
0110
0000
1001
0000
,
0110
0000
0000
0000
;

//---------------dance-single - ----------------
#NOTES:
     dance-single:
     :
     Challenge:
     11:
     0.740,0.836,0.293,0.038,0.222:
0000
0000
0000
0000
,
M00M
0000
0000
0000
0000
0000
00M0
0000
0000
0M00
000M
0000
00M0
0000
0000
0M00
M000
0000
00M0
0000
0M00
0000
00M0
0000
,
M000
0000
0000
0M00
00M0
0000
000M
0000
0000
0M00
00M0
0000
M000
0000
00M0
M000
000M
0000
000M
0000
00M0
000M
M000
0000
,
0001
0000
0000
0000
0000
0000
1000
0000
0000
0010
0100
0000
0001
0000
1000
0000
0000
0100
0010
0000
0001
0000
0000
0100
,
0010
0000
1000
0000
0010
0000
0100
0000
0001
0000
1000
0000
0100
0000
0000
0010
0001
0000
0100
0010
1000
0000
0001
0000
,
2000
0000
0000
0000
,
0000
0000
0000
0000
,
3001
0000
1000
0000
,
0100
0000
0010
0000
0011
0000
1000
0100
,
1000
0001
1100
0000
,
0010
0000
0000
0100
0001
0000
0000
0010
,
0100
0000
1000
0000
0101
0000
1000
0001
,
0100
0010
1010
0001
,
0100
0001
0100
0000
0001
0000
1000
0100
,
0000
0010
0001
0000
0100
0000
0010
0000
,
1000
0100
0010
0000
1001
0000
1000
0100
,
0010
0000
0001
0000
1100
0000
0001
0100
,
0010
1000
0101
0000
,
1001
0000
0000
0100
0010
0000
0000
1000
,
0100
0000
0010
0000
0011
0000
0100
1000
,
0100
1000
1010
0100
,
0001
0100
0001
0000
1100
0000
0010
0100
,
0000
0001
0010
0000
0100
0000
1000
0010
,
0100
0001
0010
0000
0110
0000
0000
0000
,
0100
0000
1000
0000
0001
1000
0100
0010
,
0001
0100
0010
0001
,
0010
0000
0100
0000
0001
1000
0100
0010
,
0001
0010
1000
0010
,
0100
0000
1000
0010
0100
0000
0010
0000
,
1000
0000
0001
0000
0010
0100
1000
0000
,
0100
0000
0010
0001
0100
0000
0010
0000
,
0100
0001
0101
0000
,
0100
0000
0001
0010
0100
0000
0010
0000
,
0001
0000
0100
0000
0010
0100
0001
0000
,
0100
0000
0010
1000
0100
0000
0010
0100
,
1000
0000
0001
0000
0101
0000
0000
0010
,
1000
0000
0100
0000
0110
0000
0000
0010
,
0001
0000
0100
0000
0110
0000
0000
0010
,
1000
0001
0010
0100
1000
0010
0100
0001
,
0100
0000
1001
0000
1000
0001
0100
0001
,
1000
0000
0100
0000
0010
0100
1000
0010
,
0100
0001
0010
0100
1000
0010
1000
0001
,
0010
0100
1001
0000
,
1100
0000
0000
0000
1001
0000
0000
0000
0101
0000
0000
0000
,
0220
0000
0000
0000
,
0000
0000
0330
0000
,
0010
1000
0100
0010
100M
0010
010M
0000
,
0010
0000
0001
0000
0100
0000
0000
0000
0010
0000
0100
0010
0100
0000
0001
0000
,
0010
0100
1000
0000
1100
0000
0010
0100
,
0001
0000
0010
0000
0100
0000
0000
0000
0001
0000
0100
0010
0100
0000
0000
0000
,
0010
0001
0100
0010
M001
0010
M100
0000
,
0010
0000
1000
0000
0100
0000
0010
0000
0100
0000
1000
0100
1000
0000
0001
0000
,
0100
0001
1000
0001
0100
0000
0010
1000
,
0100
0000
0010
0000
0100
0000
1000
0000
0001
0000
0000
0000
0100
0001
0100
0001
,
0100
0001
0010
0100
M001
0100
M010
0000
,
0100
0000
1000
0000
0010
0000
0000
0000
0100
0000
0010
0100
0010
0000
1000
0000
,
0100
0010
0001
0000
0101
0000
1000
0100
,
0010
0000
0001
0000
0010
0000
0000
0000
1000
0000
0000
0000
0010
0100
0010
0000
,
0100
1000
0010
0100
100M
0100
001M
0000
,
0100
0000
0001
0000
0010
0000
0000
0000
0100
0000
0010
0100
0010
0000
0001
0000
,
0100
0010
1000
0000
0100
0010
0001
0000
,
0100
0000
0010
0000
1000
0000
0001
0000
1000
0000
0001
0000
1000
0100
1000
0100
,
1000
0010
0100
0000
0001
0000
0100
0001
,
1000
0100
0010
0000
1001
0000
0000
0000
,
02M0
0000
0000
0000
,
0000
0000
0000
0000
,
130M
0000
0001
0100
0010
0000
0100
0000
,
0001
0000
0000
0010
0000
0000
0001
0010
0100
1000
0000
0000
,
0010
0000
1000
0100
0010
0000
0100
0000
,
1000
0010
0100
0101
,
0001
0000
0100
0010
1000
0000
0010
0000
,
0100
0000
0000
0001
0000
0000
0010
0100
1000
0100
0000
0000
,
0010
0000
0001
0100
0010
0000
1000
0100
,
0010
0100
1000
1100
,
0100
0000
0000
0010
0000
0000
0100
0000
0000
1000
0010
1000
,
0010
0000
0100
0000
0001
0000
0000
1000
,
0010
0000
0100
0000
0001
0000
0010
0001
,
0010
0000
0001
0000
0100
0010
0100
0001
,
1000
0000
0000
0100
0000
0000
0010
0000
0000
0001
0100
0001
,
0100
0000
0010
0000
1000
0000
0000
0001
,
0100
0000
0000
0010
0000
0000
1000
0000
0000
0000
0000
0000
0010
0000
0000
0000
0000
0000
1000
0000
0010
0000
1000
0000
,
0010
0000
0100
0000
0001
0000
0010
0001
,
0100
0000
0010
0000
1000
0000
0010
0100
,
0001
0010
1100
0000
,
1001
0000
0000
0010
0100
0000
0000
0001
,
0100
0000
0010
0000
0100
0000
0010
1000
,
0100
0010
0001
0010
,
0100
0000
0000
1000
0000
0000
0001
0000
0000
0000
0000
0000
0100
0000
0000
0000
0000
0000
0000
0000
0010
0000
0000
0000
,
0000
1000
0100
0010
,
0001
1000
0001
0000
0100
0000
0001
0100
,
0001
0000
0010
0000
0100
0000
1000
0100
,
1000
0010
0100
0000
,
1001
0000
0000
0100
0010
0000
0000
1000
,
0100
0000
0010
0000
0100
0000
0010
0001
,
0100
0001
0100
0010
,
0100
0000
0000
0001
0000
0000
1000
0000
0000
0000
0000
0000
0100
0000
0000
0000
0000
0000
0000
0000
0010
0000
0000
0000
,
0000
0001
0100
0010
,
1000
0100
1000
0000
0100
0000
0010
0001
,
0010
0100
0010
0001
,
0100
0001
1000
0000
0100
0000
1000
0100
,
1000
0010
0100
0001
,
1000
0100
1000
0000
0010
0000
0100
0001
,
0100
0010
1000
0001
,
0010
0001
1000
0000
0010
0000
0000
0000
,
1001
0000
0000
0000
;

//---------------dance-single - ----------------
#NOTES:
     dance-single:
     :
     Medium:
     6:
     0.435,0.492,0.104,0.028,0.009: // measure 1
0000
0000
0000
0000
,  // measure 2
0000
0000
0000
0000
,  // measure 3
0000
0000
0000
0000
,  // measure 4
0001
0000
0000
1000
0000
0000
0010
0100
0000
0001
0000
0000
,  // measure 5
0010
0100
0000
1000
0000
0000
0001
0000
0000
0100
0000
0000
,  // measure 6
0020
0000
0000
0000
,  // measure 7
0000
0000
0000
0000
,  // measure 8
1030
0000
0001
0000
,  // measure 9
0010
0100
1000
0010
,  // measure 10
0100
0001
0100
0000
,  // measure 11
0001
0000
0010
0000
,  // measure 12
0100
1000
0100
1000
,  // measure 13
0010
0100
0001
0100
,  // measure 14
0010
0010
0010
0000
,  // measure 15
1000
0010
0100
0010
,  // measure 16
1000
0100
1000
0000
,  // measure 17
0010
0100
0001
0010
,  // measure 18
0100
1000
0100
0000
,  // measure 19
1000
0000
0010
0000
,  // measure 20
0100
0001
0100
0001
,  // measure 21
0010
0100
1000
0100
,  // measure 22
0010
0010
0010
0000
,  // measure 23
0001
0010
0100
0010
,  // measure 24
0001
0100
0001
0000
,  // measure 25
0010
0001
1000
0100
,  // measure 26
0010
0001
0100
0000
,  // measure 27
0010
1000
0001
0100
,  // measure 28
0010
1000
0100
0000
,  // measure 29
0010
0000
0100
0000
,  // measure 30
0010
0001
0100
0001
,  // measure 31
1000
0001
0100
0000
,  // measure 32
0100
0010
0100
0000
,  // measure 33
0010
1000
0100
1000
,  // measure 34
0001
1000
0100
0010
,  // measure 35
0001
0000
0100
0000
,  // measure 36
0010
1000
0100
0000
,  // measure 37
0100
1000
0000
0000
,  // measure 38
0001
0100
0000
0000
,  // measure 39
0110
0000
1001
0000
,  // measure 40
0010
0001
0000
0000
,  // measure 41
0100
0001
0000
0000
,  // measure 42
1000
0100
0010
0000
,  // measure 43
0110
0000
1001
0000
,  // measure 44
0100
0000
0000
0000
,  // measure 45
0002
0000
0000
0000
,  // measure 46
0000
0000
0003
0000
,  // measure 47
1000
0001
0100
0010
,  // measure 48
1000
1000
0100
0010
,  // measure 49
0100
1000
0010
0100
,  // measure 50
0001
0010
0011
0000
,  // measure 51
0100
1000
0010
0100
,  // measure 52
0010
1000
1000
0001
,  // measure 53
0010
0010
0100
1000
,  // measure 54
0001
0100
0110
0000
,  // measure 55
0001
0100
0001
0001
,  // measure 56
1000
1000
0100
0010
,  // measure 57
0001
0100
0001
0010
,  // measure 58
0100
1000
1100
0000
,  // measure 59
0001
1000
0100
0010
,  // measure 60
0001
0001
0100
0010
,  // measure 61
1000
0001
1000
0001
,  // measure 62
0010
0100
0010
0100
,  // measure 63
1000
0010
0100
0001
,  // measure 64
1000
0010
0110
0000
,  // measure 65
0020
0000
0000
0000
,  // measure 66
0000
0000
0000
0000
,  // measure 67
0130
0001
0100
0010
,  // measure 68
1000
0001
1000
0010
,  // measure 69
0001
0010
1000
0001
,  // measure 70
0101
1000
1100
0000
,  // measure 71
0010
0100
0100
0010
,  // measure 72
1000
0010
0001
0001
,  // measure 73
0100
0100
0010
1000
,  // measure 74
0100
0010
0010
0000
,  // measure 75
0001
0010
0100
1000
,  // measure 76
0100
1000
1000
0000
,  // measure 77
0001
0000
0100
0000
,  // measure 78
0001
0100
0001
0010
,  // measure 79
0001
0010
0100
1000
,  // measure 80
0001
0100
0001
0000
,  // measure 81
0010
0000
0100
0000
,  // measure 82
1000
0010
1000
0010
,  // measure 83
0100
0001
0010
0000
,  // measure 84
0001
0100
0010
0000
,  // measure 85
1000
0000
0010
0000
,  // measure 86
0100
0001
0100
0000
,  // measure 87
0010
1000
0100
0000
,  // measure 88
1000
0010
0100
0000
,  // measure 89
0001
0000
1000
0000
,  // measure 90
0100
0010
0100
0000
,  // measure 91
1000
0001
1000
0000
,  // measure 92
0010
0100
0010
0000
,  // measure 93
1000
0000
0100
0000
,  // measure 94
0010
0001
1000
0000
,  // measure 95
0010
1000
0001
0000
,  // measure 96
0100
0010
0100
0000
,  // measure 97
0001
0000
0010
0000
,  // measure 98
0100
1000
0001
0000
,  // measure 99
0010
0000
0100
0000
,  // measure 100
0010
0001
1000
0000
,  // measure 101
0010
0000
0100
0000
,  // measure 102
0001
1000
0001
0000
,  // measure 103
0010
0000
0100
0000
,  // measure 104
1000
0001
1000
0000
,  // measure 105
1001
0000
0000
0000
;

//---------------dance-single - ----------------
#NOTES:
     dance-single:
     :
     Hard:
     9:
     0.612,0.738,0.095,0.028,0.057:
0000
0000
0000
0000
,
0000
0000
0000
0000
,
0000
0000
0000
0000
,
0001
0000
0000
1000
0000
0000
0001
1000
0000
0100
0010
0000
,
0001
0100
0000
0010
1000
0001
0100
0000
0010
1000
0100
0020
,
0000
0000
0000
0000
,
0000
0000
0030
0000
,
1001
0000
0110
0000
,
0010
0000
0001
0000
0100
0000
0010
1000
,
0100
0010
0100
0000
,
0011
0000
0000
0100
1000
0000
0000
0010
,
1000
0001
0100
0010
,
1000
0100
1000
0100
,
0010
0001
1000
0000
0100
0000
0000
0010
,
0000
0001
0100
0010
,
1000
0000
0001
0000
0100
0000
0010
0100
,
0010
0000
1000
0000
0100
0000
0010
0001
,
0100
0010
0100
0000
,
1010
0000
0000
0100
0001
0000
0000
0010
,
0001
1000
0100
0010
,
0001
0100
0001
0100
,
0010
1000
0001
0000
0100
0000
0000
0010
,
0000
1000
0100
0010
,
0001
1000
0010
0000
,
0100
0001
0010
0100
,
1000
0001
1000
0000
,
0100
1000
0010
0100
,
0001
1000
0001
0000
,
0010
0000
0100
1000
0100
0000
0010
0000
,
0001
1000
0100
1000
,
0100
0000
1000
0100
1000
0000
0001
0000
,
0100
0010
0100
0000
,
0010
0000
0100
0001
0100
0000
0010
0000
,
1000
0001
0100
0001
,
0100
0000
0001
0100
0001
0000
1000
0100
,
1000
0000
0100
0000
0010
0000
0001
0010
,
0001
0000
0100
0000
0000
0000
0001
0010
,
0001
1000
0000
0000
,
0001
0000
1000
0100
1000
0000
0001
0100
,
0001
0000
0010
0000
0100
0000
1000
0010
,
1000
0000
0100
0000
0000
0000
1000
0100
,
1000
0001
0100
0000
,
0010
1000
0001
0000
,
1000
0000
0000
0000
0100
0000
0000
0000
0010
0000
0000
0000
,
0200
0000
0000
0000
,
0000
0000
0300
0000
,
1000
0001
0100
0010
1000
0010
0100
0000
,
0001
0010
1000
0000
0010
0000
0001
1000
,
0010
0100
0001
0000
0101
0000
1000
0001
,
0010
0100
0010
0000
0001
0000
1100
0000
,
0001
1000
0100
0010
0001
0010
0100
0000
,
1000
0010
0001
0010
1000
0000
0001
0010
,
0100
1000
0001
1000
0001
0000
1000
0010
,
0100
0010
1000
0001
1000
0000
0101
0000
,
0010
0100
1000
0010
0100
0001
0100
0000
,
0010
1000
0001
0000
0010
0000
0100
1000
,
0010
1000
0100
0000
0010
0000
0001
0100
,
0010
1000
0100
0000
0010
0000
1100
0000
,
0010
0100
0001
0010
0100
1000
0100
0000
,
0010
0001
1000
0000
1100
0000
0001
0010
,
0001
0100
0010
0000
1000
0100
0010
0000
,
0001
0100
0010
0100
0001
1000
0100
0010
,
0100
1000
0001
0000
0100
0000
0010
0100
,
0001
0010
0100
0000
1000
0000
0000
0000
,
0020
0000
0000
0000
,
0000
0000
0000
0000
,
1030
0000
0001
1000
0100
0000
0010
0000
,
0001
0000
0000
1000
0000
0000
0100
1000
0001
0010
0000
0000
,
0100
0000
1000
0001
0100
0000
0010
0000
,
1000
0001
0010
0000
,
0100
0000
0010
0001
0100
0000
0010
0000
,
1000
0000
0100
0000
0010
0001
0100
0000
,
0010
0000
1000
0001
0100
0000
0010
1000
,
0100
0010
0100
0000
,
0010
0000
0001
0000
1000
0000
0001
0100
,
0001
0000
1000
0000
0100
0000
0000
1000
,
0100
0000
0000
0000
0010
0000
0000
0001
,
0100
0000
0010
0000
0100
0001
0010
0100
,
1000
0000
0010
0000
0100
0000
0001
0010
,
0100
0000
1000
0000
0100
0000
0000
0010
,
0001
0100
0001
0000
0010
0000
0100
1000
,
0100
0000
1000
0000
0001
0000
0010
0100
,
0010
0001
1000
0010
,
0100
0010
1000
0000
,
0100
0000
0000
0010
0001
0000
0000
0100
,
0010
1000
0100
0010
,
0001
0100
0010
0100
,
0001
0100
0001
0000
1000
0000
0000
0010
,
0000
0100
0001
1000
,
0010
0000
0100
0000
0001
0000
1000
0100
,
1000
0001
0010
0100
,
1000
0001
0010
0000
,
0100
0000
0000
0100
1000
0000
0000
0001
,
0100
0000
0010
0000
1000
0000
0100
1000
,
0100
1000
0001
0100
,
0010
0000
1000
0000
0100
0000
0000
0010
,
0000
0100
1000
0001
,
0010
0100
1000
0001
,
0100
0010
1000
0010
,
0100
0001
1000
0001
,
0010
0100
1000
0100
,
0010
0001
1000
0010
,
0100
0001
0100
0010
,
1000
0100
0010
0000
,
1001
0000
0000
0000
;

//---------------dance-double - ----------------
#NOTES:
     dance-double:
     :
     Easy:
     5:
     0.380,0.639,0.180,0.038,0.000:
00000000
00000000
00000000
00000000
,
00000000
00000000
00000000
00000000
,
00000000
00000000
00000000
00000000
,
00000001
00000000
00000100
00000010
,
00010000
00000000
00000100
00010000
,
00002000
00000000
00000000
00000000
,
00000000
00000000
00000000
00000000
,
00103000
00000000
00010000
00000000
,
01000000
00000000
00100000
00000000
,
01000000
00001000
00010000
00000000
,
00000100
00000000
00000010
00000000
,
00000100
00001000
00000100
00000000
,
00010000
00000000
00001000
00000000
,
01000000
00010000
01000000
00000000
,
00001000
00000000
00010000
00000000
,
00000100
00010000
00001000
00000000
,
00100000
00000000
01000000
00000000
,
00110000
00000000
11000000
00000000
,
00100000
00000000
01000000
00000000
,
01001000
00000000
00011000
00000000
,
00000010
00000000
00000100
00000000
,
00001010
00000000
00000101
00000000
,
00000010
00000000
00000100
00000000
,
00000100
00010000
00001000
00000000
,
00100000
00001000
00010000
00000000
,
00000010
00001000
00000100
00000000
,
00000010
00000001
00000100
00000010
,
00010000
00001000
01000000
00000000
,
00100000
10000000
00100000
00000000
,
10000000
01000000
00100000
00000000
,
00010000
00100000
00001000
00000000
,
00010000
00000010
00001000
00000000
,
00000001
00000010
00000001
00000000
,
00000100
00000001
00000100
00000000
,
00000010
00010000
00001000
00000000
,
00100000
00001000
00010000
00000000
,
00000100
00010000
00001000
00000000
,
01000000
00010000
10000000
00000000
,
00100000
00000000
01000000
00000000
,
00001000
00100000
00001000
00000000
,
00010000
00000010
00010000
00000000
,
00000100
00000010
00000001
00000000
,
00001001
00000000
00011000
00000000
,
10010000
00000000
00000000
00000000
,
00002000
00000000
00000000
00000000
,
00000000
00000000
00003000
00000000
,
00010000
00000100
00001000
00000001
,
00000100
00000010
00010000
00000100
,
00000001
00000100
00001000
00000010
,
00010000
00001000
01000000
00000000
,
00001000
01000000
00010000
10000000
,
01000000
00100000
00001000
01000000
,
10000000
01000000
00010000
00100000
,
00001000
00010000
00000100
00000000
,
00001000
00000100
00010000
00000100
,
00001000
00000010
00000100
00000001
,
00001000
00000100
00000100
00010000
,
00001000
01000000
01000000
00000000
,
00010000
01000000
00001000
01000000
,
00010000
00100000
01000000
10000000
,
00010000
01000000
00001000
00010000
,
00000100
00001000
00000001
00000100
,
00000010
00010000
00001000
00100000
,
00001000
00010000
00001000
00000000
,
00022000
00000000
00000000
00000000
,
00033000
00000000
00000000
00000000
,
00101000
00010000
00010010
00001000
,
00101000
00010000
00010010
00001000
,
01000000
00000000
00100000
00000000
,
10000000
00000000
01000000
00000000
,
00100000
00000000
00001000
00000000
,
00010000
00000000
00000100
00000000
,
00000010
00000000
00000001
00000000
,
00000100
00000000
00000010
00000000
,
00010000
00000000
00001000
00000000
,
01000000
00000000
00100000
00000000
,
10000000
00000000
01000000
00000000
,
00010000
00000000
00001000
00000000
,
00000100
00000000
00000001
00000000
,
00000010
00000000
00000100
00000000
,
00010000
00000000
00001000
00000000
,
00100000
00000000
01000000
00000000
,
10000000
00000000
00100000
00000000
,
00010000
00001000
00000010
00000000
,
00000001
00000000
00000100
00000000
,
00000010
00010000
00001000
00000000
,
00010000
00000000
00000100
00000000
,
00010000
00001000
01000000
00000000
,
00100000
00000000
10000000
00000000
,
01000000
00000000
00100000
00000000
,
00001000
00000000
00010000
00000000
,
00001000
00010000
00000100
00000000
,
00000010
00000000
00000001
00000000
,
00000100
00000000
00000010
00000000
,
00010000
00000000
00000100
00000000
,
00010000
00000000
00001000
00000000
,
01000000
00000000
00010000
00000000
,
00100000
00000000
01000000
00000000
,
10000000
00000000
00010000
00000000
,
01000000
00000000
00001000
00000000
,
00010000
00000000
00000100
00000000
,
00010000
00000000
00001000
00000000
,
00101000
00000000
00011000
00000000
,
00010010
00000000
00011000
00000000
,
00011000
00000000
00000000
00000000
;

//---------------dance-double - ----------------
#NOTES:
     dance-double:
     :
     Medium:
     6:
     0.434,0.492,0.095,0.028,0.009:
00000000
00000000
00000000
00000000
,
00000000
00000000
00000000
00000000
,
00000000
00000000
00000000
00000000
,
00010000
00000000
00000000
00001000
00000000
00000000
01000000
00010000
00000000
00100000
00000000
00000000
,
01000000
10000000
00000000
00100000
00000000
00000000
01000000
00000000
00000000
00001000
00000000
00000000
,
00020000
00000000
00000000
00000000
,
00000000
00000000
00000000
00000000
,
00031000
00000000
00010000
00000000
,
00000100
00000010
00000001
00000100
,
00000010
00010000
00000100
00000000
,
00010000
00000000
00001000
00000000
,
00100000
00010000
01000000
00100000
,
10000000
01000000
00100000
00001000
,
00010000
00001000
01000000
00000000
,
00010000
00100000
00001000
00010000
,
00000010
00010000
00001000
01000000
,
00100000
10000000
01000000
00100000
,
00001000
01000000
00001000
00000000
,
00010000
00000000
00000010
00000000
,
00001000
00000100
00000010
00000001
,
00000100
00000010
00010000
00001000
,
00010000
00000100
00001000
00000000
,
00000010
00010000
00001000
00010000
,
00000100
00000010
00000001
00000000
,
00000100
00000010
00010000
00001000
,
00100000
01000000
10000000
00000000
,
01000000
00100000
00001000
00010000
,
00000010
00000100
00000001
00000000
,
00000010
00000000
00000110
00000000
,
00010000
00000100
00001000
00000100
,
00010000
00000000
00001000
00000000
,
00100000
01000000
10000000
00000000
,
00100000
00000000
01100000
00000000
,
00001000
01000000
00010000
01000000
,
00001000
00010000
00000100
00000010
,
00000001
00000100
00000010
00000000
,
00010000
00001000
00000000
00000000
,
00100000
00010000
00000000
00000000
,
10010000
00000000
01000000
00000000
,
10010000
01000000
00000000
00000000
,
00001000
00010000
00000000
00000000
,
00000010
00001000
00000100
00000000
,
00001001
00000000
00000100
00000000
,
00001001
00000000
00000000
00000000
,
00000200
00000000
00000000
00000000
,
00000000
00000000
00000300
00000000
,
00010000
00001000
00000100
00001000
,
00100000
00010000
10000000
01000000
,
00010000
00001000
00010000
01000000
,
10000000
00100000
01000000
00000000
,
00001000
00010000
00000100
00000100
,
00001000
00000010
00000001
00000010
,
00010000
00001000
00010000
00000100
,
00000010
00000001
00000100
00000000
,
00001000
00010000
01000000
00010000
,
00000010
00001000
00000001
00000100
,
00001000
00010000
00001000
00000100
,
00000001
00000010
00000100
00000000
,
00010000
00001000
01000000
01000000
,
00010000
00100000
10000000
00100000
,
00001000
00010000
00000010
00001000
,
00000001
00000100
00000010
00010000
,
00001000
00100000
01000000
10000000
,
01000000
00100000
00001000
00000000
,
00020000
00000000
00000000
00000000
,
00000000
00000000
00000000
00000000
,
00031000
00100000
01000000
10000000
,
00100000
01000000
00001000
00010000
,
00000100
00010000
00001000
00100000
,
00101000
00010000
01010000
00000000
,
00001000
00010000
00000010
00000100
,
00000001
00000010
00000100
00010000
,
00001000
01000000
00001000
00010000
,
00000010
00001000
00001010
00000000
,
00000100
00000010
00000001
00000100
,
00000010
00001000
00000100
00000000
,
00010000
00000000
00000100
00000000
,
00010000
00001000
01000000
00100000
,
10000000
01000000
00100000
00010000
,
01000000
00001000
00010000
00000000
,
00000100
00000000
00000010
00000000
,
00000001
00000100
00000010
00010000
,
00000010
00000100
00000010
00000000
,
00001000
00000100
00010000
00000000
,
01000000
00000000
10000000
00000000
,
00100000
10000000
01000000
00000000
,
01000000
00100000
00001000
00000000
,
00100000
00001000
00010000
00000000
,
00001000
00000000
01000000
00000000
,
00100000
01000000
00010000
00000000
,
00100000
00001000
00100000
00000000
,
00001000
00010000
00001000
00000000
,
01000000
00000000
00001000
00000000
,
00010000
00000010
00001000
00000000
,
00000010
00000100
00000010
00000000
,
00010000
00000100
00001000
00000000
,
00000010
00000000
00000100
00000000
,
00000010
00001000
00000001
00000000
,
00000100
00000000
00000010
00000000
,
00010000
00001000
00100000
00000000
,
00010000
00000000
10000000
00000000
,
01000000
00100000
00001000
00000000
,
00010000
00000000
00000010
00000000
,
00000100
00000001
00001000
00000000
,
00001001
00000000
00000000
00000000
;

//---------------dance-double - ----------------
#NOTES:
     dance-double:
     :
     Hard:
     9:
     0.616,0.738,0.104,0.028,0.057:
00000000
00000000
00000000
00000000
,
00000000
00000000
00000000
00000000
,
00000000
00000000
00000000
00000000
,
00010000
00000000
00000000
10000000
00000000
00000000
00010000
10000000
00000000
01000000
00100000
00000000
,
00001000
00100000
00000000
00010000
01000000
00001000
00100000
00000000
00001000
00010000
00100000
00020000
,
00000000
00000000
00000000
00000000
,
00000000
00000000
00000000
00000000
,
00031000
00000000
00000010
00000000
,
00000001
00000000
00000100
00000000
00010000
00000000
00000100
00001000
,
00000100
00000010
00010000
00000000
,
00011000
00000000
00000000
00001000
00100000
00000000
00000000
00010000
,
00100000
01000000
10000000
01000000
,
00010000
00001000
00000100
00000010
,
00001000
00000100
00001000
00000000
00000100
00000000
00000000
00000001
,
00000000
00000100
00010000
00001000
,
00100000
00000000
01000000
00000000
10000000
00000000
00010000
01000000
,
00010000
00000000
01000000
00000000
00001000
00000000
00100000
00010000
,
00100000
00001000
00010000
00000000
,
00011000
00000000
00000000
00010000
00000010
00000000
00000000
00001000
,
00000010
00000100
00000001
00000100
,
00001000
00010000
01000000
00100000
,
00010000
01000000
00010000
00000000
01000000
00000000
00000000
10000000
,
00000000
01000000
00001000
00010000
,
00000010
00000100
00000001
00000000
,
00000010
00001000
00000010
00000001
,
00000100
00000010
00010000
00001000
,
01000000
00100000
00010000
00100000
,
10000000
01000000
00100000
00000000
,
00001000
00000000
00100000
01000000
00100000
00000000
00010000
00000000
,
01000000
00001000
00010000
00000100
,
00010000
00000000
00000010
00000100
00000010
00000000
00001000
00000000
,
00000100
00000010
00000001
00000000
,
00000100
00000000
00000010
00001000
00000010
00000000
00010000
00000000
,
00000100
00010000
00001000
00100000
,
01000000
00000000
00100000
00010000
00100000
00000000
00001000
00010000
,
00001000
00000000
01000000
00000000
00010000
00000000
00100000
01000000
,
00100000
00000000
00010000
00000000
00000000
00000000
01000000
00001000
,
00010000
00000100
00001000
00000000
,
00000010
00000000
00000100
00000010
00000100
00000000
00000001
00000100
,
00000001
00000000
00000010
00000000
00000100
00000000
00010000
00001000
,
00010000
00000000
00001000
00000000
00000000
00000000
00100000
00010000
,
00100000
00001000
01000000
00000000
,
00100000
10000000
01000000
00000000
,
00010000
00000000
00000000
00000000
00001000
00000000
00000000
00000000
00000100
00000000
00000000
00000000
,
00000002
00000000
00000000
00000000
,
00000000
00000000
00000003
00000000
,
00001000
00000010
00010000
00000100
00000001
00000100
00001000
00000000
,
00000010
00010000
00001000
00000000
01001000
00000000
00010000
00100000
,
00010000
01000000
00100000
00000000
10010000
00000000
01000000
00100000
,
00001000
00010000
00000010
00000000
00001001
00000000
00001100
00000000
,
00000010
00000001
00000100
00001000
00010000
01000000
10000000
00000000
,
01000000
00010000
00001000
00000100
00000001
00000000
00000010
00001000
,
00010000
00001000
00000010
00001000
00010000
00000000
00001000
00010000
,
00100000
00010000
00001000
00010000
00100000
00000000
01000000
00000000
,
00010000
00100000
00001000
01000000
10000000
01000000
00010000
00000000
,
00100000
00001000
00010000
00000000
00010100
00000000
00001000
00000010
,
00001000
00000100
00000010
00000000
00001001
00000000
00000100
00000010
,
00010000
00001000
00100000
00000000
10010000
00000000
01010000
00000000
,
00100000
10000000
01000000
00010000
00001000
00000100
00000001
00000000
,
00000100
00001000
00010000
00000000
01000000
00000000
10000000
00100000
,
00010000
00001000
00000010
00000000
00001000
00000010
00000001
00000000
,
00000010
00000001
00000100
00000010
00010000
00001000
00100000
00010000
,
00100000
01000000
10000000
00000000
00100000
00000000
01000000
00001000
,
00010000
00000100
00001000
00000000
00000100
00000000
00000000
00000000
,
00020000
00000000
00000000
00000000
,
00000000
00000000
00000000
00000000
,
00031000
00000000
00100000
01000000
10000000
00000000
01000000
00000000
,
00100000
00000000
00000000
00001000
00000000
00000000
00010000
00001000
00010000
00001000
00000000
00000000
,
00000100
00000000
00000001
00000010
00000100
00000000
00001000
00000000
,
00000010
00000001
00000010
00000000
,
00010000
00000000
00000010
00000100
00000001
00000000
00000100
00000000
,
00000010
00000000
00010000
00000000
00001000
00010000
00001000
00000000
,
00100000
00000000
01000000
10000000
00010000
00000000
01000000
00010000
,
00100000
10000000
00100000
00000000
,
00001000
00000000
00010000
00000000
00000100
00000000
00001000
00000100
,
00000010
00000000
00000001
00000000
00000100
00000000
00000000
00000010
,
00001000
00000000
00000000
00000000
00000100
00000000
00000000
00010000
,
00001000
00000000
00100000
00000000
01000000
10000000
00010000
00100000
,
01000000
00000000
10000000
00000000
00100000
00000000
01000000
00001000
,
00010000
00000000
00000010
00000000
00000100
00000000
00000000
00000001
,
00000100
00000010
00001000
00000000
00000010
00000000
00000100
00000001
,
00001000
00000000
00000100
00000000
00010000
00000000
00001000
00010000
,
00001000
01000000
00010000
00100000
,
01000000
10000000
00100000
00000000
,
01000000
00000000
00000000
00001000
00010000
00000000
00000000
00000100
,
00001000
00000010
00000100
00000001
,
00000010
00000100
00010000
00001000
,
00010000
00001000
00010000
00000000
00000100
00000000
00000000
00000010
,
00000000
00000001
00000100
00000010
,
00001000
00000000
00000100
00000000
00010000
00000000
00001000
00010000
,
00001000
00010000
00000100
00000010
,
00000001
00001000
00000010
00000000
,
00010000
00000000
00000000
00001000
00100000
00000000
00000000
00010000
,
00100000
00000000
01000000
00000000
10000000
00000000
00100000
01000000
,
00100000
01000000
00001000
00100000
,
00001000
00000000
01000000
00000000
00010000
00000000
00000000
00100000
,
00000000
01000000
10000000
00100000
,
01000000
00010000
00100000
00001000
,
00010000
00000100
00000010
00001000
,
00000010
00000001
00000100
00001000
,
00010000
01000000
10000000
00100000
,
00010000
00100000
10000000
01000000
,
00010000
00001000
00000100
00000001
,
00000010
00001000
00000010
00000000
,
00001001
00000000
00000000
00000000
;

//---------------dance-double - ----------------
#NOTES:
     dance-double:
     :
     Challenge:
     11:
     0.731,0.836,0.208,0.038,0.222:
00000000
00000000
00000000
00000000
,
0000000M
00000000
00000000
00000000
00000000
00000000
00000M00
00000000
00000000
000000M0
000M0000
00000000
0000M000
00000000
00000000
00M00000
0M000000
00000000
M0000000
00000000
0M000000
00000000
00M00000
00000000
,
0000M000
00000000
00000000
000M0000
0000M000
00000000
000M0000
00000000
00000000
000000M0
00000M00
00000000
0000000M
00000000
0000M000
00000M00
000M0000
00000000
0000M000
00000000
00M00000
000M0000
M0000000
00000000
,
00001000
00000000
00000000
00000000
00000000
00000000
00010000
00000000
00000000
00000010
00000100
00000000
00000001
00000000
00000010
00000000
00000000
00000100
00010000
00000000
00001000
00000000
00000000
01000000
,
00100000
00000000
10000000
00000000
01000000
00000000
00100000
00000000
00001000
00000000
00010000
00000000
00001000
00000000
00000000
01000000
00010000
00000000
00100000
00001000
00010000
00000000
00000100
00000000
,
00002000
00000000
00000000
00000000
,
00000000
00000000
00000000
00000000
,
00003100
00000000
00001000
00000000
,
00000001
00000000
00000100
00000000
00000010
00000000
00010000
00001000
,
00000010
00001000
00100000
00000000
,
00010000
00000000
00000000
10000000
01000000
00000000
00000000
00100000
,
00001000
00000000
00010000
00000000
01000000
00000000
10000000
01000000
,
00010000
01000000
00100000
00001000
,
00010000
00100000
00010000
00000000
00000010
00000000
00001000
00000100
,
00000000
00000010
00000001
00000000
00000100
00000000
00001000
00000000
,
00010000
00100000
01000000
00000000
00010000
00000000
10000000
01000000
,
00100000
00000000
00001000
00000000
00010000
00000000
00001000
01000000
,
00100000
10000000
01000000
00000000
,
00100000
00000000
00000000
00001000
00010000
00000000
00000000
00000100
,
00001000
00000000
00000010
00000000
00000100
00000000
00000001
00000100
,
00000010
00010000
00001000
00010000
,
00000100
00000010
00000001
00000000
00000100
00000000
00000010
00010000
,
00000000
00001000
00100000
00000000
00010000
00000000
10000000
01000000
,
00100000
00010000
01000000
00000000
00001000
00000000
00000000
00000000
,
00010000
00000000
00000010
00000000
00001000
00000100
00000010
00000001
,
00000100
00000110
00010010
00011000
,
00101000
00000000
01100000
00000000
00100000
00001000
01000000
00010000
,
10000000
01000000
11000000
01100000
,
00101000
00000000
00010000
00000100
00010000
00000000
00000010
00000000
,
00000100
00000000
00000010
00000000
00010000
00001000
00100000
00000000
,
00010000
00000000
00100000
00001000
00010000
00000000
00000010
00000000
,
00000100
00000001
00001100
00000000
,
00010010
00000000
00001000
01000000
00001000
00000000
00100000
00000000
,
01000000
00000000
00100000
00000000
00001000
00010000
00000010
00000000
,
00001000
00000000
00000010
00010000
00001000
00000000
00100000
01000000
,
10000000
00000000
00100000
00000000
01010000
00000000
00000000
00001000
,
00010000
00000000
00000010
00000000
00000100
00000001
00000010
00000100
,
00010000
00000000
00001000
00000000
00010000
00000100
00000010
00000001
,
00000100
00000010
00010000
00001000
01000000
00100000
10000000
01000000
,
00100000
00000000
00001000
00000000
00010000
00001000
00010000
00001000
,
00010000
00000000
00000010
00000000
00001000
00000100
00010000
00001000
,
01000000
00001000
00010000
00000010
00001000
00000100
00010000
00001000
,
00100000
00110000
00101000
00000000
,
00011000
00000000
00000000
00000000
00010100
00000000
00000000
00000000
01001000
00000000
00000000
00000000
,
00022000
00000000
00000000
00000000
,
00000000
00000000
00033000
00000000
,
00000100
00001000
00000010
00000100
00000001
00000010
00000100
00000000
,
00010000
00000000
00000010
00000000
00000100
00000000
00000000
00000000
00000001
00000000
00000010
00000100
00000010
00000000
00000100
00000000
,
00010000
00001000
01000000
00000000
00100000
00000000
01000000
00001000
,
00010000
00000000
00001000
00000000
00100000
00000000
00000000
00000000
01000000
00000000
00100000
00010000
00100000
00000000
00000000
00000000
,
01000000
10000000
00100000
01000000
00010000
00100000
01000000
00000000
,
00100000
00000000
00001000
00000000
00010000
00000000
00001000
00000000
01000000
00000000
00100000
01000000
00100000
00000000
01000000
00000000
,
00001000
00010000
00000100
00000010
00000100
00000000
00010000
00001000
,
01000000
00000000
00100000
00000000
01000000
00000000
00010000
00000000
00100000
00000000
00000000
00000000
00001000
00010000
00001000
00010000
,
00001000
00100000
00010000
01000000
00100000
10000000
01000000
00000000
,
00100000
00000000
00001000
00000000
00010000
00000000
00000000
00000000
00000100
00000000
00000010
00000001
00000010
00000000
00000100
00000000
,
00010000
00001000
01000000
00000000
00100000
00000000
01000000
00001000
,
00010000
00000000
00000100
00000000
00000010
00000000
00000000
00000000
00000100
00000000
00000000
00000000
00010000
00001000
00010000
00000000
,
00000010
00000100
00000001
00000010
00000100
00010000
00001000
00000000
,
01000000
00000000
00100000
00000000
10000000
00000000
00000000
00000000
00010000
00000000
01000000
00010000
01000000
00000000
00100000
00000000
,
10000000
01000000
00100000
00000000
01000000
00100000
00010000
00000000
,
00100000
00000000
00001000
00000000
00010000
00000000
00000100
00000000
00000010
00000000
00000001
00000000
00001000
00000100
00001000
00000100
,
00010000
00001000
01000000
00000000
00100000
00000000
10000000
01000000
,
00100000
00010000
01000000
00000000
00001000
00000000
00000000
00000000
,
00020000
00000000
00000000
00000000
,
00000000
00000000
00000000
00000000
,
00031000
00000000
00100000
01000000
00010000
00000000
01000000
00000000
,
10000000
00000000
00000000
00100000
00000000
00000000
01000000
00001000
00010000
00000010
00000000
00000000
,
00000100
00000000
00001000
00000100
00000010
00000000
00001000
00000000
,
00001001
00000100
00010100
00000000
,
00010000
00000000
00000010
00000100
00001000
00000000
00000100
00000000
,
00000001
00000000
00000000
00000010
00000000
00000000
00000100
00010000
00001000
00100000
00000000
00000000
,
01000000
00000000
00010000
01000000
00100000
00000000
00001000
00010000
,
00001000
01000000
00010000
00000000
,
00100000
00000000
00000000
01000000
00000000
00000000
10000000
00000000
00000000
01000000
00100000
00001000
,
00010000
00000000
00000100
00000000
00001000
00000000
00000000
00000010
,
00000100
00000000
00000001
00000000
00000100
00000000
00000010
00001000
,
00000100
00000000
00010000
00000000
00000100
00000010
00000001
00001000
,
00000100
00000000
00000000
00010000
00000000
00000000
00000010
00000000
00000000
00000100
00000001
00000100
,
00000010
00000000
00010000
00000000
00001000
00000000
00000000
00010000
,
00001000
00000000
00000000
00100000
00000000
00000000
00010000
00000000
00000000
00000000
00000000
00000000
01000000
00000000
00000000
00000000
00000000
00000000
00100000
00000000
10000000
00000000
01000000
00000000
,
10000000
00000000
00100000
00000000
01000000
00000000
00010000
00100000
,
00001000
00000000
00010000
00000000
00001000
00000000
00100000
00010000
,
01000000
00100000
01000000
00000000
,
00001000
00000000
00000000
00010000
00000100
00000000
00000000
00000010
,
00000001
00000000
00000100
00000000
00000010
00000000
00010000
00000010
,
00000100
00000001
00000100
00000010
,
00001000
00000000
00000000
00000100
00000000
00000000
00010000
00000000
00000000
00000000
00000000
00000000
00011000
00000000
00000000
00000000
00000000
00000000
00000000
00000000
00001000
00000000
00000000
00000000
,
00000000
00100000
01000000
10000000
,
00100000
01000000
00010000
00000000
00100000
00000000
00001000
01000000
,
00010000
00000000
00100000
00000000
00010000
00000000
01000000
00100000
,
10000000
01000000
00100000
00000000
,
01000000
00000000
00000000
10000000
01000000
00000000
00000000
00100000
,
00001000
00000000
00010000
00000000
00000100
00000000
00001000
00000010
,
00000100
00000001
00000010
00000100
,
00010000
00000000
00000000
00001000
00000000
00000000
00100000
00000000
00000000
00000000
00000000
00000000
00011000
00000000
00000000
00000000
00000000
00000000
00000000
00000000
00010000
00000000
00000000
00000000
,
00000000
00000010
00001000
00000100
,
00010000
00001000
00100000
00000000
00010000
00000000
10000000
00010000
,
10000000
00100000
01000000
00001000
,
00010000
00001000
00010000
00000000
00000010
00000000
00001000
00000001
,
00001000
00000100
00010000
00001000
,
00100000
01000000
10000000
00000000
00100000
00000000
01000000
00001000
,
00010000
00000010
00000100
00000001
,
00000010
00000100
00010000
00000000
00001000
00000000
00000000
00000000
,
00011000
00000000
00000000
00000000
;
