#TITLE:猫鍋;
#ARTIST:再生ハイパーべるーヴ;
#TITLETRANSLIT:Nekonabe;
#ARTISTTRANSLIT:saisei hyperberoove;
#BANNER:banner.png;
#BACKGROUND:background.png;
#LYRICSPATH:lyrics.lrc;
#CDTITLE:cdtitle.png;
#MUSIC:music.ogg;
#OFFSET:-0.060;
#SAMPLESTART:27.420;
#SAMPLELENGTH:12.000;
#BPMS:0.000=140.000;
#BGCHANGES: 0.000=background.png=1.000=1=0=0,
16.000=in.avi=1.000=0=0=1,
24.000=in2.avi=1.000=0=0=1,
30.000=movie2.avi=1.000=0=0=1,
31.000=ask.avi=1.000=0=0=1,
32.000=in3.avi=1.000=0=0=1,
62.500=ask.avi=1.000=0=0=1,
64.000=comp.avi=1.000=0=0=1,
72.000=movie.avi=1.000=0=0=1,
74.000=movie2.avi=1.000=0=0=1,
76.000=movie3.avi=1.000=0=0=1,
78.000=movie4.avi=1.000=0=0=1,
80.000=comp.avi=1.000=0=0=1,
88.000=movie5.avi=1.000=0=0=1,
90.000=movie6.avi=1.000=0=0=1,
92.000=movie7.avi=1.000=0=0=1,
94.000=movie9.avi=1.000=0=0=1,
96.000=comp2.avi=1.000=0=0=1,
97.500=comp.avi=1.000=0=0=1,
104.000=movie8.avi=1.000=0=0=1,
112.000=multiplycat.png=1.000=0=0=1,
113.000=multiplycat2.png=1.000=0=0=1,
113.500=multiplycat3.png=1.000=0=0=1,
114.000=multiplycat4.png=1.000=0=0=1,
114.500=multiplycat5.png=1.000=0=0=1,
115.000=multiplycat6.png=1.000=0=0=1,
116.000=multiplycat7.png=1.000=0=0=1,
116.500=multiplycat8.png=1.000=0=0=1,
117.000=multiplycat9.png=1.000=0=0=1,
117.500=multiplycat10.png=1.000=0=0=1,
118.500=noiz.png=1.000=0=0=1,
118.625=noiz2.png=1.000=0=0=1,
118.750=noiz3.png=1.000=0=0=1,
118.875=noiz4.png=1.000=0=0=1,
119.000=noiz5.png=1.000=0=0=1,
119.125=noiz6.png=1.000=0=0=1,
119.250=noiz7.png=1.000=0=0=1,
119.375=noiz8.png=1.000=0=0=1,
119.500=black.png=1.000=0=0=1,
120.000=comp3.avi=1.000=1=0=1,
128.000=walkbywalk.avi=1.000=0=0=1,
132.000=logo.avi=1.000=0=0=1,
136.000=walkbywalk2.avi=1.000=0=0=1,
140.000=logo.avi=1.000=0=0=1,
144.000=walkbywalk3.avi=1.000=0=0=1,
160.000=movie.avi=1.000=0=0=1,
161.000=motion2.avi=1.000=0=0=1,
162.000=in.avi=1.000=0=0=1,
163.000=motion2.avi=1.000=0=0=1,
164.000=comp.avi=1.000=0=0=1,
165.000=movie3.avi=1.000=0=0=1,
166.000=movie6.avi=1.000=0=0=1,
167.000=movie8.avi=1.000=0=0=1,
168.000=multiplycat.png=1.000=0=0=1,
169.000=multiplycat2.png=1.000=0=0=1,
169.500=multiplycat3.png=1.000=0=0=1,
170.000=multiplycat4.png=1.000=0=0=1,
171.000=multiplycat10.png=1.000=0=0=1,
171.500=multiplycat9.png=1.000=0=0=1,
172.000=multiplycat8.png=1.000=0=0=1,
173.000=multiplycat5.png=1.000=0=0=1,
173.500=multiplycat6.png=1.000=0=0=1,
174.000=multiplycat7.png=1.000=0=0=1,
174.250=multiplycat8.png=1.000=0=0=1,
174.500=multiplycat9.png=1.000=0=0=1,
174.750=multiplycat10.png=1.000=0=0=1,
175.000=noiz.png=1.000=0=0=1,
175.063=noiz2.png=1.000=0=0=1,
175.125=noiz3.png=1.000=0=0=1,
175.188=noiz4.png=1.000=0=0=1,
175.250=noiz5.png=1.000=0=0=1,
175.313=noiz6.png=1.000=0=0=1,
175.375=noiz7.png=1.000=0=0=1,
175.438=noiz8.png=1.000=0=0=1,
175.500=black.png=1.000=0=0=1,
176.000=waggie.avi=1.000=0=0=1,
180.000=softlanding.avi=1.000=0=0=1,
185.500=red.avi=2.000=0=0=1,
186.500=motion.avi=1.000=0=0=1,
192.000=waggie2.avi=1.000=0=0=1,
196.000=softlanding2.avi=1.000=0=0=1,
201.500=red2.avi=2.000=0=0=1,
203.000=motion2.avi=1.000=0=0=1,
208.000=in.avi=1.000=0=1=1,
209.000=waggie.avi=1.000=0=0=1,
212.000=softlanding3.avi=1.000=0=0=1,
217.500=ossan.avi=2.000=0=0=1,
222.000=comp2.avi=1.000=0=1=1,
223.000=in2.avi=1.000=0=0=1,
224.000=waggie2.avi=1.000=0=0=1,
228.000=softlanding.avi=1.000=0=0=1,
233.500=in2.avi=1.000=0=0=1,
235.000=walkbywalk.avi=1.000=0=0=1,
240.000=in3.avi=1.000=0=0=1,
244.000=in4.avi=1.000=0=0=1,
252.000=motion.avi=1.000=0=0=1,
253.000=logo.avi=1.000=0=0=1,
254.000=movie5.avi=1.000=0=0=1,
255.000=movie8.avi=1.000=0=0=1,
256.000=comp.avi=1.000=0=0=1,
260.000=softlanding4.avi=1.000=0=0=1,
264.000=movie8.avi=1.000=0=0=1,
268.000=movie9.avi=1.000=0=1=1,
269.000=in.avi=1.000=0=1=1,
272.000=background.png=1.000=1=0=1;
#NOTES:dance-single::Beginner:1::
0000
0000
0000
0000
,
0000
0000
0000
0000
,
0000
0000
0000
0000
,
0000
0000
0000
0000
,
0000
0000
0000
0000
,
0000
0000
0000
0000
,
0010
0000
0000
0000
,
0100
0000
0000
0000
,
0001
0000
0000
0000
,
0010
0000
0000
0000
,
0100
0000
0000
0000
,
1000
0000
0000
0000
,
1000
0000
0000
0000
,
0100
0000
0000
0000
,
0010
0000
0000
0000
,
0001
0000
0000
0000
,
0001
0000
0000
0000
,
0001
0000
0000
0000
,
1000
0000
1000
0000
,
1000
0000
1000
0000
,
1000
0000
0000
0000
,
1000
0000
0000
0000
,
0001
0000
0001
0000
,
0001
0000
0001
0000
,
0001
0000
0000
0000
,
0001
0000
0000
0000
,
1000
0000
1000
0000
,
1000
0000
1000
0000
,
1000
0000
0001
0000
,
1000
0000
0000
0000
,
0001
0000
0001
0000
,
0001
0000
0001
0000
,
0001
0000
0000
0000
,
1001
0000
0000
0000
,
0010
0000
0000
0000
,
0110
0000
0000
0000
,
1000
0000
0000
0000
,
0000
0000
0000
0000
,
0001
0000
0000
0000
,
0000
0000
0000
0000
,
1000
0000
0000
0000
,
0000
0000
0000
0000
,
0001
0000
0000
0000
,
1000
0000
0000
0000
,
1000
0000
0000
0000
,
1000
0000
0000
0000
,
0001
0000
0001
0000
,
0001
0000
0001
0000
,
0001
0000
0000
0000
,
0001
0000
0000
0000
,
1000
0000
1000
0000
,
1000
0000
1000
0000
,
1000
0000
0000
0000
,
1000
0000
0000
0000
,
0001
0000
0001
0000
,
0001
0000
0001
0000
,
1000
0000
0000
0000
,
0001
0000
0000
0000
,
0100
0000
0010
0000
,
0100
0000
0010
0000
,
1000
0000
0000
0000
,
0001
0000
0000
0000
,
0010
0000
0100
0000
,
0010
0000
0100
0000
,
0010
0000
0001
0000
,
1000
0000
0000
0000
,
0010
0000
0100
0000
,
0010
0000
0000
0000
;
#NOTES:dance-single::Easy:2::
0000
0000
0000
0000
,
0000
0000
0000
0000
,
0000
0000
0000
0000
,
0000
0000
0000
0000
,
0010
0010
0100
0100
,
0001
0001
1000
1000
,
0010
0010
0100
0100
,
0001
0001
1000
1000
,
0001
0000
0010
0000
,
0100
0000
1000
0000
,
1000
0000
0100
0000
,
0010
0000
0001
1000
,
0001
0000
0010
0000
,
0100
0000
1000
0000
,
1000
0001
1000
0001
,
1000
0000
0001
0000
,
1000
0000
0010
0000
,
0100
0000
0001
0000
,
1000
0001
1000
0001
,
1000
0001
1000
0001
,
1000
0000
0001
0000
,
0010
0000
0100
0000
,
1000
0001
1000
0001
,
1000
0001
1000
0001
,
1000
0000
0100
0000
,
0010
0000
0100
0000
,
1000
0001
1000
0001
,
1000
0001
1000
0001
,
0100
0100
0100
0100
,
0010
0010
0010
0000
,
1000
0001
1000
0001
,
1000
0001
1000
0001
,
1000
0000
0001
0000
,
1001
0000
0000
0000
,
0010
0000
0100
0000
,
0110
0000
0000
0000
,
1000
0000
0000
0000
,
0001
0000
0000
0000
,
0100
0000
0000
0000
,
0010
0000
0000
0000
,
1000
0000
0000
0000
,
1000
0000
0000
0000
,
0001
0000
0001
0000
,
0001
0000
0000
0000
,
1000
0001
1000
0000
,
0010
0100
0000
0000
,
0001
1000
0001
1000
,
0001
1000
0001
1000
,
0001
1000
1000
0000
,
0100
0010
0000
0000
,
0001
1000
0001
1000
,
0001
1000
0001
1000
,
0001
0000
0100
0000
,
0010
0000
1000
0000
,
0001
1000
0001
1000
,
0001
1000
0001
1000
,
0001
0000
0001
0000
,
1000
0000
1000
0000
,
0010
0100
0010
0100
,
0010
0100
0010
0100
,
0010
0000
0100
0000
,
0001
0000
1000
0000
,
0010
0100
0010
0100
,
0010
0100
0010
0100
,
0010
0000
1000
0000
,
0001
0000
0100
0000
,
0010
0100
0010
0100
,
0010
0000
0000
0000
;
#NOTES:dance-single::Medium:6::
0000
0000
0000
0000
,
0000
0000
0000
0000
,
0000
0000
0000
0000
,
0000
0000
0000
0000
,
1000
0010
1000
0001
,
0001
0100
0001
1000
,
1000
0100
0001
0000
0100
0000
0010
0000
,
0100
0010
0110
1001
,
1100
0000
0001
0100
0010
0000
0100
0000
,
0001
1000
0010
0000
1000
0000
0100
0000
,
0011
0000
1000
0100
1000
0000
0010
0000
,
0100
0001
0100
0010
,
1100
0000
1000
0100
0010
0000
0001
0000
,
1000
0001
0100
0000
0001
0000
0010
0000
,
0010
0010
0010
0000
0001
0000
1000
0000
,
0001
0000
0100
0000
1001
0100
0000
0000
,
1000
0010
0100
0001
,
0010
0001
1000
0100
,
1001
0010
1001
0100
,
1001
0010
1001
0100
,
0010
0001
1000
0100
,
0010
0001
0000
0001
0001
0000
0001
0000
,
1001
0100
1001
0010
,
1001
0100
1001
0010
,
0001
0000
0010
0000
0100
0010
0100
0000
,
1000
0000
0100
0000
0010
0100
0010
0000
,
1001
0010
1001
0100
,
1001
0010
1001
0100
,
0010
0000
0010
0010
0010
0010
0010
0000
,
0010
0010
0010
0010
0000
1001
0000
0000
,
1000
0000
0001
1000
0001
1000
0001
0000
,
0100
0010
0100
0010
1000
0001
0100
0000
,
0010
1000
0001
0100
,
0010
1000
1001
1001
,
0010
0001
0100
1000
,
0010
0100
0110
0110
,
1000
1000
0001
0001
,
0100
0100
0010
0010
,
1000
0100
0010
0001
,
0100
0010
1000
0001
,
1000
0100
0001
0100
,
1000
0100
0001
0000
0010
0000
0100
0000
,
1001
1001
1001
1001
,
1001
1001
0110
1001
,
0010
1000
0100
0001
,
0100
0000
0010
0000
0001
1000
0001
0000
,
1000
0100
0010
0001
1000
0100
0010
0001
,
1000
0100
0010
0001
1000
0000
0001
0000
,
0010
0001
0001
1000
,
0010
0100
0001
1000
,
1000
0100
0010
0001
1000
0100
0010
0001
,
1000
0100
0010
0001
1000
0000
1001
0000
,
1001
0100
0010
0100
,
1000
0001
0010
0001
,
0001
0010
0100
1000
0001
0010
0100
1000
,
0001
0010
0100
1000
0001
0000
1000
0000
,
0010
0100
0100
0010
,
0010
0100
1000
0001
,
1000
0100
0010
0001
1000
0100
0010
0001
,
1000
0100
0010
0001
1000
0000
0001
0000
,
0100
0010
0100
0010
,
1000
0001
0100
0001
,
0001
0010
0100
1000
0001
0010
0100
1000
,
0001
0010
0100
1000
0001
0000
1000
0000
,
0010
1000
0001
0010
,
0001
0100
0001
1000
,
1000
0100
0010
0001
1000
0100
0010
0001
,
1000
0001
0100
0010
,
1001
0100
0000
0000
;
#NOTES:dance-single::Hard:9::
0000
0000
0000
0000
,
0000
0000
0000
0000
,
0000
0000
0000
0000
,
0000
0000
0000
0000
,
1000
0001
0010
0100
1000
0001
1000
0100
,
0010
0001
1000
0001
0010
0100
1000
0001
,
1000
0010
0100
0001
1000
0001
0100
0010
,
1000
0001
0010
0100
0001
0000
1100
0000
,
1001
0100
1000
0001
0100
0001
0010
0100
,
1000
0001
1000
0100
1000
0010
0100
0001
,
1000
0100
1000
0010
0100
0001
0010
0100
,
1000
0001
1000
0100
0001
0100
1100
0000
,
0011
0000
0001
0100
0010
1000
0100
1000
,
0001
0100
1000
0001
0010
1000
0001
0100
,
0010
0010
0110
0000
1000
0100
1000
0001
,
0100
0010
1000
0010
0100
1001
0000
0000
,
0010
1000
0100
0001
1000
0001
1000
0010
,
0100
0010
0100
1000
0010
0100
0001
0000
,
0011
1100
0011
1100
,
1010
0101
1010
0101
,
0010
1000
0100
0001
1000
0001
1000
0010
,
0100
0010
0100
1000
0100
0010
0001
0000
,
1100
0011
1100
0011
,
0101
1010
0101
1010
,
0001
0000
1000
0000
0001
0000
1000
0000
0010
0000
0100
0010
0100
0000
0010
0000
,
1000
0100
0001
0100
1000
0010
0100
0000
,
0011
1100
0011
1100
,
1010
0101
1010
0101
,
1001
0000
1001
1001
1001
1001
1001
0000
,
1001
1001
1001
1001
0000
0110
0000
0000
,
0001
1000
0001
1000
0010
0100
0010
0100
,
0001
0010
0100
1000
0001
0000
1001
0000
,
1100
0000
0010
0000
0100
0001
0100
0000
,
0010
0000
0110
0000
0110
0110
0110
0000
,
0001
1000
0001
1000
0010
0100
0010
0000
,
1000
0000
0001
0000
1001
1001
1001
0000
,
0100
0100
0010
0010
,
1000
1000
0001
0001
,
0100
0010
0100
0010
,
1000
0001
1000
0001
,
1001
1001
0110
0110
,
1000
0100
0001
0100
1000
0100
0001
0000
,
1001
0000
1001
1001
1001
0000
1001
1001
,
1001
0000
1001
1001
1001
0000
1001
0000
,
1000
0000
0000
1000
0100
0000
0000
0100
1000
0000
0000
1000
0010
0000
0000
0010
,
0100
0000
0000
0100
0001
0000
0000
0001
0100
0000
0000
0100
0001
0000
0000
0001
,
0010
0001
0010
0001
1000
0100
1000
0100
,
0010
0100
0010
0100
1000
0001
1000
0000
,
0010
0000
0000
0010
0100
0000
0000
0100
0010
0000
0000
0010
1000
0000
0000
1000
,
0100
0000
0000
0100
1000
0000
0000
1000
0001
0000
0000
0001
1000
0000
0000
1000
,
0010
0100
0001
0100
0010
1000
0100
1000
,
0001
0010
0100
1000
0001
0100
0010
0000
,
1001
0000
0000
0000
1000
0000
0000
1000
0001
0000
0000
0001
0100
0000
0000
0100
,
0010
0000
0000
0010
0100
0000
0000
0100
0001
0000
0000
0001
0010
0000
0000
0010
,
0001
1000
0001
1000
0010
0100
0010
0100
,
0001
0010
0100
1000
0001
1000
0100
0000
,
0010
0000
0010
0100
0010
1000
0010
0000
,
1001
0000
0110
0000
1001
0000
0100
1000
,
0010
0100
0001
0100
0010
1000
0100
1000
,
0001
0100
1000
0100
0001
0100
0010
0000
,
1000
0100
0010
0000
0001
0000
0010
0100
1000
0000
0001
0000
0100
0000
0000
0000
,
1001
0000
0110
0000
1001
0000
0100
0010
,
1000
0001
1000
0001
0100
0010
0100
0010
,
1000
0001
0010
0100
1000
0001
0100
0000
,
0010
0000
0010
0001
0010
0100
0010
0000
,
1001
0000
0110
0000
1001
0000
0001
1000
,
0100
0010
0001
0000
0100
0000
0001
0000
0010
0100
1000
0000
0001
0000
0100
0000
,
0010
0010
0010
0010
,
1001
0100
0000
0000
;
#NOTES:dance-single::Challenge:15::
0000
1010
0000
0000
0000
0000
0000
0000
0000
0000
0000
0000
0000
0000
0000
0000
0000
1010
0000
0000
0000
0000
0000
0000
0000
0000
0000
0000
0000
0000
0000
0000
0000
0101
0000
0000
0000
0000
0000
0000
0000
0000
0000
0000
0000
0000
0000
0000
0000
0101
0000
0000
0000
0000
0000
0000
0000
0000
0000
0000
0000
0000
0000
0000
,
0000
1010
0000
0000
0000
0000
0000
0000
0000
0000
0000
0000
0000
0000
0000
0000
0000
1010
0000
0000
0000
0000
0000
0000
0000
0000
0000
0000
0000
0000
0000
0000
0000
0101
0000
0000
0000
0000
0000
0000
0000
0000
0000
0000
0000
0000
0000
0000
0000
0101
0000
0000
0000
0000
0000
0000
0000
0000
0000
0000
0000
0000
0000
0000
,
0000
1010
0000
0000
0000
0000
0000
0000
0000
0100
0000
0000
0000
0000
0000
0000
0000
1010
0000
0000
0000
0000
0000
0000
0000
0000
0000
0000
0000
0000
0000
0000
0000
0101
0000
0000
0000
0000
0000
0000
0000
0010
0000
0000
0000
0000
0000
0000
0000
0101
0000
0000
0000
0000
0000
0000
0000
0000
0000
0000
0000
0000
0000
0000
,
0000
1010
0000
0000
0000
0000
0000
0000
0000
0100
0000
0000
0000
0000
0000
0000
0000
1010
0000
0000
0000
0000
0000
0000
0000
0000
0000
0000
0000
0000
0000
0000
0000
0101
0000
0000
0000
0000
0000
0000
0000
0010
0000
0000
0000
0000
0000
0000
0000
0101
0000
0000
0000
0000
0000
0000
0000
0000
0000
0000
0000
0000
0000
0000
,
2000
3000
0000
0000
0000
0000
0000
0000
0220
0330
0000
0000
0000
0000
0000
0000
0002
0003
0000
0000
0000
0000
0000
0000
0220
0330
0000
0000
0000
0000
0000
0000
2000
3000
0000
0000
0000
0000
0000
0000
0220
0330
0000
0000
0000
0000
0000
0000
0002
0003
0000
0000
0000
0000
0000
0000
0220
0330
0000
0000
0000
0000
0000
0000
,
2000
3000
0000
0000
0000
0000
0000
0000
0022
0033
0000
0000
0000
0000
0000
0000
0200
0300
0000
0000
0000
0000
0000
0000
0022
0033
0000
0000
0000
0000
0000
0000
2000
3000
0000
0000
0000
0000
0000
0000
0022
0033
0000
0000
0000
0000
0000
0000
0200
0300
0000
0000
0000
0000
0000
0000
0022
0033
0000
0000
0000
0000
0000
0000
,
2000
3000
0000
0000
0000
0000
0000
0000
0202
0303
0000
0000
0000
0000
0000
0000
0020
0030
0000
0000
0000
0000
0000
0000
0202
0303
0000
0000
0000
0000
0000
0000
2000
3000
0000
0000
0000
0000
0000
0000
0202
0303
0000
0000
0000
0000
0000
0000
0020
0030
0000
0000
0000
0000
0000
0000
0202
0303
0000
0000
0000
0000
0000
0000
,
2020
3030
0000
0000
0000
0000
0000
0000
0200
0300
0000
0000
0000
0000
0000
0000
2020
3030
0000
0000
0000
0000
0000
0000
0200
0300
0000
0000
0000
0000
0000
0000
M11M
0000
0000
0000
0000
0000
0000
0000
0000
0000
0000
0000
0000
0000
0000
0000
1MM1
0000
0000
0000
0000
0000
0000
0000
0000
0000
0000
0000
0000
0000
0000
0000
,
0000
M010
0000
0000
0000
0000
0000
0000
0000
010M
0000
0000
0000
0000
0000
0000
0000
10M0
0000
0000
0000
0000
0000
0000
0000
010M
0000
0000
0000
0000
0000
0000
0000
M010
0000
0000
0000
0000
0000
0000
0000
0M01
0000
0000
0000
0000
0000
0000
0000
M010
0000
0000
0000
0000
0000
0000
0000
010M
0000
0000
0000
0000
0000
0000
,
0000
10M0
0000
0000
0000
0000
0000
0000
0000
010M
0000
0000
0000
0000
0000
0000
0000
M010
0000
0000
0000
0000
0000
0000
0000
0M01
0000
0000
0000
0000
0000
0000
0000
M010
0000
0000
0000
0000
0000
0000
0000
010M
0000
0000
0000
0000
0000
0000
0000
10M0
0000
0000
0000
0000
0000
0000
0000
010M
0000
0000
0000
0000
0000
0000
,
0000
M010
0000
0000
0000
0000
0000
0000
0000
0M01
0000
0000
0000
0000
0000
0000
0000
10M0
0000
0000
0000
0000
0000
0000
0000
010M
0000
0000
0000
0000
0000
0000
0000
10M0
0000
0000
0000
0000
0000
0000
0000
010M
0000
0000
0000
0000
0000
0000
0000
M010
0000
0000
0000
0000
0000
0000
0000
010M
0000
0000
0000
0000
0000
0000
,
0000
10M0
0000
0000
0000
0000
0000
0000
0000
0M01
0000
0000
0000
0000
0000
0000
0000
M010
0000
0000
0000
0000
0000
0000
0000
0M01
0000
0000
0000
0000
0000
0000
0000
M010
0000
0000
0000
0000
0000
0000
0000
0M01
0000
0000
0000
0000
0000
0000
0000
M010
0000
0000
0000
0000
0000
0000
0000
010M
0000
0000
0000
0000
0000
0000
,
0000
M010
0000
0000
0000
0000
0000
0000
0000
0M01
0000
0000
0000
0000
0000
0000
0000
M010
0000
0000
0000
0000
0000
0000
0000
0M01
0000
0000
0000
0000
0000
0000
0000
10M0
0000
0000
0000
0000
0000
0000
0000
010M
0000
0000
0000
0000
0000
0000
0000
10M0
0000
0000
0000
0000
0000
0000
0000
010M
0000
0000
0000
0000
0000
0000
,
0000
M010
0000
0000
0000
0000
0000
0000
0000
010M
0000
0000
0000
0000
0000
0000
0000
M010
0000
0000
0000
0000
0000
0000
0000
010M
0000
0000
0000
0000
0000
0000
0000
10M0
0000
0000
0000
0000
0000
0000
0000
0M01
0000
0000
0000
0000
0000
0000
0000
10M0
0000
0000
0000
0000
0000
0000
0000
0M01
0000
0000
0000
0000
0000
0000
,
0000
1010
0000
0000
0000
0000
0000
0000
0000
010M
0000
0000
0000
0000
0000
0000
0000
1010
0000
0000
0000
0000
0000
0000
0000
0M01
0000
0000
0000
0000
0000
0000
0000
1010
0000
0000
0000
0000
0000
0000
0000
010M
0000
0000
0000
0000
0000
0000
0000
1010
0000
0000
0000
0000
0000
0000
0000
0M01
0000
0000
0000
0000
0000
0000
,
1020
0030
0000
0000
0000
0000
0000
0000
0201
0300
0000
0000
0000
0000
0000
0000
2010
3000
0000
0000
0000
0000
0000
0000
0102
0003
0000
0000
0000
0000
0000
0000
1020
0030
0000
0000
0000
0000
0000
0000
0201
0300
0000
0000
0000
0000
0000
0000
2010
3000
0000
0000
0000
0000
0000
0000
0102
0003
0000
0000
0000
0000
0000
0000
,
0M20
010M
0M01
M100
1M00
010M
0M01
M100
,
1M00
M100
1M00
010M
0M01
M100
1030
0000
,
2002
3003
0000
0000
0000
0000
0000
0000
2002
3003
0000
0000
0000
0000
0000
0000
2M02
3003
0000
0000
0000
0000
0000
0000
20M2
3003
0000
0000
0000
0000
0000
0000
2002
3003
0000
0000
0000
0000
0000
0000
2002
3003
0000
0000
0000
0000
0000
0000
2002
3003
0000
0000
0000
0000
0000
0000
0000
0000
0000
0000
0000
0000
0000
0000
,
2MM2
3003
0000
0000
0000
0000
0000
0000
2000
3000
0000
0000
0000
0000
0000
0000
2000
3000
0000
0000
0000
0000
0000
0000
2M2M
3030
0000
0000
0000
0000
0000
0000
2000
3000
0000
0000
0000
0000
0000
0000
2000
3000
0000
0000
0000
0000
0000
0000
22MM
3300
0000
0000
0000
0000
0000
0000
0000
0000
0000
0000
0000
0000
0000
0000
,
0M20
010M
0M01
M100
1M00
010M
0M01
M100
,
1M00
M100
1M00
010M
0M01
M100
1030
0000
,
2002
3003
0000
0000
0000
0000
0000
0000
2020
3030
0000
0000
0000
0000
0000
0000
2200
3300
0000
0000
0000
0000
0000
0000
2020
3030
0000
0000
0000
0000
0000
0000
2002
3003
0000
0000
0000
0000
0000
0000
2002
3003
0000
0000
0000
0000
0000
0000
2002
3003
0000
0000
0000
0000
0000
0000
0000
0000
0000
0000
0000
0000
0000
0000
,
0220
0330
0000
0000
0000
0000
0000
0000
2002
3003
0000
0000
0000
0000
0000
0000
2002
3003
0000
0000
0000
0000
0000
0000
2002
3003
0000
0000
0000
0000
0000
0000
2002
3003
0000
0000
0000
0000
0000
0000
2002
3003
0000
0000
0000
0000
0000
0000
0220
0330
0000
0000
0000
0000
0000
0000
0000
0000
0000
0000
0000
0000
0000
0000
,
0M20
010M
0M01
M100
1M00
010M
0M01
M100
,
1M00
M100
1M00
010M
0M01
M100
1030
0000
,
2002
3003
0000
0000
0000
0000
0000
0000
2002
3003
0000
0000
0000
0000
0000
0000
2M02
3003
0000
0000
0000
0000
0000
0000
20M2
3003
0000
0000
0000
0000
0000
0000
2002
3003
0000
0000
0000
0000
0000
0000
2002
3003
0000
0000
0000
0000
0000
0000
2002
3003
0000
0000
0000
0000
0000
0000
0000
0000
0000
0000
0000
0000
0000
0000
,
0220
0330
0000
0000
0000
0000
0000
0000
2002
3003
0000
0000
0000
0000
0000
0000
2002
3003
0000
0000
0000
0000
0000
0000
2MM2
3003
0000
0000
0000
0000
0000
0000
2002
3003
0000
0000
0000
0000
0000
0000
2002
3003
0000
0000
0000
0000
0000
0000
2002
3003
0000
0000
0000
0000
0000
0000
0000
0000
0000
0000
0000
0000
0000
0000
,
02M0
M010
10M0
M01M
00M1
M01M
10M0
M01M
,
00M1
001M
00M1
M01M
10M0
M01M
03M1
0000
,
22M0
3300
0000
0000
0000
0000
0000
0000
2002
3003
0000
0000
0000
0000
0000
0000
2002
3003
0000
0000
0000
0000
0000
0000
2M20
3030
0000
0000
0000
0000
0000
0000
2002
3003
0000
0000
0000
0000
0000
0000
2002
3003
0000
0000
0000
0000
0000
0000
22M0
3300
0000
0000
0000
0000
0000
0000
0000
0000
0000
0000
0000
0000
0000
0000
,
2MM2
3003
0000
0000
0000
0000
0000
0000
2000
3000
0000
0000
0000
0000
0000
0000
2000
3000
0000
0000
0000
0000
0000
0000
2M2M
3030
0000
0000
0000
0000
0000
0000
2000
3000
0000
0000
0000
0000
0000
0000
2000
3000
0000
0000
0000
0000
0000
0000
22MM
3300
0000
0000
0000
0000
0000
0000
0000
0000
0000
0000
0000
0000
0000
0000
,
0000
0010
0000
0000
0000
0000
0000
0000
M000
0001
0000
0000
0000
0000
0000
0000
0000
0100
0000
0000
0000
0000
0000
0000
0000
0010
0000
0000
0000
0000
0000
0000
000M
1000
0000
0000
0000
0000
0000
0000
0000
0100
0000
0000
0000
0000
0000
0000
0000
0010
0000
0000
0000
0000
0000
0000
M000
0001
0000
0000
0000
0000
0000
0000
,
0000
0100
0000
0000
0000
0000
0000
0000
0000
0010
0000
0000
0000
0000
0000
0000
000M
1000
0000
0000
0000
0000
0000
0000
0000
0100
0000
0000
0000
0000
0000
0000
0000
0010
0000
0000
0000
0000
0000
0000
M000
0001
0000
0000
0000
0000
0000
0000
0000
0100
0000
0000
0000
0000
0000
0000
0000
0010
0000
0000
0000
0000
0000
0000
,
1M02
0M00
0M00
0M00
0M00
0M00
0M00
0M00
1MM0
0MM0
0MM0
0MM0
0MM0
0MM0
0MM0
0MM0
1MM0
0MM0
0MM0
0MM0
0MM0
0MM0
0MM0
0MM0
1MM0
0MM0
0MM0
0MM0
0MM0
0MM0
0MM0
0MM0
1MM0
0MM0
0MM0
0MM0
0MM0
0MM0
0MM0
0MM0
1MM0
0MM0
0MM0
0MM0
0MM0
0MM0
0MM0
0MM0
1MM0
0MM0
0MM0
0MM0
0MM0
0MM0
0MM0
0MM0
1MM0
0MM0
0MM0
0MM0
0MM0
0MM0
0MM0
0MM0
,
1MM0
0MM0
0MM0
0MM0
0MM0
0MM0
0MM0
0MM0
1MM0
0MM0
0MM0
0MM0
0MM0
0MM0
0MM0
0MM0
1MM0
0MM0
0MM0
0MM0
0MM0
0MM0
0MM0
0MM0
1MM0
0MM0
0MM0
0MM0
0MM0
0MM0
0MM0
0MM0
1MM0
0MM0
0MM0
0MM0
0MM0
0MM0
0MM0
0MM0
1MM0
0M00
0M00
0M00
0M00
0M00
0M00
0M00
1M03
0000
0000
0000
0000
0000
0000
0000
101M
0000
0000
0000
0000
0000
0000
0000
,
0000
0000
0000
0100
0000
0000
0000
0000
0000
0000
0000
0000
0000
0000
0000
0000
0000
0000
0000
0000
0000
0000
0000
0000
0000
0000
0000
0100
0000
0000
0000
0000
0000
0000
0000
0000
0000
0000
0000
0000
0000
0000
0000
0000
0000
0000
0000
0000
0000
0000
0000
0100
0000
0000
0000
0000
0000
0000
0000
0000
0000
0000
0000
0000
0000
0000
0000
0000
0000
0000
0000
0000
0000
0000
0000
0100
0000
0000
0000
0000
0000
0000
0000
0000
0000
0000
0000
0000
0000
0000
0000
0000
0000
0000
0000
0000
0000
0000
0000
0100
0000
0000
0000
0000
0000
0000
0000
0000
0000
0000
0000
0000
M0MM
0000
0000
0000
0000
0000
0000
0000
0000
0000
0000
0100
0000
0000
0000
0000
0000
0000
0000
0000
0000
0000
0000
0000
0000
0000
0000
0000
0000
0000
0000
0000
0000
0000
0000
0100
0000
0000
0000
0000
0000
0000
0000
0000
0000
0000
0000
0000
0000
0000
0000
0000
0000
0000
0000
0000
0M00
0000
0000
10MM
0000
0000
0000
0000
0000
0000
0000
0000
0000
0000
0000
0000
0000
0000
0000
0000
0000
0000
0000
0000
,
0000
0000
0000
0100
0000
0000
0000
0000
0000
0000
0000
0000
0000
0000
0000
0000
0000
0000
0000
0000
0000
0000
0000
0000
0000
0000
0000
0100
0000
0000
0000
0000
0000
0000
0000
0000
0000
0000
0000
0000
0000
0000
0000
0000
0000
0000
0000
0000
0000
0000
0000
0100
0000
0000
0000
0000
0000
0000
0000
0000
0000
0000
0000
0000
0000
0000
0000
0000
0000
0000
0000
0000
0000
0000
0000
0100
0000
0000
0000
0000
0000
0000
0000
0000
0000
0000
0000
0000
0000
0000
0000
0000
0000
0000
0000
0000
0000
0000
0000
0100
0000
0000
0000
0000
0000
0000
0000
0000
0000
0000
0000
0000
M0MM
0000
0000
0000
0000
0000
0000
0000
0000
0000
0000
0100
0000
0000
0000
0000
0000
0000
0000
0000
0000
0000
0000
0000
0000
0000
0000
0000
0000
0000
0000
0000
0000
0000
0000
0100
0000
0000
0000
0000
0000
0000
0000
0000
0000
0000
0000
0000
0000
0000
0000
0000
0000
0000
0000
0000
0M00
0000
0000
M01M
0000
0000
0000
0000
0000
0000
0000
0000
0000
0000
0000
0000
0000
0000
0000
0000
0000
0000
0000
0000
,
0000
0000
0000
0100
0000
0000
0000
0000
0000
0000
0000
0000
0000
0000
0000
0000
0000
0000
0000
0000
0000
0000
0000
0000
0000
0000
0000
0100
0000
0000
0000
0000
0000
0000
0000
0000
0000
0000
0000
0000
0000
0000
0000
0000
0000
0000
0000
0000
0000
0000
0000
0100
0000
0000
0000
0000
0000
0000
0000
0000
0000
0000
0000
0000
0000
0000
0000
0000
0000
0000
0000
0000
0000
0000
0000
0100
0000
0000
0000
0000
0000
0000
0000
0000
0000
0000
0000
0000
0000
0000
0000
0000
0000
0000
0000
0000
0000
0000
0000
0100
0000
0000
0000
0000
0000
0000
0000
0000
0000
0000
0000
0000
M0MM
0000
0000
0000
0000
0000
0000
0000
0000
0000
0000
0100
0000
0000
0000
0000
0000
0000
0000
0000
0000
0000
0000
0000
0000
0000
0000
0000
0000
0000
0000
0000
0000
0000
0000
0100
0000
0000
0000
0000
0000
0000
0000
0000
0000
0000
0000
0000
0000
0000
0000
0000
0000
0000
0000
0000
0M00
0000
0000
M0M1
0000
0000
0000
0000
0000
0000
0000
0000
0000
0000
0000
0000
0000
0000
0000
0000
0000
0000
0000
0000
,
0000
0000
0000
0100
0000
0000
0000
0000
0000
0000
0000
0000
0000
0000
0000
0000
0000
0000
0000
0000
0000
0000
0000
0000
0000
0000
0000
0100
0000
0000
0000
0000
0000
0000
0000
0000
0000
0000
0000
0000
0000
0000
0000
0000
0000
0000
0000
0000
0000
0000
0000
0100
0000
0000
0000
0000
0000
0000
0000
0000
0000
0000
0000
0000
0000
0000
0000
0000
0000
0000
0000
0000
0000
0000
0000
0100
0000
0000
0000
0000
0000
0000
0000
0000
0000
0000
0000
0000
0000
0000
0000
0000
0000
0000
0000
0000
0000
0000
0000
0100
0000
0000
0000
0000
0000
0000
0000
0000
0000
0000
0000
0000
M0MM
0000
0000
0000
0000
0000
0000
0000
0000
0000
0000
0100
0000
0000
0000
0000
0000
0000
0000
0000
0000
0000
0000
0000
0000
0000
0000
0000
0000
0000
0000
0000
0000
0000
0000
0100
0000
0000
0000
0000
0000
0000
0000
0000
0000
0000
0000
0000
0000
0000
0000
0000
0000
0000
0000
0000
0M00
0000
0000
M01M
0000
0000
0000
0000
0000
0000
0000
0000
0000
0000
0000
0000
0000
0000
0000
0000
0000
0000
0000
0000
,
0000
0000
0000
0100
0000
0000
0000
0000
0000
0000
0000
0000
0000
0000
0000
0000
0000
0000
0000
0000
0000
0000
0000
0000
0000
0000
0000
0100
0000
0000
0000
0000
0000
0000
0000
0000
0000
0000
0000
0000
0000
0000
0000
0000
0000
0000
0000
0000
0000
0000
0000
0100
0000
0000
0000
0000
0000
0000
0000
0000
0000
0000
0000
0000
0000
0000
0000
0000
0000
0000
0000
0000
0000
0000
0000
0100
0000
0000
0000
0000
0000
0000
0000
0000
0000
0000
0000
0000
0000
0000
0000
0000
0000
0000
0000
0000
0000
0000
0000
0100
0000
0000
0000
0000
M0MM
0000
0000
0000
0000
0000
0000
0000
0000
0000
0000
0000
0000
0000
0000
0000
0000
0000
0000
0100
0000
0000
0000
0000
0000
0000
0000
0000
0000
0000
0000
0000
0000
0000
0000
0000
0000
0000
0000
0000
0000
0000
0000
1M1M
0000
0000
0000
0000
0000
0000
0000
0000
0000
0000
0000
0000
0000
0000
0000
0000
0000
0000
0000
0000
0000
0000
0000
0100
0000
0000
0000
0000
0000
0000
0000
0000
0000
0000
0000
0000
0000
0000
0000
0000
0000
0000
0000
0000
,
0000
0000
0000
0100
0000
0000
0000
0000
0000
0000
0000
0000
0000
0000
0000
0000
0000
0000
0000
0000
0000
0000
0000
0000
0000
0000
0000
0100
0000
0000
0000
0000
0000
0000
0000
0000
0000
0000
0000
0000
0000
0000
0000
0000
0000
0000
0000
0000
0000
0000
0000
0100
0000
0000
0000
0000
0000
0000
0000
0000
0000
0000
0000
0000
0000
0000
0000
0000
0000
0000
0000
0000
0000
0000
0000
0100
0000
0000
0000
0000
0000
0000
0000
0000
0000
0000
0000
0000
0000
0000
0000
0000
0000
0000
0000
0000
0000
0000
0000
0100
0000
0000
0000
0000
M0MM
0000
0000
0000
0000
0000
0000
0000
0000
0000
0000
0000
0000
0000
0000
0000
0000
0000
0000
0100
0000
0000
0000
0000
0000
0000
0000
0000
0000
0000
0000
0000
0000
0000
0000
0000
0000
0000
0000
0000
0000
0000
0000
MM11
0000
0000
0000
0000
0000
0000
0000
0000
0000
0000
0000
0000
0000
0000
0000
0000
0000
0000
0000
0000
0000
0000
0000
0100
0000
0000
0000
0000
0000
0000
0000
0000
0000
0000
0000
0000
0000
0000
0000
0000
0000
0000
0000
0000
,
0000
0000
0000
0100
0000
0000
0000
0000
0000
0000
0000
0000
0000
0000
0000
0000
0000
0000
0000
0000
0000
0000
0000
0000
0000
0000
0000
0100
0000
0000
0000
0000
M0MM
0000
0000
0000
0000
0000
0000
0000
0000
0000
0000
0000
0000
0000
0000
0000
0000
0000
0000
0100
0000
0000
0000
0000
0000
0000
0000
0000
0000
0000
0000
0000
0000
0000
0000
0000
0000
0000
0000
0000
0000
0000
0000
1M1M
0000
0000
0000
0000
0000
0000
0000
0000
0000
0000
0000
0000
0000
0000
0000
0000
0000
0000
0000
0000
0000
0000
0000
0100
0000
0000
0000
0000
0000
0000
0000
0000
0000
0000
0000
0000
0000
0000
0000
0000
0000
0000
0000
0000
0000
0000
0000
0100
0000
0000
0000
0000
M0MM
0000
0000
0000
0000
0000
0000
0000
0000
0000
0000
0000
0000
0000
0000
0000
0000
0000
0000
0100
0000
0000
0000
0000
0000
0000
0000
0000
0000
0000
0000
0000
0000
0000
0000
0000
0000
0000
0000
0000
0000
0000
0000
MM11
0000
0000
0000
0000
0000
0000
0000
0000
0000
0000
0000
0000
0000
0000
0000
0000
0000
0000
0000
0000
,
0000
0110
0000
0000
0000
0000
0000
0000
M00M
M1MM
M00M
M00M
M00M
M00M
M00M
M00M
M00M
M11M
M00M
M00M
M00M
M00M
M00M
M00M
M00M
MM1M
M00M
M00M
M00M
M00M
M00M
M00M
M00M
M11M
M00M
M00M
M00M
M00M
0000
0000
0000
0110
0000
0000
0000
0000
0000
0000
0MM0
2MM2
0MM0
0MM0
0MM0
0000
0000
3003
0000
0000
0000
0000
0000
0000
0000
0000
,
M11M
M00M
M000
M000
0000
0000
0000
0000
0000
0000
0000
0000
0001
0000
0000
0000
1MM0
0000
0000
0000
0000
0000
0000
0000
0000
0000
0000
0000
1000
0000
0000
0000
0M1M
0000
0000
0000
0000
0000
0000
0000
0000
0000
0000
0000
0010
0000
0000
0000
M10M
0000
0000
0000
0000
0000
0000
0000
0000
0000
0000
0000
0100
0000
0000
0000
,
M01M
0000
0000
0010
1M0M
0000
0000
1000
0MM1
0000
0000
0001
10M0
0100
000M
0100
,
20M0
3000
0000
0000
0000
0000
0000
0000
020M
0300
0000
0000
0000
0000
0000
0000
M020
0030
0000
0000
0000
0000
0000
0000
0M02
0003
0000
0000
0000
0000
0000
0000
20M0
3000
0000
0000
0000
0000
0000
0000
020M
0300
0000
0000
0000
0000
0000
0000
M020
0030
0000
0000
0000
0000
0000
0000
0M02
0003
0000
0000
0000
0000
0000
0000
,
20M0
3000
0000
0000
0000
0000
0000
0000
020M
0300
0000
0000
0000
0000
0000
0000
M020
0030
0000
0000
0000
0000
0000
0000
0M02
0003
0000
0000
0000
0000
0000
0000
20M0
3000
0000
0000
0000
0000
0000
0000
020M
0300
0000
0000
0000
0000
0000
0000
M020
0030
0000
0000
0000
0000
0000
0000
0M02
0003
0000
0000
0000
0000
0000
0000
,
20M0
3000
0000
0000
0000
0000
0000
0000
0000
0000
0000
0000
1000
0000
0000
0000
01MM
0000
0000
0000
0000
0000
0000
0000
M000
0000
0000
0000
0100
0000
0000
0000
001M
0000
0000
0000
0000
0000
0000
0000
0M00
0000
0000
0000
0010
0000
0000
0000
M001
0000
0000
0000
0000
0000
0000
0000
00M0
0000
0000
0000
0001
0000
0000
0000
,
1000
0000
0M00
1000
00M1
0000
M000
0010
010M
0000
00M0
1000
0M01
0010
M000
0010
,
0M02
0003
0000
0000
0000
0000
0000
0000
M020
0030
0000
0000
0000
0000
0000
0000
021M
0300
0000
0000
0000
0000
0000
0000
2000
3000
0000
0000
00M0
0000
0000
0000
1M02
0003
0000
0000
0000
0000
0000
0000
0020
0030
0000
0000
M000
0000
0000
0000
021M
0300
0000
0000
0000
0000
0000
0000
2000
3000
0000
0000
00M0
0000
0000
0000
,
1M02
0000
0000
0003
0000
0000
0000
0000
0000
0000
0000
0000
0000
0000
0000
0000
0000
0000
0000
0000
0000
0000
0000
0000
0020
0000
0000
0030
0000
0000
0000
0000
0000
0000
0000
0000
M000
0000
0000
0000
0000
0000
0000
0000
0000
0000
0000
0000
021M
0000
0000
0300
0000
0000
0000
0000
0000
0000
0000
0000
0000
0000
0000
0000
0000
0000
0000
0000
0000
0000
0000
0000
2000
0000
0000
3000
0000
0000
0000
0000
0000
0000
0000
0000
00M0
0000
0000
0000
0000
0000
0000
0000
0000
0000
0000
0000
1M02
0000
0000
0003
0000
0000
0000
0000
0000
0000
0000
0000
0000
0000
0000
0000
0000
0000
0000
0000
0000
0000
0000
0000
0020
0000
0000
0030
0000
0000
0000
0000
0000
0000
0000
0000
M000
0000
0000
0000
0000
0000
0000
0000
0000
0000
0000
0000
021M
0000
0000
0300
0000
0000
0000
0000
0000
0000
0000
0000
0000
0000
0000
0000
0000
0000
0000
0000
0000
0000
0000
0000
2000
0000
0000
3000
0000
0000
0000
0000
00M0
0000
0000
0000
0M00
0000
0000
0000
0000
0000
0000
0000
0000
0000
0000
0000
,
0001
0000
0M10
M000
0001
0000
0110
0000
0000
0110
0000
0000
100M
0000
01M0
0000
1000
0000
011M
0000
0000
0110
0000
0000
,
M001
0000
0M10
0000
0001
0000
M110
0000
0000
0110
0000
0000
100M
0000
01M0
0000
1000
0000
011M
0000
0000
0110
0000
0000
,
M011
0000
0010
0100
10MM
0100
0010
0000
M11M
0000
0100
0010
MM01
0010
0100
0000
,
11MM
0000
1000
0100
M01M
0100
1000
0000
11MM
0000
0100
M010
0M01
0010
MM0M
0000
,
M1MM
0000
0000
0100
M01M
0000
0M10
M000
0001
0M10
M001
0010
010M
10M0
0000
1000
,
0M1M
0000
M000
0M01
0010
M000
010M
0000
10M0
0000
010M
0000
M1M0
0000
010M
0000
,
0110
0000
0001
0000
1MM0
0000
0001
M000
0110
000M
1000
0000
0MM1
0000
1000
000M
,
0110
M000
0001
0000
1MM0
0000
0001
M000
0110
0000
1000
0010
1M0M
0010
1000
00M0
,
000M
0100
0000
0000
0000
0000
0000
0000
00M0
1000
0000
0000
0000
0000
0000
0000
0M00
0001
0000
0000
0000
0000
0000
0000
M000
0010
0000
0000
0000
0000
0000
0000
000M
0100
0000
0000
0010
0000
0000
0000
M000
0100
0000
0000
0000
0000
0000
0000
00M0
0001
0000
0000
0000
0000
0000
0000
0M00
1000
0000
0000
0000
0000
0000
0000
,
000M
0010
0000
0000
0100
0000
0000
0000
M000
0010
0000
0000
0000
0000
0000
0000
000M
0100
0000
0000
0010
0000
0000
0000
0000
0100
0000
0000
0000
0000
0000
0000
00M0
1000
0000
0000
0000
0000
0000
0000
0M00
0001
0000
0000
0000
0000
0000
0000
M000
0010
0000
0000
0100
0000
0000
0000
0000
0010
0000
0000
0000
0000
0000
0000
,
M201
00M0
0001
0000
M001
00M0
0301
0000
1M2M
0000
1000
0000
1M0M
0000
1030
0000
,
M1M2
0100
M1M0
0103
2M1M
0010
0M1M
30M0
,
M1MM
0000
0000
M0MM
0000
0000
M0MM
0000
0000
M0MM
0000
0000
M0MM
0000
0000
M0MM
00M0
0000
M0MM
0000
0000
M0MM
0000
0000
M1MM
0000
0000
M0MM
0000
0000
M0MM
0000
0000
M0MM
0000
0000
M0MM
0000
0000
M0MM
0000
0000
M0MM
0000
0000
M0MM
0000
0000
M1MM
0000
0000
M0MM
0000
0000
M0MM
0000
0000
M0MM
0000
0000
M0MM
0000
0000
M0MM
0100
0000
M0MM
0000
0000
M0MM
0000
0000
M0MM
0000
0000
M0MM
0000
0000
M0MM
0000
0100
M0MM
0000
0000
M0MM
0000
0000
M0MM
0000
0000
M0MM
0000
0000
M0MM
0000
0000
M1MM
0000
0000
M0MM
0000
0000
M0MM
0000
0000
M0MM
0000
0000
M0MM
0000
0000
M0MM
0100
0000
M0MM
0000
0000
M0MM
0000
0000
M0MM
0000
0000
M0MM
0000
0000
M0MM
0000
0100
M0MM
0000
0000
M0MM
0000
0000
M0MM
0000
0000
M0MM
0000
0000
M0MM
0000
0000
M1MM
0000
0000
M0MM
0000
0000
M0MM
0000
0000
M0MM
0000
0000
M0MM
0000
0000
M0MM
0000
0000
M0MM
0000
0000
M0MM
0000
0000
M1MM
0000
0000
M0MM
0000
0000
M0MM
0000
0000
M0MM
0000
0000
M0MM
0000
0000
M00M
0000
0000
M00M
0000
0000
M00M
0000
0000
,
MM0M
0000
0000
MM0M
0000
0000
MM0M
0000
0000
MM0M
0000
0000
MM0M
0000
0000
MM0M
0000
0000
MM0M
0000
0000
MM0M
0000
0000
MM1M
0000
0000
MM0M
0000
0000
MM0M
0000
0000
MM0M
0000
0000
MM0M
0000
0000
MM0M
0000
0000
MM0M
0000
0000
MM0M
0000
0000
MM1M
0000
0000
MM0M
0000
0000
MM0M
0000
0000
MM0M
0000
0000
MM0M
0000
0000
MM0M
0010
0000
MM0M
0000
0000
MM0M
0000
0000
MM0M
0000
0000
MM0M
0000
0000
MM0M
0000
0010
MM0M
0000
0000
MM0M
0000
0000
MM0M
0000
0000
MM0M
0000
0000
MM0M
0000
0000
MM1M
0000
0000
MM0M
0000
0000
MM0M
0000
0000
MM0M
0000
0000
MM0M
0000
0000
MM0M
0010
0000
MM0M
0000
0000
MM0M
0000
0000
MM0M
0000
0000
MM0M
0000
0000
MM0M
0000
0010
MM0M
0000
0000
MM0M
0000
0000
MM0M
0000
0000
MM0M
0000
0000
MM0M
0000
0000
MM1M
0000
0000
0000
0000
0000
0000
0000
0000
0000
0000
0000
0000
0000
0000
0000
0000
0000
0000
0000
0000
0000
0000
0000
0010
0000
0000
0000
0000
0000
0000
0000
0000
0000
0000
0000
0000
0000
0000
0000
0000
0000
0000
0000
0000
0000
0000
0000
,
11MM
0100
M1M1
0010
M11M
0010
MM11
0010
,
1M1M
0000
0000
0000
0000
0000
0000
0000
0010
0000
0000
0000
0000
0000
0000
0000
M11M
0000
0000
0000
0000
0000
0000
0000
0010
0000
0000
0000
0000
0000
0000
0000
1MM1
0000
0000
0000
0000
0000
0000
0000
0000
0000
0000
0000
0000
0000
0000
0000
MMMM
MMMM
MMMM
MMMM
MMMM
MMMM
MMMM
MMMM
MMMM
MMMM
MMMM
MMMM
MMMM
MMMM
MMMM
MMMM
,
MMMM
MMMM
MMMM
M00M
M00M
M00M
M00M
M00M
M00M
M00M
M00M
M00M
M00M
M00M
M00M
M00M
M22M
M00M
M00M
M00M
M00M
M00M
M00M
M00M
M00M
M00M
M00M
M00M
M00M
M00M
M00M
M00M
M00M
M00M
M00M
M00M
M00M
M00M
M00M
M00M
M00M
M00M
M00M
M00M
M00M
M00M
M00M
M00M
M00M
M00M
M00M
M00M
M00M
M00M
M00M
M00M
M00M
M00M
M00M
M00M
M00M
M00M
M00M
M00M
,
M00M
M00M
M00M
M00M
M00M
M00M
M00M
M00M
M00M
M00M
M00M
M00M
M00M
M00M
M00M
M00M
M00M
M00M
M00M
M00M
M00M
M00M
M00M
M00M
M00M
M00M
M00M
M00M
M00M
M00M
M00M
M00M
M00M
M00M
M00M
M00M
M00M
M00M
M00M
M00M
M00M
M00M
M00M
M00M
M00M
M00M
M00M
M00M
M00M
M00M
M00M
M00M
M00M
M00M
M00M
M00M
M00M
M00M
M00M
M00M
M00M
M00M
M33M
MMMM
,
MMMM
MMMM
MMMM
MMMM
MMMM
MMMM
MMMM
MMMM
MMMM
MMMM
MMMM
0000
0000
0000
0000
0000
0000
0000
0000
0000
0000
0000
0000
0000
0000
0000
0000
0000
0000
0000
0000
0000
0000
0000
0000
0000
0000
0000
0000
0000
0000
0000
0000
0000
0000
0000
0000
0000
0000
0000
0000
0000
0000
0000
0000
0000
0000
0000
0000
0000
0000
0000
0000
0000
;
#NOTES:dance-solo::Easy:3::
000000
000000
000000
000000
,
000000
000000
000000
000000
,
000000
000000
000000
000000
,
000000
000000
000000
000000
,
000100
000000
000100
000000
,
010000
000000
010000
000000
,
001000
000000
001000
000000
,
000010
000000
000010
100001
,
100000
000000
001000
000000
,
000100
000000
000001
000001
,
010000
000000
001000
000000
,
000100
000000
000010
100000
,
000010
000000
001000
000000
,
000100
000000
100000
000001
,
000100
001000
000100
001000
,
000100
000100
001000
001000
,
100000
000000
001000
000000
,
000100
000000
000001
000000
,
100000
000001
100000
000001
,
100000
000001
100000
000001
,
100000
000000
000100
000000
,
001000
000000
000001
000000
,
010000
000010
010000
000010
,
010000
000010
010000
000010
,
010000
000000
001000
000000
,
000100
000000
000010
000000
,
100000
000001
100000
000001
,
100000
000001
100000
000001
,
100000
100000
001000
001000
,
000100
000100
000100
000100
,
000010
010000
000010
010000
,
000010
010000
000010
010000
,
000010
000000
001010
000000
,
002000
000000
003000
000000
,
010000
000000
011000
000000
,
002000
000000
003000
000000
,
000100
000000
000000
000000
,
001000
000000
000000
000000
,
000001
000000
000000
000000
,
010000
000000
000000
000000
,
000020
000000
000030
000000
,
002000
000000
003000
000000
,
000100
000000
000100
000000
,
000100
000000
001100
000000
,
100000
000010
002000
003000
,
000010
002000
003000
000000
,
000010
100000
000010
100000
,
000010
100000
000010
100000
,
000001
010000
002000
003000
,
010000
002000
003000
000000
,
010000
000001
010000
000001
,
010000
000001
010000
000001
,
010000
000001
002000
003000
,
000100
001000
000002
000000
,
000100
010000
000100
010000
,
000100
010000
000100
010003
,
001000
000100
000002
000003
,
001000
000100
200000
000000
,
000100
000010
000100
000010
,
000100
000010
000100
300010
,
001000
000000
000200
000300
,
000100
000000
002000
003000
,
000001
100000
000001
100000
,
000010
010000
000010
010000
,
000100
010000
002000
003000
,
000100
000010
002000
003000
,
000010
010000
000001
100000
,
000010
000000
010000
000000
,
000200
002000
000000
000000
,
003300
000000
000000
000000
;
#NOTES:dance-solo::Medium:6::
000000
000000
000000
000000
,
000000
000000
000000
000000
,
000000
000000
000000
000000
,
000000
000000
000000
000000
,
000010
000000
001000
000000
000100
000000
010000
000001
,
010000
000000
001000
000000
000100
000000
000010
100000
,
000010
001000
000100
100000
,
001000
000100
010100
001010
,
000100
000000
100000
001000
010000
000000
000100
000000
,
010000
001000
000100
000001
,
000100
000000
000001
001000
000010
000000
001000
000000
,
000100
010000
000010
001000
,
001100
000000
000100
100000
001000
000000
000100
000000
,
001000
000010
001000
100000
,
000100
000100
000100
000000
001000
000000
000001
000000
,
000100
000000
001000
000000
000100
000001
001000
000000
,
100000
001000
010000
000100
,
001000
000001
000010
001000
,
000100
001100
001000
001100
,
000100
001100
001000
001100
,
000001
000100
000010
001000
,
000100
010000
000000
010000
001000
100000
001000
000000
,
000100
001100
001000
001100
,
000100
001100
001000
001100
,
100000
000000
001000
000000
000100
001000
000100
001000
,
000000
010000
001000
000000
000100
000000
000001
000000
,
001000
001001
000001
000101
,
000100
000110
000010
010010
,
020000
000000
001000
001000
001000
001000
031000
000000
,
000200
001000
001000
001300
000000
100001
000000
000000
,
001000
000000
000100
100000
000100
100000
000100
000000
,
001000
000001
001000
000001
002000
000000
003000
000000
,
000100
010000
001000
000100
,
000001
001000
000100
100100
,
010000
000000
000010
000000
001000
000100
001000
000000
,
000100
000000
100000
000000
000001
001000
000001
000000
,
100000
100000
000100
000100
,
010000
010000
001000
001000
,
000001
000001
001000
001000
,
000010
000010
000100
000100
,
001000
100000
000010
000000
001000
000000
000100
000000
,
001000
000001
010000
000000
000010
000000
001000
000000
,
100100
000001
100100
000001
,
100100
000000
100010
000000
010010
000010
000010
000000
,
000000
100000
010000
001000
,
000100
010000
001000
000100
,
000001
000100
000001
000000
000001
000100
000001
000000
,
000001
000100
000001
000000
000001
000100
000010
000000
,
000000
000001
000010
000100
,
001000
000010
000100
001000
,
100000
000100
100000
000000
100000
000100
100000
000000
,
100000
000100
100000
000000
100000
000100
010000
000000
,
001100
000100
001000
000010
,
010000
000100
001000
000001
,
010000
001000
000100
000010
010000
001000
000100
000010
,
010000
001000
000100
000010
001000
000000
000100
000000
,
001100
010000
000010
000100
,
001000
010000
000010
100000
,
000010
000100
001000
010000
000010
000100
001000
010000
,
000010
000100
001000
010000
000100
000000
001000
000000
,
001010
100100
001000
001000
,
000100
000001
001000
001000
,
000001
001000
000001
001000
000001
100000
000001
100000
,
000001
010000
000001
010000
000001
000100
000001
000100
,
000001
000000
100000
000000
,
000010
000000
010000
000000
,
100000
000001
100000
000001
100000
000010
100000
000010
,
100000
100000
000100
000100
,
010100
002000
000000
003001
;
#NOTES:dance-solo::Hard:9::
000000
000000
000000
000000
,
000000
000000
000000
000000
,
000000
000000
000000
000000
,
000000
000000
000000
000000
,
100000
000010
010000
001000
000100
000001
001000
000010
,
000000
000010
010000
000100
001000
000001
000010
001000
,
100000
001000
000100
000010
010000
001000
000100
000001
,
000000
000001
001000
000100
010010
000000
100001
000000
,
000100
010000
000010
002000
000000
000000
000000
000000
,
100000
000001
100000
003001
,
000100
000001
100000
002000
000000
000000
000000
000000
,
000010
010000
000010
013000
,
100000
001000
000100
000020
000000
000000
000000
000000
,
000100
010000
100030
001001
,
010100
000110
010100
000110
000000
000010
000000
000100
,
000000
001000
010000
000010
001000
000000
001001
000000
,
001000
100000
000001
000010
010000
100000
000001
001000
,
100000
000001
000100
001000
100000
000000
100001
000000
,
110000
000011
110000
000011
,
110000
000011
110000
000011
,
100000
001000
000010
001000
010000
001000
000001
001000
,
000100
000010
000010
010000
010000
000100
001000
000001
,
110000
000011
110000
000011
,
110000
000011
110000
000011
,
100000
000000
001000
000000
000100
000000
000001
000000
100000
000000
000000
000010
100000
000000
000100
000000
,
010000
000010
010000
000010
001000
001000
001000
000000
,
000011
110000
000011
110000
,
000011
110000
000011
110000
,
100000
000000
100000
001000
010000
000010
001000
000000
,
000001
000010
001000
010000
000000
110011
000000
000000
,
000001
000000
000001
000100
000010
010000
001000
000000
,
100000
010000
001000
000010
000002
000000
000003
000000
,
000010
010000
001000
010000
000010
010000
001000
010000
,
000000
010000
000010
001000
000010
010000
000010
001000
,
000100
000100
000100
010000
000010
100000
001000
000000
,
000100
000100
000100
000010
010000
000001
001000
000000
,
001100
000000
000100
010000
000100
010000
001000
000000
,
100000
000100
010000
001000
,
001100
000000
000100
000010
000100
000010
001000
000000
,
000100
001000
000010
001000
,
001010
011000
001010
011000
,
100010
010001
100010
010001
,
100000
000001
100000
000001
010000
000010
010000
000010
,
100000
000001
100000
000001
110000
000011
110000
000000
,
100000
000000
000000
100000
010000
000000
000000
010000
001000
000000
000000
001000
000100
000000
000000
000100
,
000001
000000
000000
000001
000010
000000
000000
000010
010000
000000
000000
010000
001000
000000
000000
001000
,
000100
001000
000100
001000
010000
100000
010000
100000
,
000100
001000
000100
001000
000010
000001
000010
000001
,
000001
000000
000000
000001
000010
000000
000000
000010
001000
000000
000000
001000
000100
000000
000000
000100
,
100000
000000
000000
100000
010000
000000
000000
010000
000010
000000
000000
000010
001000
000000
000000
001000
,
000100
001000
000100
001000
000010
000001
000010
000001
,
000100
001000
000100
001000
010000
100000
010000
100000
,
100000
000000
001000
000000
011000
000100
000010
000000
,
001000
000000
000001
000000
001010
010000
000100
000000
,
010010
000000
000000
000001
001000
000000
000000
100000
001000
000000
000000
000010
001000
000000
000000
010000
,
001000
000000
000000
000001
001000
000000
000000
100000
001000
000000
000000
000010
001000
000000
000000
010000
,
001000
000001
001000
000010
010000
001000
000100
000000
,
000100
001000
100000
000010
000100
001000
000000
001000
,
001100
000000
010100
001000
100000
000000
000110
001000
,
000001
000000
010100
001000
100000
000000
001001
000000
,
000100
010000
000100
000000
001000
000000
000010
000100
000010
000000
100000
000000
000000
000000
100000
000000
,
000100
000100
001000
000100
000100
100001
000000
001000
,
100000
000100
100000
000001
100000
000010
100000
010000
,
100000
000001
000010
000001
100000
010000
100000
000001
,
000000
000000
000100
000000
010000
000000
000010
000000
002000
000000
000000
000000
,
100000
000001
103000
001100
,
100000
010000
001000
000100
000001
000010
010000
001000
,
000100
000001
001000
001000
,
000101
002000
000000
013000
;
#NOTES:dance-solo::Challenge:15::
010100
010100
000110
000110
,
000011
000011
110000
110000
,
010100
010100
000110
000110
,
000011
000011
110000
110000
,
001000
110000
001000
000000
001000
000011
001000
000000
,
001000
110000
001000
000011
001000
110000
001000
000000
,
001000
000110
001000
000000
001000
010100
001000
000000
,
001000
000110
001000
010100
011100
000000
001110
000000
,
100001
000010
100100
000001
100010
000100
100001
000010
,
100100
000001
100010
000100
100001
000010
100100
000000
,
100001
010000
000101
100000
010001
000100
100001
010000
,
000101
100000
010001
000100
100001
010000
000101
000000
,
020020
000000
130031
020020
000000
130031
010010
000000
,
001100
000000
110000
000011
110000
000011
110000
000000
,
000011
110000
000011
110000
000011
000000
000000
000000
010100
000000
100100
000000
001001
000000
001010
000000
,
100000
001000
100000
001000
000100
000001
000100
000001
100000
001000
100000
001000
000100
000001
000100
000001
,
002000
000001
000010
000100
010000
100000
010000
000100
,
000010
000001
000010
000100
010000
100000
113000
000000
,
110000
000011
100000
000011
110000
000001
110000
000011
,
010000
000011
110000
000001
110000
000010
110000
000011
,
002000
000001
000010
000100
010000
100000
010000
000100
,
000010
000001
000010
000100
010000
100000
113000
000000
,
110000
000011
1M0000
000011
110000
0000M1
110000
000011
,
M10000
000011
110000
0000M1
110000
00001M
110000
000011
,
002000
0000M1
000000
000M1M
000000
0M01M0
00000M
M10M00
,
000000
1M0000
0000M0
M10M00
000000
0M0100
003100
000000
,
20MM02
000000
010010
300003
020020
000000
100001
030030
,
200020
000000
010001
300030
020002
000000
100010
030003
,
002000
1M0000
000000
M10M00
000000
0M01M0
M00000
000M1M
,
000000
0000M1
0M0000
000M1M
000000
0001M0
003100
000000
,
20MM02
000000
010010
300003
M2002M
000000
100001
030030
,
2M002M
000000
010001
300030
M200M2
000000
100010
030003
,
002200
000010
000000
003310
,
002200
010000
000000
013300
,
002200
000010
000010
003310
,
002200
010000
010000
013300
,
100000
010000
001000
000100
000010
000001
200001
000000
,
300001
000010
000100
001000
010000
100000
100002
000000
,
100003
010000
M01000
0M0100
M0M010
000M01
2M00M1
00M000
,
3M0M01
00M010
0M010M
M010M0
010M0M
10M000
1M0MM2
00M000
,
110MM3
001000
M10MMM
001000
MM01MM
001000
MM01MM
00M000
,
MM0M11
001000
MM0M1M
001000
MM01MM
001000
MM01MM
00M000
,
110MMM
001000
MM0M11
001000
110MMM
001000
MM0M11
001000
,
1M0MMM
000000
000000
000000
000000
000000
000000
000000
001000
000000
000000
000000
000000
000000
000000
000000
MM0M1M
000000
000000
000000
000000
000000
000000
000000
001000
000000
000000
000000
000000
000000
000000
000000
1M0MM0
000000
000000
000000
000000
000000
000000
000000
000001
000000
000000
000000
000000
000000
000000
000000
22MM22
330033
000000
000000
000000
000000
000000
000000
000000
000000
000000
000000
000000
000000
000000
000000
,
011100
011100
001110
001110
,
001011
001011
111000
111000
,
111000
111000
111000
111000
001011
001011
001011
001011
,
111000
111000
001011
001011
111000
111000
001011
001011
,
011100
011100
0M1110
0M1110
,
0M1M11
0M1M11
111MMM
111MMM
,
11M11M
M1M111
M1M11M
M111MM
,
MMMM1M
11MM11
M1MM11
1MMMMM
,
MMMMMM
MMMMMM
MMMMMM
MMMMMM
M0000M
MMMMMM
0MMMM0
MMMMMM
0MMMM0
MMMMMM
0MMMM0
MMMMMM
M0MMM0
MMMMMM
MMMM0M
MMMMMM
,
MMMM0M
MMMMMM
MMM0MM
MMMMMM
MMM0MM
MMMMMM
MMM0MM
MMMMMM
MMMMMM
MMMMMM
MMM0MM
MMM0MM
MMM1MM
MM0000
MM0000
000000
,
00M1MM
110000
00MM11
110000
00M1MM
110000
00MM11
110000
,
00M11M
110000
00MM11
110000
00MM11
110000
00M11M
110000
,
000002
000100
000100
000000
010M10
000000
010010
000003
,
200000
000100
000100
000000
010M10
000000
010010
300000
,
002M02
000000
000M10
003003
202M00
000000
010M00
303000
,
000202
00M000
010010
00M303
200200
00M000
010010
30M300
,
000001
000010
000001
M01MM0
010000
100000
010000
M01MM0
,
000001
000010
000001
0MM1M0
100000
010000
110000
000000
,
110011
000000
000000
0MMMM0
100001
000000
000000
00MM00
11001M
000000
000000
00MM00
M1001M
000000
000000
00MM00
,
M10011
000000
000000
000000
000000
000000
000000
000000
000000
000000
000000
000000
00MMM0
000000
000000
000000
M10001
000000
000000
000000
000000
000000
000000
000000
000000
000000
000000
000000
000000
000000
000000
000000
001100
000000
000000
000000
MM00MM
MM00MM
MM00MM
MM00MM
MM11MM
MM00MM
MM00MM
MM00MM
MM00MM
MM00MM
MM00MM
MM00MM
MM11MM
MM00MM
MM00MM
MM00MM
MM00MM
MM00MM
MM00MM
MM00MM
MM00MM
MM00MM
MM00MM
MM00MM
MM00MM
MM00MM
MM00MM
MM00MM
,
MMMMMM
000000
2M0022
300033
MMMMMM
000000
2200M2
330003
,
MMMMMM
000000
000000
000000
220022
000000
330033
000000
MM0MMM
000000
00M000
M0000M
0M0MM0
000000
20M002
000000
,
0M0MM0
00M000
010M10
31M013
M20M2M
00M000
100M01
13M031
,
110M11
11M011
110M11
110011
111000
111000
000111
111000
,
000000
000000
000000
000000
000000
000000
000000
000000
000000
000000
000000
000000
000000
000000
000000
000000
210012
000000
000000
000000
000000
000000
000000
000000
0MMMM0
0MMMM0
0MMMM0
0MMMM0
0MMMM0
0MMMM0
0MMMM0
0MMMM0
0MMMM0
0MMMM0
0MMMM0
0MMMM0
0MMMM0
0MMMM0
0MMMM0
0MMMM0
0MMMM0
0MMMM0
0MMMM0
0MMMM0
0MMMM0
0MMMM0
0MMMM0
0MMMM0
0MMMM0
0MMMM0
0MMMM0
0MMMM0
0MMMM0
0MMMM0
0MMMM0
0MMMM0
0MMMM0
0MMMM0
0MMMM0
0MMMM0
0MMMM0
0MMMM0
0MMMM0
0MMMM0
,
0MMMM0
0MMMM0
0MMMM0
0MMMM0
0MMMM0
0MMMM0
0MMMM0
0MMMM0
0MMMM0
0MMMM0
0MMMM0
0MMMM0
0MMMM0
0MMMM0
0MMMM0
0MMMM0
0MMMM0
0MMMM0
0MMMM0
0MMMM0
0MMMM0
0MMMM0
0MMMM0
0MMMM0
0MMMM0
0MMMM0
0MMMM0
0MMMM0
0MMMM0
0MMMM0
0MMMM0
0MMMM0
0MMMM0
0MMMM0
0MMMM0
0MMMM0
0MMMM0
0MMMM0
0MMMM0
0MMMM0
0MMMM0
0MMMM0
0MMMM0
0MMMM0
0MMMM0
0MMMM0
0MMMM0
0MMMM0
0MMMM0
0MMMM0
0MMMM0
0MMMM0
0MMMM0
0MMMM0
0MMMM0
0MMMM0
0MMMM0
0MMMM0
0MMMM0
0MMMM0
0MMMM0
0MMMM0
0MMMM0
3MMMM3
,
MMMMMM
MMMMMM
MMMMMM
MMMMMM
MMMMMM
MMMMMM
MMMMMM
MMMMMM
MMMMMM
MMMMMM
MMMMMM
000000
000000
000000
000000
000000
000000
000000
000000
000000
000000
000000
000000
000000
000000
000000
000000
000000
000000
000000
000000
000000
000000
000000
000000
000000
000000
000000
000000
000000
000000
000000
000000
000000
000000
000000
000000
000000
000000
000000
000000
000000
000000
000000
000000
000000
000000
000000
000000
000000
000000
000000
000000
000000
;
#NOTES:dance-double::Easy:2::
00000000
00000000
00000000
00000000
,
00000000
00000000
00000000
00000000
,
00000000
00000000
00000000
00000000
,
00000000
00000000
00000000
00000000
,
00001000
00000000
00010000
00000000
,
00010000
00000000
00001000
00000000
,
00100000
00000000
01000000
00000000
,
00010000
00000000
00000100
00000100
,
00000100
00000000
00000100
00000000
,
00010000
00000000
00001000
00000000
,
01000000
00000000
10000000
00000000
,
00100000
00000000
00001000
00010000
,
00001000
00000000
00000010
00000000
,
00000100
00000000
00000010
00001000
,
00000001
00001000
00000001
00001000
,
00000001
00000000
00001000
00000000
,
00000001
00000000
00000100
00000000
,
00000010
00000000
00001000
00000000
,
00010000
00001000
00010000
00001000
,
00010000
00001000
00010000
00001000
,
00010000
00000000
00010000
00000000
,
00001000
00000000
00000100
00000000
,
01000000
00100000
01000000
00100000
,
01000000
00100000
01000000
00100000
,
01000000
00000000
10000000
00010000
,
00100000
00000000
01000000
00000000
,
00001000
00010000
00001000
00010000
,
00001000
00010000
00001000
00010000
,
00001000
00000000
00000000
00000000
,
00000010
00000000
00000100
00000000
,
00001000
00000000
00001000
00000000
,
00000010
00000000
00000010
00000000
,
00000100
00000000
00000001
00000000
,
00000100
00000000
00000010
00000000
,
00001000
00000000
00000100
00000000
,
00010000
00000000
00001000
00000000
,
00100000
00000000
01100000
00000000
,
10000000
00000000
10010000
00000000
,
01000000
00000000
01100000
00000000
,
00100000
00000000
00001000
00000000
,
00010000
00000000
00000010
00000000
,
00001000
00000000
00000010
00000000
,
00001001
00000000
00010100
00000000
,
00001000
00000000
00000000
00000000
,
00001000
00010000
00001000
00000000
,
00100000
00000000
00000000
00000000
,
00010000
00000000
10000000
00000000
,
10000000
00000000
00010000
00000000
,
00001000
00000000
00000100
00000000
,
00001000
00000000
00000010
00000000
,
00001000
00000000
00000001
00000000
,
00000001
00000000
00001000
00000000
,
00000010
00000000
00010000
00000000
,
00100000
00000000
00010000
00000000
,
00001000
00010000
00001000
00010000
,
00001000
00010000
00001000
00010000
,
00001000
00000000
00100000
00000000
,
10000000
00000000
10000000
00000000
,
01000000
00000000
00011000
00000000
,
00000010
00000000
00000000
00000000
,
00000100
00000000
00000100
00000000
,
00000001
00000000
00000001
00000000
,
00000010
00000000
00011000
00000000
,
01000000
00000000
00000000
00000000
,
00100000
00000000
00001000
00000000
,
00010000
00000000
00001000
00000000
,
00001000
00001000
00010000
00010000
,
00001000
00000000
00001000
00000000
;
#NOTES:dance-double::Medium:6::
00000000
00000000
00000000
00000000
,
00000000
00000000
00000000
00000000
,
00000000
00000000
00000000
00000000
,
00000000
00000000
00000000
00000000
,
00001000
00000001
00001000
00000000
00000010
00010000
00000100
00000000
,
00000100
00010000
00001000
00000000
01000000
00010000
00100000
00000000
,
00010000
10000000
00010000
00000000
00010000
01000000
00001000
00000000
,
00001000
00010000
00000010
00000000
00000101
00000000
00001010
00000000
,
00000001
00000100
00001000
00010000
00000010
00000000
00000100
00000000
,
00000100
00001000
00010000
00000000
00100000
00000000
10010000
00000000
,
10000000
01000000
00010000
00001000
01000000
00000000
00100000
00000000
,
01000000
00010000
01000000
00000000
00001000
00000000
00010000
00000000
,
11000000
00000000
10000000
01000000
00100000
00000000
00001000
00000000
,
00010000
00000100
00000010
00000001
00000100
00000000
00000010
00000000
,
00000100
00010010
00000100
00000001
,
00000001
00000100
00001000
00000000
00010000
01000000
00000000
00000000
,
10000000
00100000
01000000
00001000
,
00010000
00000000
00000010
00000000
00000100
00000001
00000010
00000000
,
00000011
00000011
00001100
00001100
,
00000011
00000000
00000011
00000000
00001000
00000100
00010000
00000000
,
00000100
00010000
00001000
01000000
,
00100000
10000000
00000000
10000000
00100000
00000000
01000000
00000000
,
00110000
11000000
11000000
00110000
,
00110000
00000000
11000000
00000000
01000000
00100000
00010000
00000000
,
10000000
00000000
00010000
00000000
00100000
00100000
00100000
00000000
,
00000000
00000000
00000000
00000000
01000000
01000000
01000000
00000000
,
11000000
11000000
00110000
00110000
,
00001100
00001100
00000011
00000011
,
00000100
00000000
00000001
00001000
00000100
00001000
00000001
00000000
,
00001000
00000100
00010000
00001000
00000000
01001000
00000000
00000000
,
00010000
00000000
00010000
10000000
01000000
00000000
01000000
00000000
,
00100000
00010000
00100000
00010000
00001000
00000000
00000010
00000000
,
00001000
00000100
00001000
00000010
,
00000001
00001000
00000110
00000110
,
00001000
00010000
01000000
10000000
,
00100000
01000000
11000000
00110000
,
01000000
01000000
00010000
00010000
,
00000100
00000100
00000001
00000001
,
00000000
00000001
00000000
00000001
,
00000010
00000100
00001000
00010000
,
00100000
01000000
10000000
01000000
,
00100000
00000000
00010000
00000000
00010000
10000000
01000000
00000000
,
10000000
11000000
01000000
01100000
,
00100000
00110000
00010000
00011000
,
00110000
00000000
10000000
01000000
00100000
00000000
00100000
00010000
,
00001000
00000000
00000100
00000000
00000010
00000001
00000001
00000000
,
00000001
00000010
00000100
00001000
00000001
00000010
00000100
00001000
,
00000001
00000010
00000100
00001000
,
00000000
00000000
00000001
00000010
00000100
00000000
00000100
00010000
,
00001000
00000000
00100000
00000000
01000000
10000000
10000000
00000000
,
10000000
01000000
00100000
00010000
10000000
01000000
00100000
00010000
,
10000000
01000000
00100000
00010000
,
00000000
00000000
00010000
00001000
00011000
00000000
00001000
00010000
,
00011000
00000000
00011000
00000000
00001000
00100000
01000000
00000000
,
10000000
00000000
01000000
00100000
00001000
00000000
00010000
00000100
,
00000010
00000100
00010000
00000100
,
00000001
00000001
00000001
00000000
00000100
00000000
00000010
00000001
,
00000001
00000000
00000100
00000010
00000010
00000000
00000100
00000000
,
00000001
00000000
00000010
00000100
00001000
00000100
00001000
00000000
,
00001000
00000000
00000100
00010000
00001000
00000000
01000000
00000000
,
00000000
00001000
00010000
00001000
01000000
00001000
00100000
00000000
,
10010000
01100000
00010000
10010000
,
10000000
00000000
01000000
00010000
01000000
00000000
00010000
00000000
,
00001000
00000000
00010000
00001000
00000100
00000000
00000010
00000000
,
00000001
00000000
00000100
00000000
00000010
00000100
00000010
00000000
,
00001000
00000100
00001000
00000100
,
00001000
00010000
00001000
00010000
01000000
00000000
00010000
00000000
,
10100000
01010000
00101000
00010100
,
00001010
00000101
00000000
00000000
;
#NOTES:dance-double::Hard:9::
00000000
00000000
00000000
00000000
,
00000000
00000000
00000000
00000000
,
00000000
00000000
00000000
00000000
,
00000000
00000000
00000000
00000000
,
00000010
00000001
00000010
00000100
00000010
00000100
00001000
00000100
,
00010000
00001000
00100000
00010000
00100000
01000000
10000000
01000000
,
00100000
00100000
01000000
10000000
00100000
10000000
00010000
00100000
,
00010000
00001000
00000100
00000001
00000100
00001000
00011000
00000000
,
00001100
00000010
00000001
00000100
00000010
00001000
00010000
00001000
,
00000100
00010000
00001000
00010000
01000000
00100000
00010000
01000000
,
10000000
01000000
00010000
00100000
00010000
10000000
01000000
00100000
,
00010000
10000000
00010000
00100000
01000000
00010000
00011000
00000000
,
00001000
00001000
00010000
00001000
00010000
00000100
00001000
00000010
,
00000100
00000001
00000010
00000100
00001000
00000100
00000001
00000100
,
00000010
00000010
00000011
00000000
00000100
00000010
00000001
00000100
,
00001000
00000100
00000001
00000010
00000100
00001001
00000000
00000000
,
00000010
00001000
00000100
00000000
00001000
01000000
00100000
00000000
,
00100000
01000000
00100000
01000000
00100000
01000000
00100000
00000000
,
10100000
01010000
00101000
00010100
,
00001010
00000101
00001010
00000101
,
00000010
00000000
00000100
00000010
00000100
00000010
00000100
00000010
,
00000100
00000000
00000001
00001000
00000001
00000000
00000010
00000000
,
00000101
00001010
00010100
00101000
,
01010000
10100000
01010000
10100000
,
01000000
00000000
00001000
00000000
00010000
00000000
00001000
00000000
00100000
00000000
00001000
00010000
00001000
00000000
00010000
00000000
,
00000000
00001000
00010000
00000000
00000100
00000000
00001000
00000000
,
00110000
00011000
00001100
00011000
,
01010000
00011000
00001010
00011000
,
00010000
00000000
00010000
00001000
00000100
00000001
00000100
00000000
,
00001100
00000110
00000011
00000000
00000000
00001001
00000000
00000000
,
00000001
00000100
00000001
00000000
00010000
00000010
00010000
00000000
,
00001000
01000000
00100000
00000000
10010000
00000000
01100000
00000000
,
00010000
00000000
00100000
00000000
00001000
00001000
00001000
00000000
,
00010000
00000000
00000100
00000010
00000001
00000100
00001000
00000000
,
00010000
00000000
00110000
00000000
00100000
01000000
10000000
00000000
,
01000000
00010000
00100000
00001000
00010000
00001000
00010000
00000000
,
00000100
00001000
00000100
00001000
00000001
00000001
00000001
00000000
,
00000100
00000000
00010000
00000000
01000000
00100000
01000000
00000000
,
00001000
00000000
00000100
00000000
00001000
00000001
00001001
00000000
,
00000110
00001001
00011000
00001001
,
00000010
00010010
00000100
00000001
,
00000001
00000010
00001000
00000000
00010000
01000000
10000000
00000000
,
10000000
00000000
11000000
01000000
01100000
00000000
00110000
00100000
,
00101000
00000000
00001100
00000100
00000110
00000000
00000001
00000000
,
00000001
00000000
00000000
00000001
00000010
00000000
00000000
00000010
00000100
00000000
00000000
00000100
00010000
00000000
00000000
00010000
,
00001000
00000000
00000000
00001000
00100000
00000000
00000000
00100000
01000000
00000000
00000000
01000000
10000000
00000000
00000000
10000000
,
01000000
00000000
00100000
00000000
01000000
00100000
01000000
00000000
,
10000000
00000000
00010000
00000000
10000000
00100000
10000000
01000000
,
10000000
00000000
00000000
10000000
01000000
00000000
00000000
01000000
00100000
00000000
00000000
00100000
00001000
00000000
00000000
00001000
,
00010000
00000000
00000000
00010000
00000100
00000000
00000000
00000100
00000010
00000000
00000000
00000010
00000001
00000000
00000000
00000001
,
00000010
00000000
00000100
00000010
00000100
00000000
00000100
00001000
,
00000001
00000000
00000001
00001000
00000001
00000000
00000010
00000100
,
00000001
00000000
00000000
00000001
00000100
00000000
00000000
00000100
00000010
00000000
00000000
00000010
00010000
00000000
00000000
00010000
,
00001000
00000000
00000000
00001000
01000000
00000000
00000000
01000000
00100000
00000000
00000000
00100000
10000000
00000000
00000000
01000000
,
10000000
00100000
01000000
00100000
01000000
00010000
00100000
01000000
,
00100000
01000000
10000000
01000000
00100000
00001000
00010000
00000100
,
00000001
00000110
00001001
00001000
,
00000010
00001000
00000100
00010000
01000000
00000000
00010000
00000000
,
00010000
01000000
10000000
00000000
10000000
01000000
00100000
00010000
,
00010000
00100000
01000000
10000000
10000000
01000000
00100000
00001000
,
00010000
00001000
00010000
00000000
00010000
00000000
00001000
00010000
00001000
00000000
00001000
00000000
00010000
00000000
00000000
00000000
,
01001000
00110000
01001000
00010000
,
00000010
00001000
00000100
00001000
00000001
00000010
00000100
00001000
,
00001000
00000100
00000010
00000001
00000001
00000010
00000100
00010000
,
00001000
00000000
00001000
00100000
00001000
01000000
00100000
00000000
,
01100000
00110000
00011000
00001100
,
00000001
00000010
00000100
00000000
00001000
00000000
00000010
00000000
00000100
00000000
00001000
00000000
00010000
00000000
01000000
00000000
,
00100000
00001000
00010000
00000100
,
00000000
00000000
00000000
00000000
00000000
00000000
00000000
00000000
00000000
00000000
00000000
00000000
00000000
00000000
00000000
00000000
00000000
00000000
00000000
00000000
00000000
00000000
00000000
00000000
00000000
00001000
00000000
00000000
00000000
00000000
00000000
00000000
,
00000000
00000000
00000000
00000000
00000000
00000000
00000000
00000000
00000000
00000000
00000000
00000000
00000000
00000000
00000000
00000000
00000000
00000000
00000000
00000000
00000000
00000000
00000000
00000000
00000000
00000000
00000000
00000000
00000000
00000000
00000000
00000000
00000000
00000000
00000000
00000000
00000000
00000000
00000000
00000000
00000000
00000000
00000000
00000000
00000000
00000000
00000000
00000000
00000000
00000000
00000000
00000000
00000000
00000000
00000000
00000000
00000000
00000000
00000000
00000000
00000000
00010000
00000000
00000000
;
#NOTES:dance-double::Challenge:12::
00000001
00000001
00001000
00001000
,
00010000
00010000
10000000
10000000
,
10000000
10000000
00010000
00010000
,
00001000
00001000
00000001
00000001
,
00000110
00000001
00000010
00000100
00001000
00010000
00001000
00000100
,
00000011
00000100
00001000
00010000
00100000
00010000
00001000
00000100
,
00011000
00100000
01000000
10000000
01000000
00100000
00010000
00001000
,
00110000
01000000
10000000
01000000
00110000
00000000
00011000
00000000
,
00001000
00000100
00000110
00000010
00000001
00000001
00000101
00000100
,
00001000
00001000
00011000
00010000
00100000
00100000
01100000
01000000
,
10000000
10000000
10100000
00100000
00010000
00010000
00011000
00001000
,
00000100
00000100
00000110
00000010
00000001
00000001
00000101
00000100
,
00001001
00001000
00001010
00001000
00001100
00001000
00011000
00000000
,
10010000
00010000
01010000
00010000
00110000
00010000
00011000
00000000
,
00000010
00000100
00000010
00000100
00000010
00000000
00000001
00000000
00000001
00000000
00000010
00000000
00000100
00000000
00001000
00000000
,
00010000
00100000
00010000
00100000
01000000
10000000
01000000
10000000
00100000
01000000
00100000
01000000
00100000
01000000
00100000
01000000
,
00100000
00100000
10000000
10000000
01000000
01000000
00010000
00010000
,
00001000
00001000
00000100
00000100
00000001
00000001
00000010
00000010
,
00000001
00001000
00010000
10000000
01000000
00010000
00001000
00000100
,
00000001
00001000
00010000
10000000
00100000
00010000
00001000
00000010
,
00000100
00000100
00000001
00000001
00000010
00000010
00001000
00001000
,
00010000
00010000
00100000
00100000
10000000
10000000
01000000
01000000
,
10000000
00010000
00001000
00000001
00000010
00001000
00010000
00100000
,
10000000
00010000
00001000
00000001
00000100
00001000
00010000
01000000
,
10000000
00000000
10000000
00000000
10000000
00000000
10000000
00000000
10000000
00000000
10000000
00100000
01000000
00000000
00010000
00000000
,
00100000
00001000
00010000
00000100
00001000
00000010
00000100
00000001
,
00001000
00010000
00100000
01000000
00010000
00001000
00000100
00000010
,
00001000
00010000
00100000
01000000
00010000
00001000
00000100
00000010
,
00002100
00000000
00000001
00000010
00000100
00000010
00003001
00000000
,
00012000
00100000
01000000
00100000
00000000
00010000
00000000
00003000
,
00011000
00000100
00011000
00000010
00011000
00100000
00011000
01000000
,
00011000
00010100
00011000
00010010
00011000
00101000
00011000
01001000
,
00011000
00000100
00000010
00000001
00000010
00000100
00010000
00001000
,
00011000
01000000
00100000
10000000
00100000
01000000
00001000
00010000
,
00010000
00000100
00001000
00001000
00000100
00000100
00000011
00000000
,
00011000
00001000
00110000
00010000
01100000
00100000
11000000
00000000
,
10000000
10000000
10000000
10000000
10000000
10000000
00010000
00001000
,
00000001
00000001
00000001
00000001
00000001
00000001
00001000
00010000
,
10000000
10000000
10000000
10000000
10000000
01000000
00011000
00000000
,
00000001
00000001
00000001
00000001
00000001
00000010
00011000
00000000
,
10010000
10010000
10010000
10010000
10010000
10010000
00011000
00000000
,
00001001
00001001
00001001
00001001
00001001
00001001
00011000
00000000
,
10000000
00010000
00001000
00000001
00001000
00010000
10000000
00010000
,
00001000
00000001
00001000
00010000
10000000
00010000
00011000
00000000
,
00110000
10100000
11000000
01010000
,
00011000
00001100
00000101
00000011
,
00000010
00010000
00100000
00001000
00000010
00010000
00100000
00001000
,
00000100
00010000
01000000
00001000
00000100
00010000
01000000
00001000
,
00001100
00000101
00000011
00001010
,
00011000
00110000
10100000
11000000
,
01000000
00010000
00001000
00000100
00000001
00000010
00001000
00010000
,
00100000
10000000
01000000
00010000
00001000
00000100
00000001
00000010
,
00011000
00100000
01000000
10000000
01100000
00010000
00001000
00000100
,
00000011
00000100
00001000
00010000
01100000
10000000
01000000
00100000
,
00010000
00000010
00000100
00010000
00000010
00000100
00010000
00000010
,
00000100
00010000
00000010
00000100
00010000
00000010
00000100
00010000
,
00001010
00000100
00000001
00001000
00010100
00001000
00010000
00100000
,
01010000
00100000
10000000
01000000
10100000
00010000
00100000
01000000
,
00010000
00000010
00000100
00001000
00100000
01000000
00010000
00000010
,
00000100
00001000
00100000
01000000
10000000
00010000
00001000
00000001
,
00000000
00000101
00000000
00001010
00000000
00010100
00000000
00101000
,
00000000
01010000
00000000
10100000
00000000
01010000
00000000
00101000
,
00010200
00001300
00020100
00031000
00010200
00001300
00020100
00031000
,
00010200
00001300
00020100
00031000
00010200
00001300
00020100
00031000
,
00000100
00000001
00001000
00000010
00010000
00000100
00011000
00011000
,
00100000
00001000
01000000
00010000
10000000
00100000
11000000
11000000
,
10010000
00010000
00011000
00001000
00001001
00000001
00001001
00001000
,
00011000
00010000
10010000
10000000
10010000
00010000
00011000
00001000
,
00001001
00000220
00000000
00000000
,
00000000
00000000
00000000
00000000
00000000
00000000
00000000
00000000
00000000
00000000
00000000
00000000
00000000
00000000
00000000
00000000
00000000
00000000
00000000
00000000
00000000
00000000
00000000
00000000
00000000
00000000
00000000
00000000
00000000
00000000
00000000
00000000
00000000
00000000
00000000
00000000
00000000
00000000
00000000
00000000
00000000
00000000
00000000
00000000
00000000
00000000
00000000
00000000
00000000
00000000
00000000
00000000
00000000
00000000
00000000
00000000
00000000
00000000
00000000
00000000
00000000
00000330
00000000
00000000
;
