#TITLE:The a la Menthe;
#SUBTITLE:;
#ARTIST:Nikkfurie;
#TITLETRANSLIT:;
#SUBTITLETRANSLIT:;
#ARTISTTRANSLIT:;
#CREDIT:;
#BANNER:Thé a la Menthe BN.png;
#BACKGROUND:Thé a la Menthe BG.png;
#LYRICSPATH:;
#CDTITLE:.\CDTitles\cheesemix IIDX.png;
#MUSIC:Thé a la Menthe.mp3;
#OFFSET:-0.345;
#SAMPLESTART:14.715;
#SAMPLELENGTH:10.480;
#SELECTABLE:YES;
#BPMS:0=99.485;
#STOPS:;
#BGCHANGES:0=Thé a la Menthe BG.png=1=0=0=1,2=Thé a la Menthe.avi=1=1=0=1,168=Thé a la Menthe BG.png=1=0=0=1;

//---------------dance-single - ----------------
#NOTES:
     dance-single:
     :
     Hard:
     9:
     0.489,0.506,0.039,0,0.530: // measure 1
0000
0000
0000
0000
,  // measure 2
0000
0000
0000
0000
,  // measure 3
1000
0100
1000
0100
1000
0000
0000
0000
0001
0100
0001
0100
0001
0000
0000
0000
,  // measure 4
0010
0100
0010
0100
0010
0000
0000
0000
0001
1000
0001
1000
0001
0000
0100
0000
,  // measure 5
0010
1000
0010
1000
0100
0010
0100
0010
,  // measure 6
0001
1000
0001
1000
0100
0010
1001
0000
,  // measure 7
0100
0000
0010
1000
0010
0000
0000
1000
0000
0000
0100
0010
0100
0000
0000
0100
,  // measure 8
0010
0000
0001
0000
0100
0000
0000
0010
0000
0000
1000
0000
0100
0000
0000
0010
,  // measure 9
0000
0000
0100
1000
0100
0000
0000
0010
0000
0000
0001
0100
0001
0000
0000
0010
,  // measure 10
0100
0000
1000
0000
0001
0000
0000
0100
0000
0000
0010
0000
1000
0000
0000
0100
,  // measure 11
0000
0000
0010
0001
0010
0000
0000
0100
0000
0000
1000
0010
1000
0000
0000
0100
,  // measure 12
0010
0000
0001
0000
0100
0000
0000
1000
0000
0000
0100
0000
0001
0000
0010
0100
,  // measure 13
0000
0000
1000
0010
1000
0000
0000
0100
0000
0000
0010
0001
0010
0000
0100
1000
,  // measure 14
0100
0010
0001
0100
1000
0100
0001
0010
,  // measure 15
0100
0000
1000
0000
0010
0000
0100
0010
0100
0000
0001
0000
1000
0000
0001
0000
,  // measure 16
0100
0010
1000
0100
0001
0001
0100
0100
,  // measure 17
1000
0001
0100
0010
1000
0100
1000
0010
,  // measure 18
0100
0100
0010
0010
1000
1000
0100
0100
,  // measure 19
0010
0000
0001
0000
0100
0000
0010
0100
0010
0000
1000
0000
0100
0000
0010
0000
,  // measure 20
0100
1000
0001
0100
1000
0100
0001
0010
,  // measure 21
0100
1000
0100
1000
0100
0000
0010
0000
0001
0100
0001
0100
0001
0000
0010
0000
,  // measure 22
0100
0010
0100
0010
0100
0000
1000
0000
0010
1000
0010
1000
0010
0000
0100
0000
,  // measure 23
0010
0000
1000
0100
1000
0000
0000
0010
0000
0000
0100
0001
0100
0000
0000
0010
,  // measure 24
1000
0000
0100
0000
0010
0000
0000
0100
0000
0000
1000
0010
1000
0000
0000
0100
,  // measure 25
0000
0000
0010
0001
0010
0000
0000
0100
0000
0000
1000
0010
1000
0000
0000
0100
,  // measure 26
0010
0000
0001
0000
0100
0000
0000
0010
0000
0000
1000
0100
1000
0000
0000
0010
,  // measure 27
0000
0000
0100
0001
0010
0000
0000
0100
0000
0000
0100
1000
0001
0000
0000
0100
,  // measure 28
0010
0000
1000
0000
0100
0000
0000
0010
0000
0000
0100
0010
0001
0000
0000
0100
,  // measure 29
0000
0000
0001
0100
0010
0000
0000
1000
0000
0000
0100
0010
0001
0000
0000
0001
,  // measure 30
0100
0000
0010
0000
1000
0000
0000
0100
0000
0000
1000
0100
0001
0000
0100
0000
,  // measure 31
1000
0001
1000
0001
1000
0000
0000
0000
0010
0100
0010
0100
0010
0000
0000
0000
,  // measure 32
1000
0100
1000
0100
1000
0000
0000
0000
0001
0100
0001
0100
0001
0000
0000
0000
,  // measure 33
0010
0001
0010
0001
0010
0000
0000
0000
1000
0010
1000
0010
1000
0000
0000
0000
,  // measure 34
0010
0001
0100
0001
0010
0000
0000
0000
0100
1000
0010
1000
0100
0000
0000
0000
,  // measure 35
0010
0001
0010
0001
0100
0010
0100
0010
,  // measure 36
1000
0001
1000
0001
0100
0010
1001
0000
,  // measure 37
1000
0100
0010
0001
0000
0100
0010
0001
0000
0100
0010
0001
0000
0100
0010
0001
,  // measure 38
0000
0100
0010
1000
0000
0100
0010
1000
0000
0100
0010
1000
0100
0000
0000
0000
,  // measure 39
1001
0000
0001
1000
0100
0000
0000
0010
0000
0000
0001
0100
0010
0000
0000
1000
,  // measure 40
0100
0000
0010
0000
0001
0000
0000
0100
0000
0000
0010
1000
0100
0000
0000
0010
,  // measure 41
0000
0000
0100
1000
0001
0000
0000
0100
0000
0000
0001
0100
1000
0000
0000
1000
,  // measure 42
0100
0000
0001
0000
0010
0000
0000
0100
0000
0000
1000
0010
0100
0000
0010
0000
,  // measure 43
1001
0000
0000
0000
;

//---------------dance-single - ----------------
#NOTES:
     dance-single:
     :
     Easy:
     3:
     0.260,0.324,0.010,0,0:
0000
0000
0000
0000
,
0000
0000
0000
0000
,
1000
0001
0100
0010
,
1000
0100
1000
0010
,
0100
0001
0100
0000
0010
1000
0010
0000
,
1000
0100
1000
0000
0010
0001
0010
0000
,
0100
1000
0010
0100
,
0001
0001
0010
0010
,
0100
1000
0010
0100
,
0010
0010
1000
1000
,
0100
0010
0001
0100
,
1000
1000
0100
0100
,
0001
0010
0100
1000
,
0010
0010
0001
0001
,
0010
1000
0010
0000
1000
0000
0100
0000
,
0010
0001
0100
0010
,
1000
0100
1000
0000
0010
0100
0010
0000
,
0100
0001
1000
0100
,
0010
0001
0010
0000
0100
0000
1000
0000
,
0010
0100
0001
1000
,
0100
0010
0100
0000
0001
1000
0001
0000
,
0100
0010
0100
0000
0010
1000
0010
0000
,
1000
0100
0010
0001
,
0100
0100
0010
0010
,
1000
0100
0001
0100
,
1000
1000
0010
0010
,
0100
0001
0010
1000
,
0010
0010
0001
0001
,
0100
0010
1000
0100
,
1000
1000
0001
0001
,
0100
0010
0100
0000
0001
1000
0001
0000
,
1000
0100
1000
0000
0010
0100
0010
0000
,
0100
0001
0100
0000
0010
1000
0010
0000
,
1000
0100
1000
0000
0010
0001
0010
0000
,
1000
0001
1000
0001
,
0100
0010
0100
0010
,
1000
0100
1000
0100
1000
0100
1000
0100
,
0010
0001
0010
0001
0010
0001
0010
0000
,
0100
0010
0001
0100
,
0010
1000
0001
1000
,
0001
0100
0010
1000
,
0100
0100
0010
0010
,
1001
0000
0000
0000
;

//---------------dance-single - ----------------
#NOTES:
     dance-single:
     :
     Medium:
     5:
     0.362,0.344,0.087,0,0.029:
0000
0000
0000
0000
,
0000
0000
0000
0000
,
1000
0001
0100
0000
0010
1000
0100
0000
,
0010
0100
1000
0000
0010
0100
0001
0000
,
1000
0100
1000
0100
0010
0001
0010
0001
,
0100
0001
0100
0001
0100
0010
1000
0000
,
0100
0010
0001
0000
1000
0001
0100
0000
,
0010
0000
1001
0000
1000
0100
0010
0000
,
0001
0100
1000
0000
1000
0100
0001
0000
,
0010
0000
1001
0000
1000
0100
0010
0000
,
0001
0100
0010
0000
1000
0001
0100
0000
,
0010
0000
1001
0000
1000
0100
0001
0000
,
0001
0100
1000
0000
0010
0100
0001
0000
,
0010
0000
1001
0000
0100
0010
1000
0000
,
0100
0010
0100
0010
0100
0000
1000
0000
,
0010
0100
0001
0000
0010
0100
1000
0000
,
1000
0100
0010
0000
0001
0100
0010
0000
,
1000
0001
0100
0000
0001
1000
0100
0000
,
0010
0100
0010
0100
0010
0000
0001
0000
,
0100
0010
1000
0000
0100
1000
0010
0000
,
0100
0001
1000
0000
0100
1000
0001
0000
,
0100
0010
1000
0000
0100
0010
0001
0000
,
0100
0010
1000
0100
0010
0000
0101
0000
,
0010
1000
0100
0010
0100
1000
0010
0000
,
0100
0001
0010
0100
1000
0000
0011
0000
,
0100
0100
0010
1000
0100
0000
0010
0000
,
0001
0001
0100
0010
1000
0000
1100
0000
,
0010
0001
0100
0010
1000
0000
0100
0000
,
0010
0100
1000
0010
0100
0000
1010
0000
,
0100
0100
0010
0010
1000
1000
0100
0100
,
0010
0001
0010
0000
0001
0100
0001
0000
,
0100
0010
0100
0000
0010
1000
0010
0000
,
1000
0100
0010
0000
0001
0100
0010
0000
,
1000
0001
0100
0000
0001
1000
0100
0000
,
0010
0001
0010
0001
0100
0010
0100
0010
,
1000
0001
1000
0001
1000
0100
0110
0000
,
0010
0000
0001
0100
0000
0000
0100
0010
0000
0000
0010
1000
0000
0000
1000
0100
,
0000
0000
0100
0010
0000
0000
0010
0001
0000
0000
0001
0000
0100
0000
0000
0000
,
0010
1000
0100
0010
0001
0100
0010
0000
,
1000
1000
0100
0100
0010
0001
0100
0010
,
1000
0100
0001
0000
0001
0100
1000
0000
,
0010
0010
0100
0100
0001
0001
1000
1000
,
0001
0000
0000
0000
;

//---------------dance-single - ----------------
#NOTES:
     dance-single:
     :
     Challenge:
     10:
     0.761,0.668,0.337,0,1: // measure 1
0000
0000
0000
0000
,  // measure 2
0000
0000
0000
0000
,  // measure 3
1000
0001
0100
0010
1000
0000
0100
0000
1000
0010
0100
0001
1000
0000
0100
0000
,  // measure 4
0010
0001
0100
1000
0100
0000
0001
0000
0010
0100
1000
0010
0100
0000
0010
0000
,  // measure 5
1000
0100
0001
0100
1000
0000
0010
0000
0100
0001
0100
1000
0100
0000
0010
0000
,  // measure 6
1000
0100
0010
0001
0100
0000
0010
0000
0100
0001
1000
0100
0010
0000
0100
0000
,  // measure 7
1000
0010
0100
0001
0010
0000
0100
0010
0000
0010
0001
0100
0010
0000
1000
0100
,  // measure 8
0010
0100
1000
0010
0100
0000
0100
0010
0000
0010
1000
0100
0010
0001
0100
0010
,  // measure 9
0000
0100
0001
1000
0100
0010
0001
0100
0000
0100
0010
1000
0100
0001
0100
1000
,  // measure 10
0010
0100
0001
0010
0100
0000
0100
0010
0000
0010
0001
0100
0010
1000
0100
0001
,  // measure 11
0000
0001
0100
1000
0010
0100
0001
0010
0000
0010
0100
1000
0010
0100
0001
0010
,  // measure 12
0100
1000
0010
0100
0010
0000
0010
1000
0000
1000
0100
0010
0001
0100
0010
1000
,  // measure 13
0000
1000
0100
0010
0001
0100
0010
1000
0000
1000
0100
0010
0100
1000
0010
0100
,  // measure 14
0001
0010
0100
0010
0001
0000
0001
0100
0000
0100
0010
1000
0100
0010
0001
0100
,  // measure 15
0010
0000
1000
0000
0100
0000
0010
0001
0010
0001
0100
0010
1000
0000
0100
0010
,  // measure 16
0001
0000
0100
1000
0100
0000
0001
0010
0100
1000
0100
1000
0010
0100
0010
0100
,  // measure 17
0001
0010
0001
0010
0100
0000
0100
1000
0010
0100
0010
1000
0100
0000
0100
0010
,  // measure 18
0011
0101
1010
1100
1001
0110
1010
0011
,  // measure 19
1001
0000
0001
0000
0010
0000
0100
1000
0010
0100
0001
0010
0001
0000
0100
0010
,  // measure 20
1000
0000
1000
0100
0010
0000
0010
0001
0100
0010
0100
0010
1000
0000
1000
0100
,  // measure 21
0010
0001
0100
0010
0100
0010
1000
0100
1000
0001
0100
1000
0100
0000
0100
0001
,  // measure 22
0011
0101
1100
1010
1100
0101
0011
0110
,  // measure 23
1001
1000
0001
0100
0010
0000
0010
1000
0000
1000
0100
0010
0001
0000
0100
0010
,  // measure 24
0100
0010
1000
0100
0010
0000
0010
0001
0000
0001
1000
0100
0010
0001
0100
0010
,  // measure 25
0000
0010
1000
0100
0010
0001
0100
0010
0000
1000
0100
0010
0001
0100
0010
1000
,  // measure 26
0100
1000
0100
0010
0001
0000
0001
0100
0000
0100
0010
1000
0100
0010
0100
1000
,  // measure 27
0010
0100
0001
0100
0010
0000
0010
1000
0000
1000
0100
0010
0100
0000
0100
1000
,  // measure 28
0010
0100
0001
0010
0100
0000
0100
1000
0000
1000
0010
0100
0010
1000
0100
0010
,  // measure 29
0000
0001
0100
0010
1000
0100
0001
0100
0000
1000
0010
0100
0001
0010
0100
0010
,  // measure 30
0001
0100
0010
1000
0100
0000
0100
1000
0000
1000
0010
0100
0001
0100
0010
1000
,  // measure 31
0100
0010
0001
0100
0010
0000
1000
0000
0100
1000
0010
0100
0010
0000
1000
0000
,  // measure 32
0100
0010
0001
0100
0010
0000
0100
0000
0010
1000
0100
0001
0100
0000
1000
0000
,  // measure 33
0010
0100
0001
0010
0100
0000
0010
0000
0001
0100
0010
1000
0100
0000
1000
0000
,  // measure 34
0010
0100
0010
1000
0100
0000
0010
0000
0001
0100
0010
0100
0001
0000
0010
0000
,  // measure 35
0110
1001
1100
0101
0011
1010
1001
1100
,  // measure 36
1010
0101
0011
1001
0110
1100
0011
0000
,  // measure 37
0001
0100
0010
1000
0001
0100
0010
1000
0001
0100
0010
1000
0001
0100
0010
1000
,  // measure 38
0100
0010
0001
1000
0100
0010
0001
1000
0100
0010
0001
0100
0110
0000
0000
0000
,  // measure 39
1001
0001
1000
0100
0010
0000
0100
1000
0000
0010
0100
0001
0010
0001
0100
0010
,  // measure 40
1000
0100
1000
0100
0010
0001
0100
0010
1000
0100
1000
0010
0100
0001
0010
0100
,  // measure 41
0000
0100
0010
0001
0100
0010
1000
0100
0000
1000
0010
0100
0010
1000
0100
0010
,  // measure 42
0001
0100
0001
0100
0010
1000
0100
0010
0001
0100
0010
1000
0100
0001
0100
1000
,  // measure 43
0010
0000
0000
0000
;
