#TITLE:MAMA TAKE ME HOME;
#ARTIST:REDNEX;
#BANNER:MAMA TAKE ME HOME BN.png;
#BACKGROUND:MAMA TAKE ME HOME BG.png;
#LYRICSPATH:MAMA TAKE ME HOME.lrc;
#CDTITLE:.\CDTITLES\Melodifestivalen 2006.png;
#MUSIC:MAMA TAKE ME HOME.mp3;
#OFFSET:-3.514;
#SAMPLESTART:51.73;
#SAMPLELENGTH:17.62;
#SELECTABLE:YES;
#BPMS:0=108,150=50,150=48,150.125=51,150.188=55.8,150.250=57.5,150.313=59,150.375=60,150.438=62.5,150.5=64,150.563=65.3,150.625=67.5,150.667=67.4,150.688=69,150.75=70.9,150.813=72.8,150.875=74.5,150.938=76,151=78,151.125=82,151.313=83,151.375=85.7,151.438=86.3,151.5=86.9,151.563=88.2,151.625=90.8,151.688=91,151.75=91.8,151.813=95.2,151.875=99,151.938=101,152=108;
#STOPS:150=1.652;
#BGCHANGES:22.6=MAMA TAKE ME HOME.avi=1=1=0=1,
181=MAMA TAKE ME HOME BG.png=1=1=0=1;
#DISPLAYBPM:108;

//---------------dance-single - ----------------
#NOTES:
     dance-single:
     :
     Easy:
     3:
     0.237,0.253,0.111,0.148,0:
0000
0000
0000
0000
,
0000
0000
0000
0000
,
1000
0000
0001
0100
,
0010
0000
1000
0100
,
1000
0000
0001
0010
,
0100
0100
0000
2000
,
3001
0010
0000
0100
,
1000
0010
0100
0001
,
1000
1000
0001
0010
,
0100
0000
1000
0000
,
0001
0100
0010
0000
,
1000
0000
1000
0000
0100
0010
0001
0000
,
2002
3003
0100
0010
,
1000
0100
0010
0110
,
0100
1000
0001
0002
,
0013
0100
1000
2000
,
3010
0010
0100
0100
,
0002
0010
1000
0013
,
0100
1000
0100
0100
,
0010
0001
1000
1000
,
2002
3003
0001
0100
,
0010
1000
0100
0000
,
0010
0001
0100
0100
,
0010
1000
0100
0100
,
1000
0000
0001
0000
0010
0100
0010
0000
,
0001
0000
1000
0000
0010
0100
0010
0000
,
1001
0100
0000
0010
,
1001
0100
0000
0010
,
0002
0003
1000
0100
,
0010
0000
0001
0010
0001
0000
0200
0000
,
0300
0010
1000
0001
,
0010
0010
0100
0100
,
0000
1000
0001
0100
,
0001
0000
0000
1001
0000
0000
0000
0000
,
1000
0010
0200
0300
,
0001
0010
0200
0300
,
1000
0000
0001
1000
,
0020
0000
0030
0000
,
1001
1000
0100
1000
,
1001
0001
0010
0001
,
1001
1000
0010
0100
,
0001
0010
0010
0010
,
0110
0100
1000
0010
,
0110
0100
0001
0010
,
0220
0330
1000
0000
,
0002
0000
0003
0000
;

//---------------dance-single - ----------------
#NOTES:
     dance-single:
     :
     Medium:
     5:
     0.336,0.337,0.213,0.148,0.005:
0000
0000
0000
0000
,
0000
0000
0000
0000
,
1000
0000
0001
0000
0100
0000
0010
1000
,
0010
0000
0100
0000
0001
0000
0010
0100
,
0010
0000
0001
0000
1000
0000
0001
0100
,
0001
0010
0000
0020
,
0031
1000
0001
0100
,
0010
0000
1000
0000
0100
1000
0100
0000
,
0010
0000
0001
0100
0001
0000
1000
0100
,
1000
0000
0001
2000
0000
3000
0010
0000
,
0100
0001
0100
0000
0010
1000
0001
0000
,
1000
1000
1000
0000
0001
0001
0001
0000
,
0220
0000
0000
0000
0330
0000
1000
0100
,
0010
0001
1000
1001
,
0010
0100
0001
0000
1000
0001
1000
0000
,
0010
0000
0100
0000
0001
0001
0010
0000
,
0100
1000
0001
0000
0010
0001
0010
0001
,
1000
0000
0010
0000
0100
0001
0100
0010
,
1000
1000
0001
0000
0020
0000
0130
0000
,
1000
0001
1000
0000
0020
0000
0130
0000
,
0001
0000
0010
0000
0100
0010
0001
1000
,
0100
0000
0010
0001
0100
0000
0110
0000
,
1001
0000
1000
0100
1000
0000
1010
0000
,
1001
0000
0001
0010
0100
0000
1100
0000
,
0101
0000
0100
0010
1000
0010
0100
0001
,
1000
0200
0320
0032
,
1003
0000
1010
0000
1001
0000
0001
0010
,
0100
0000
1100
0000
1001
0000
0001
0100
,
0020
0000
0100
0000
1030
0000
0001
0010
,
0100
1000
0001
0200
,
0310
0000
1000
0000
0001
1000
0001
0000
,
0010
0100
1000
0000
0100
0010
0001
0000
,
1000
0000
0010
0000
0001
0000
0010
1000
,
0001
0000
0000
0020
0000
0030
0000
0100
,
1000
0000
0001
0000
0010
0000
0010
0100
,
1000
0000
0001
0000
0100
0000
0100
0010
,
1000
0001
0010
0100
,
1000
0000
0000
0000
0001
0000
0000
0000
0200
0000
0000
0000
0000
0010
0000
0000
,
0310
0000
1000
0100
0010
0000
0011
0000
,
1001
0000
0001
0100
0010
0000
1010
0000
,
1001
0000
0001
0010
0100
1000
0100
0010
,
0001
0000
0101
0000
1001
0000
1000
0100
,
0010
0000
0011
0000
0101
0000
0100
0010
,
1000
0000
1100
0000
1010
0000
0010
0100
,
0002
0000
0013
0100
1000
0000
0000
0000
,
2002
0000
3003
0000
;

//---------------dance-single - ----------------
#NOTES:
     dance-single:
     :
     Hard:
     7:
     0.398,0.400,0.222,0.185,0.060:
0000
0000
0000
0000
,
0000
0000
0000
0000
,
1000
0000
0010
0000
0100
0000
0001
0010
,
1000
0000
0010
0000
0001
0000
1000
0100
,
0001
0000
0100
0000
0010
0000
0001
0100
,
1000
0001
0000
0120
,
1030
0100
0010
0000
0001
0000
0100
0000
,
0010
1000
0100
1000
0001
0100
1000
0100
,
0001
0000
0010
0010
0100
0000
0100
0010
,
0001
0000
1000
0020
0000
0030
0100
0001
,
0010
0100
1100
0000
1000
1000
0001
0001
,
0100
0001
1001
1000
0100
0010
0012
0000
,
0203
0000
0310
0000
1000
0100
0010
0001
,
1000
0001
0100
0110
,
1000
0000
0000
0010
0000
0000
0100
0000
0000
0000
0000
0000
0001
0000
0010
0100
0000
0000
0020
0000
0000
0000
0000
0000
,
0031
0000
1000
0001
0100
0100
0020
0000
,
1030
0100
0010
0000
0001
0010
0100
1000
,
0001
0000
0101
0000
1010
1000
0100
0010
,
0001
1000
1001
0000
1000
0001
1001
0000
,
0001
0100
0110
0000
0010
1000
1100
0000
,
0100
0000
0010
0000
0001
0010
0100
0010
,
0001
0000
0000
0000
1000
0000
0001
0000
0000
0000
0000
0000
1000
0000
0000
0000
0000
0000
0010
0000
0000
0000
0000
0000
0100
0000
0000
0000
0000
0000
0000
0000
0000
0000
0000
0000
0001
0000
0000
0000
0000
0000
0000
0000
0000
0001
0000
0000
,
0000
0000
0100
0000
0010
0000
1000
0000
0100
0000
0000
0000
0100
0000
0000
0010
,
0000
0000
0001
0000
1000
0000
0100
0000
0010
0000
0010
0000
0001
0000
0000
0100
,
0000
0010
1000
0010
0100
0001
0010
0001
,
2000
0000
3100
0010
0002
0000
0103
0100
,
0010
0000
0000
0000
1010
0000
0000
1001
0000
0000
0001
0000
0010
0000
0100
0000
,
1000
0000
0000
0000
1001
0000
0000
0101
0000
0000
0100
0000
0010
0000
1000
0000
,
0002
0000
0013
0000
0200
0000
1300
1000
,
0001
0000
0100
0010
1000
0000
0002
0000
,
0013
0100
0000
1000
0000
0001
0100
0001
,
1000
1000
0010
0010
0100
0001
0010
0001
,
1000
0000
0000
0000
0100
0000
0100
0000
0010
0000
0000
0000
0001
0000
0010
0100
,
0000
1000
0000
0002
0000
0003
0100
0010
,
1000
0000
0001
0000
1000
0000
0100
0000
0001
0000
0000
0100
0000
0000
1000
0000
,
0001
0000
1000
0000
0001
0000
0100
0000
1000
0000
0000
0100
0000
0000
0001
0000
,
2000
0000
3100
0010
0002
0000
0103
0010
,
2000
0000
0000
0000
0100
0000
0000
0000
3002
0000
0000
0000
0000
0100
0000
0000
,
0013
0000
1100
0000
0100
1000
0010
0000
,
0101
0000
0100
0010
1000
0100
1000
0000
,
1001
0001
0010
0100
0010
0001
0100
0010
,
2000
0000
0100
0000
3010
0100
0001
0100
,
0010
0000
0000
0000
1010
0000
0000
1001
0000
0000
0001
0000
0010
0000
0100
0000
,
1000
0000
0000
0000
1001
0000
0000
0011
0000
0000
0010
0000
0100
0000
1000
0000
,
1002
0000
0103
0010
1000
0000
0000
0000
,
2002
0000
3003
0000
;

//---------------dance-single - ----------------
#NOTES:
     dance-single:
     :
     Beginner:
     1:
     0.098,0.146,0.028,0.009,0: // measure 1
0000
0000
0000
0000
,  // measure 2
0000
0000
0000
0000
,  // measure 3
1000
0000
0001
0000
,  // measure 4
0100
0000
0001
0000
,  // measure 5
0010
0000
0100
0000
,  // measure 6
1000
0000
0000
0002
,  // measure 7
0003
0000
0100
0000
,  // measure 8
0001
0000
1000
0000
,  // measure 9
0100
0000
0000
0000
,  // measure 10
0010
0000
0000
0000
,  // measure 11
0001
0000
1000
0000
,  // measure 12
0010
0000
1000
0000
,  // measure 13
0001
0000
0000
0000
,  // measure 14
0100
0000
0000
0000
,  // measure 15
0110
0000
0000
0100
,  // measure 16
0100
0000
0001
0000
,  // measure 17
1001
0000
0100
0000
,  // measure 18
1000
0000
0000
0000
,  // measure 19
0001
0000
0001
0000
,  // measure 20
0010
0000
0010
0000
,  // measure 21
0001
0000
0000
1000
,  // measure 22
1000
0000
0000
0000
,  // measure 23
0100
0000
0000
0010
,  // measure 24
0010
0000
0000
0001
,  // measure 25
0001
0000
0000
0000
,  // measure 26
1000
0000
0000
0000
,  // measure 27
1001
0000
0000
0000
,  // measure 28
0100
0100
0000
0000
,  // measure 29
0001
0000
0000
1000
,  // measure 30
1000
0000
0000
0000
,  // measure 31
0100
0000
0000
0000
,  // measure 32
0010
0000
0001
0000
,  // measure 33
0010
0000
0100
0000
,  // measure 34
1000
0000
0000
0000
,  // measure 35
0001
0000
0000
0000
,  // measure 36
0100
0000
0000
0000
,  // measure 37
0001
0000
0000
1000
,  // measure 38
1000
0000
0001
0000
,  // measure 39
0010
0000
0000
0100
,  // measure 40
0100
0000
0000
1000
,  // measure 41
1000
0000
0001
0000
,  // measure 42
1000
0000
0000
0000
,  // measure 43
0010
0000
0000
0100
,  // measure 44
0100
0000
0000
0000
,  // measure 45
0001
0000
0000
1000
,  // measure 46
1000
0000
0000
0000
;
