#TITLE:MMMBop;
#SUBTITLE:;
#ARTIST:Hanson;
#TITLETRANSLIT:;
#SUBTITLETRANSLIT:;
#ARTISTTRANSLIT:;
#GENRE:;
#CREDIT:;
#BANNER:MMMBop - Hansonbn.png;
#BACKGROUND:MMMBop - Hansonbg.png;
#LYRICSPATH:MMMBop - Hanson.lrc;
#CDTITLE:encorerebirth.png;
#MUSIC:MMMBop - Hanson.ogg;
#OFFSET:0.015;
#SAMPLESTART:45.614;
#SAMPLELENGTH:18.226;
#SELECTABLE:YES;
#BPMS:0.000=105.000
;
#STOPS:
;
#BGCHANGES:;
#KEYSOUNDS:;
#ATTACKS:;

//---------------dance-single - Spork!----------------
#NOTES:
     dance-single:
     :
     Beginner:
     1:
     0.084,0.082,0.067,0.059,0.000,55.000,8.000,7.000,0.000,0.000,0.000,0.084,0.082,0.067,0.059,0.000,55.000,8.000,7.000,0.000,0.000,0.000:
0000
0000
0000
0000
,
0000
0000
0000
0000
,
0000
0000
0000
0000
,
0000
0000
0000
0000
,
1000
0000
0000
0000
,
0100
0000
1000
0000
,
0001
0000
0000
0000
,
0100
0000
0001
0000
,
2000
0000
0000
0000
,
3001
0000
0000
0000
,
0002
0000
0000
0000
,
1003
0000
0000
0000
,
0001
0000
0000
0000
,
0010
0000
0001
0000
,
1000
0000
0000
0000
,
0010
0000
1000
0000
,
0002
0000
0000
0000
,
1003
0000
0000
0000
,
2000
0000
0000
0000
,
3001
0000
0000
0000
,
0100
0100
0000
0000
,
0010
0010
0000
0000
,
0100
0100
0000
0000
,
0001
0000
0000
0000
,
1000
1000
0000
0000
,
0001
0001
0000
0000
,
1000
1000
0000
0000
,
1000
0000
0000
0000
,
0001
0000
0000
0000
,
0100
0000
0000
0000
,
0010
0000
0000
0000
,
1000
0000
0000
0000
,
1000
0000
0000
0000
,
0100
0000
0000
0000
,
0010
0000
0000
0000
,
0001
0000
0000
0000
,
0002
0000
0000
0000
,
1003
0000
0000
0000
,
2000
0000
0000
0000
,
3001
0000
0000
0000
,
0110
0000
0000
0000
,
1001
0000
0000
0000
,
1001
0000
0000
0000
,
0110
0000
0000
0000
,
0110
0000
0000
0000
,
1001
0000
0000
0000
,
1001
0000
0000
0000
,
0110
0000
0000
0000
,
2000
0000
0000
0000
,
3000
0000
0000
0000
;

//---------------dance-single - Spork!----------------
#NOTES:
     dance-single:
     :
     Easy:
     3:
     0.197,0.205,0.150,0.134,0.000,131.000,18.000,16.000,0.000,0.000,0.000,0.197,0.205,0.150,0.134,0.000,131.000,18.000,16.000,0.000,0.000,0.000:
0000
0000
0000
0000
,
0000
0000
0000
0000
,
0000
0000
0000
0000
,
0000
0000
0000
0000
,
0001
0000
0010
0000
,
0001
0000
0100
0001
,
1000
0000
0010
0000
,
1000
0000
0100
1000
,
0020
0000
1030
1000
,
0200
0000
0310
0001
,
0020
0000
0031
0001
,
0200
0000
0310
1000
,
0001
0000
0100
0000
,
0001
0000
0010
0001
,
1000
0000
0100
0000
,
0100
0000
1000
0010
,
0100
0200
0000
0301
,
2000
0000
3001
1000
,
0100
0200
0000
1300
,
0002
0000
1003
0001
,
0010
0010
0001
0100
,
0010
0010
1000
0001
,
1000
1000
0010
1000
,
0001
0000
0110
1001
,
0100
0100
1000
0010
,
0100
0100
0001
1000
,
0001
0001
0100
0001
,
1000
0000
1001
0110
,
0100
0000
0010
0000
,
1000
0000
0100
1000
,
0002
0000
0013
0010
,
0200
0000
1300
1000
,
0010
0000
0100
0000
,
0001
0000
0010
0001
,
1000
1000
0001
0001
,
0020
0000
0130
0100
,
1000
0002
0000
0103
,
0020
0000
0130
0100
,
0001
2000
0000
3100
,
0020
0000
0031
1000
,
1100
1100
0000
0000
,
0101
0101
0000
0000
,
1010
1010
0000
0000
,
0011
0000
0001
0100
,
1010
1010
0000
0100
,
0011
0011
0000
0010
,
1100
1100
0000
0010
,
0101
0000
0001
1000
,
0002
0000
0000
0000
,
0003
0000
0000
0000
;

//---------------dance-single - Spork!----------------
#NOTES:
     dance-single:
     :
     Medium:
     5:
     0.257,0.266,0.184,0.134,0.000,177.000,22.000,16.000,0.000,0.000,0.000,0.257,0.266,0.184,0.134,0.000,177.000,22.000,16.000,0.000,0.000,0.000:
0000
0000
0000
0000
,
0000
0000
0000
0000
,
0000
0000
0000
0000
,
0000
0000
0000
0000
,
0001
0000
0010
0000
0100
0000
1000
0001
,
1000
0000
0010
0000
1000
0000
0001
0001
,
1000
0000
0010
0000
0100
0000
0001
1000
,
0001
0000
0010
0000
0001
0000
1000
1000
,
0002
0000
0103
0001
,
2000
0000
3010
1000
,
0200
0000
1300
0001
,
0020
0000
0031
1000
,
0001
0000
0100
0000
0010
0000
1000
1000
,
0001
0000
0100
0001
1000
0000
0001
0001
,
1000
0000
0100
0000
0010
0000
0001
1000
,
0001
0100
0001
1000
,
0100
0200
0000
1300
,
1000
0001
0100
0010
,
0100
0200
0000
0301
,
0001
0000
1000
1000
,
0001
0011
0001
1000
,
0010
0000
0110
0000
0010
1000
0001
0000
,
1000
1100
1000
0001
,
0200
0000
0310
0010
,
1000
1010
1000
0001
,
0010
0000
0110
0000
0010
0001
1000
0000
,
0001
0101
0001
1000
,
0200
0000
0310
0010
,
0002
0000
0013
0001
,
0200
0000
0310
1000
,
0001
0000
1001
0000
0001
0001
0001
0000
,
1000
0000
1001
0000
1000
1000
1000
0000
,
0200
0000
1300
0001
,
2000
0000
3010
0100
,
0001
0000
1000
0000
1000
1000
0001
1000
,
0002
0000
0013
0001
,
1000
2000
0000
3001
,
0001
1000
0100
1000
,
0001
0002
0000
1003
,
1000
0000
0001
0001
,
0101
1100
0100
0100
,
1100
0000
0101
0000
0001
0001
1000
0000
,
1010
1100
0100
0010
,
1001
0000
0010
0000
1000
0001
1000
0000
,
1010
0011
0010
0010
,
0011
0000
1010
0000
1000
1000
0001
0000
,
0101
0011
0010
0100
,
1001
0100
0010
0010
,
0020
0000
0000
0000
,
0030
0000
0000
0000
;

//---------------dance-single - Spork!----------------
#NOTES:
     dance-single:
     :
     Hard:
     9:
     0.438,0.408,0.242,0.376,0.255,293.000,29.000,45.000,8.000,12.000,0.000,0.438,0.408,0.242,0.376,0.255,293.000,29.000,45.000,8.000,12.000,0.000: // measure 0
0000
0000
0000
0000
,  // measure 1
0000
0000
0000
0000
,  // measure 2
0000
0000
0000
0000
,  // measure 3
0000
0000
0000
0000
,  // measure 4
0010
1000
0100
1000
0010
0100
0001
1000
,  // measure 5
0200
0000
0301
0100
0010
0001
0100
1000
,  // measure 6
0100
0001
0010
0001
0100
0010
1000
0001
,  // measure 7
0200
0000
1300
0100
0010
1000
0100
0001
,  // measure 8
0100
0000
0000
0000
1100
0000
1000
0100
0000
1000
0000
0001
0100
0000
0001
0000
,  // measure 9
0010
0000
0000
0000
0011
0000
0001
0010
0000
0001
0000
0100
0010
0000
1000
0000
,  // measure 10
0001
0000
0000
0000
0101
0000
0001
0100
0000
0001
0000
0010
0100
0000
1000
0000
,  // measure 11
0010
0000
0000
0000
1010
0000
1000
0010
0000
1000
0000
0000
1000
0001
1000
0001
,  // measure 12
1000
0100
0010
0001
0100
0010
1000
0010
,  // measure 13
0200
0000
1300
0100
0001
0010
1000
0010
,  // measure 14
0001
0100
0010
1000
0100
0010
0001
0010
,  // measure 15
0200
0000
0301
0100
1000
0010
0001
0010
,  // measure 16
1000
0001
1002
0000
0100
0000
1003
0100
,  // measure 17
0000
0000
0100
0000
1000
0000
1000
0010
0000
0000
0010
0000
0100
0000
0001
0000
,  // measure 18
1000
0001
2001
0000
0010
0000
3001
0000
,  // measure 19
0001
0010
0100
1000
0001
0000
0001
0000
,  // measure 20
2002
0000
0000
0000
0010
0003
0000
0001
3000
0000
1000
0000
0000
0010
0000
0000
,  // measure 21
0220
0000
0000
0000
0001
0000
0330
0000
0010
0100
0010
0000
0000
1000
0000
0000
,  // measure 22
2200
0000
0000
0000
0001
0300
0000
3100
0000
1000
0100
0000
0000
0010
0000
0000
,  // measure 23
1001
1000
0001
0100
0001
0010
0100
1000
,  // measure 24
2002
0000
0000
0000
0010
3003
0000
1000
0000
0001
0010
0000
0000
0100
0000
0000
,  // measure 25
0220
0000
0000
0000
1000
0000
0330
0000
0010
0100
0010
0000
0000
0001
0000
0000
,  // measure 26
0202
0000
0000
0000
1000
0300
0000
0103
0000
0001
0100
0000
0000
0010
0000
0000
,  // measure 27
0110
0010
1000
0010
0100
0001
1000
0001
,  // measure 28
0020
0000
0000
0000
1000
0000
0030
0010
0000
0001
0000
0000
0100
0000
0010
0000
,  // measure 29
0020
0000
0000
0000
0001
0000
0030
0010
0000
1000
0000
0001
1000
0000
1000
0000
,  // measure 30
0200
0000
0000
0000
0001
0000
0300
0100
0000
1000
0000
0000
0010
0000
0010
0000
,  // measure 31
0200
0000
0000
0000
1000
0000
0300
0100
0000
0001
1000
0001
1000
0001
1000
0000
,  // measure 32
1000
0000
0100
0000
1200
0000
0000
0001
0300
0100
0000
0000
0010
0000
0001
0000
,  // measure 33
1000
0000
0001
0000
0101
0000
0100
0001
0000
0000
0001
1000
0000
0100
0000
0010
,  // measure 34
0000
0000
0010
0000
0001
0100
0000
0001
1000
0000
0100
0000
1000
0000
0010
0000
,  // measure 35
0210
0000
0000
0000
0301
0000
1000
0001
1000
0001
0000
0020
0000
0000
0000
0230
,  // measure 36
0000
0000
2000
0300
0000
0000
0000
0000
0001
0000
0000
0000
3010
0000
0100
0000
,  // measure 37
0001
0000
0000
0000
0010
0000
0000
0000
0010
0000
0000
0000
0001
0000
1000
0000
0001
0000
1000
0000
0000
0000
0020
0000
0000
0000
0000
0000
0000
0200
0000
0000
,  // measure 38
0030
0000
0002
0300
0000
0000
0000
0000
1003
0000
0101
0000
0000
0000
1100
0000
,  // measure 39
1000
0000
0100
0000
0010
0000
0001
0000
0000
0001
1000
0001
1000
0001
1000
0000
,  // measure 40
2200
0000
0011
3300
000M
0000
M000
0000
,  // measure 41
2002
0000
0013
3001
1000
0010
0100
0000
,  // measure 42
0220
0001
M330
000M
,  // measure 43
1001
0000
1000
0100
1000
0000
0010
0000
0100
0000
0001
0000
0010
0000
0001
0000
,  // measure 44
0202
0000
1010
0303
M100
0000
001M
0000
,  // measure 45
2002
0000
3010
1003
0001
0010
0100
0000
,  // measure 46
0220
0000
1000
0330
000M
0000
M000
0000
,  // measure 47
1001
0000
0001
0000
0010
0000
0100
0000
2000
0000
0000
0000
0002
3000
0000
0200
,  // measure 48
0003
0000
0000
0000
0000
0000
0000
0000
0000
0000
0000
0000
0000
0300
0000
0000
;
