#VERSION:0.81;
#TITLE:Voodoo Magic;
#SUBTITLE:;
#ARTIST:Fracus;
#TITLETRANSLIT:;
#SUBTITLETRANSLIT:;
#ARTISTTRANSLIT:;
#GENRE:;
#ORIGIN:;
#CREDIT:;
#BANNER:banner.png;
#BACKGROUND:bg.png;
#PREVIEWVID:;
#JACKET:;
#CDIMAGE:;
#DISCIMAGE:;
#LYRICSPATH:;
#CDTITLE:;
#MUSIC:Voodoo Magic.ogg;
#OFFSET:-0.342857;
#SAMPLESTART:115.554634;
#SAMPLELENGTH:10.971428;
#SELECTABLE:YES;
#BPMS:0.000=87.500,
64.000=175.000,
192.000=87.500,
232.000=175.000;
#STOPS:;
#DELAYS:;
#WARPS:;
#TIMESIGNATURES:0.000=4=4;
#TICKCOUNTS:0.000=4;
#COMBOS:0.000=1;
#SPEEDS:0.000=1.000=0.000=0;
#SCROLLS:0.000=1.000;
#FAKES:;
#LABELS:0.000=Song Start;
#BGCHANGES:;
#KEYSOUNDS:;
#ATTACKS:
;

//---------------dance-single - ----------------
#NOTEDATA:;
#CHARTNAME:;
#STEPSTYPE:dance-single;
#DESCRIPTION:;
#CHARTSTYLE:;
#DIFFICULTY:Beginner;
#METER:2;
#RADARVALUES:0.151505,0.154894,0.006977,0.034886,0.000000,146.000000,1.000000,5.000000,0.000000,0.000000,0.000000,0.000000,0.000000,0.151505,0.154894,0.006977,0.034886,0.000000,146.000000,1.000000,5.000000,0.000000,0.000000,0.000000,0.000000,0.000000;
#CREDIT:;
#NOTES:
0000
0000
0000
0000
,
0000
0000
0000
0000
,
0000
0000
0000
0000
,
0000
0000
0000
0000
,
0001
0000
0000
0000
,
0000
0000
0000
0000
,
1000
0000
0000
0000
,
0000
0000
0000
0000
,
0001
0000
0100
0000
,
0010
0000
1000
0000
,
1000
0000
0100
0000
,
0010
0000
0001
0000
,
0001
0000
0100
0000
,
0010
0000
1000
0000
,
1000
0000
0100
0000
,
0010
0000
0001
0000
,
0001
0000
0001
0000
,
1000
0000
1000
0000
,
0200
0000
0310
0000
,
0010
0000
0100
0000
,
1000
0000
1000
0000
,
0001
0000
0001
0000
,
0100
0100
0100
0000
,
0010
0010
0010
0000
,
1000
0000
1000
0000
,
0001
0000
0001
0000
,
0020
0000
0130
0000
,
0100
0000
0010
0000
,
0001
0000
0001
0000
,
1000
0000
1000
0000
,
0010
0010
0010
0000
,
0100
0100
0100
0000
,
0001
0000
0100
0000
,
0010
0000
1000
0000
,
0100
0000
0100
0000
,
0010
0000
0010
0000
,
0001
0000
0010
0000
,
0100
0000
1000
0000
,
0010
0000
0010
0000
,
0100
0000
0100
0000
,
0001
0000
1000
0000
,
0100
0000
1000
0000
,
0001
0000
0100
0000
,
0100
0000
0001
0000
,
1000
0000
0010
0000
,
1000
0000
0001
0000
,
0010
0000
0010
0000
,
0001
0000
1000
0000
,
0001
0000
1000
0000
,
0002
0000
0000
0000
,
0103
0100
0100
0000
,
0010
0010
0010
0000
,
1000
0000
0100
0000
,
0010
0000
0001
0000
,
0100
0100
0100
0000
,
0010
0010
0010
0000
,
1000
0000
0010
0000
,
0100
0000
0001
0000
,
1000
0000
1000
0000
,
0001
0000
0001
0000
,
0020
0000
0130
0000
,
0100
0000
0010
0000
,
0001
0000
0001
0000
,
1000
0000
1000
0000
,
0010
0010
0010
0000
,
0100
0100
0100
0000
,
0001
0000
0001
0000
,
1000
0000
1000
0000
,
0020
0000
0130
0000
,
0100
0000
0010
0000
,
1000
0000
1000
0000
,
0001
0000
0001
0000
,
0010
0010
0010
0000
,
0100
0100
0100
0000
,
1001
0000
0000
0000
;

//---------------dance-single - ----------------
#NOTEDATA:;
#CHARTNAME:;
#STEPSTYPE:dance-single;
#DESCRIPTION:;
#CHARTSTYLE:;
#DIFFICULTY:Easy;
#METER:4;
#RADARVALUES:0.260150,0.232341,0.027909,0.041863,0.000000,251.000000,4.000000,6.000000,0.000000,0.000000,0.000000,0.000000,0.000000,0.260150,0.232341,0.027909,0.041863,0.000000,251.000000,4.000000,6.000000,0.000000,0.000000,0.000000,0.000000,0.000000;
#CREDIT:;
#NOTES:
// measure 0
0000
0000
0000
0000
,  // measure 1
0000
0000
0000
0000
,  // measure 2
0000
0000
0000
0000
,  // measure 3
0000
0000
0000
0000
,  // measure 4
0001
1000
0000
0000
,  // measure 5
0000
0000
0000
0000
,  // measure 6
0010
0100
0000
0000
,  // measure 7
0000
0000
0000
0000
,  // measure 8
1000
0000
0001
0100
,  // measure 9
0010
0000
0010
0100
,  // measure 10
0001
0000
1000
0100
,  // measure 11
0010
0000
0010
0100
,  // measure 12
1000
0000
0001
0100
,  // measure 13
0010
0000
0010
0100
,  // measure 14
0001
0000
1000
0010
,  // measure 15
0100
0000
0100
0010
,  // measure 16
1000
0100
0100
0010
,  // measure 17
0001
0001
0001
0001
,  // measure 18
2000
0000
3010
0010
,  // measure 19
0200
0000
0310
1000
,  // measure 20
0001
0010
0010
0100
,  // measure 21
1000
1000
1000
1000
,  // measure 22
0100
0100
0010
0001
,  // measure 23
0100
0100
0010
1000
,  // measure 24
0001
0001
1000
0010
,  // measure 25
0100
0100
0100
0100
,  // measure 26
0002
0000
1000
1003
,  // measure 27
0200
0000
1300
0001
,  // measure 28
1000
1000
0001
0010
,  // measure 29
0100
0100
0100
0100
,  // measure 30
1000
1000
0010
0100
,  // measure 31
0001
0001
0010
0100
,  // measure 32
1000
0001
0100
0001
,  // measure 33
1000
0001
0100
0001
,  // measure 34
1000
0100
0010
0100
,  // measure 35
1000
0001
0100
0001
,  // measure 36
0001
1000
0100
1000
,  // measure 37
0001
1000
0100
1000
,  // measure 38
0001
0100
0010
0100
,  // measure 39
0001
1000
0100
1000
,  // measure 40
0001
0001
0100
0100
,  // measure 41
0010
1000
0001
0100
,  // measure 42
0001
0001
0010
0010
,  // measure 43
0100
1000
0001
0010
,  // measure 44
0001
0001
0100
0100
,  // measure 45
0010
1000
0100
1000
,  // measure 46
1000
1000
0010
0010
,  // measure 47
0100
0001
0010
0001
,  // measure 48
0100
0001
1000
0100
,  // measure 49
0220
0000
0000
0000
0000
0000
0000
0330
,  // measure 50
1000
0000
0001
0100
,  // measure 51
0010
0010
0100
0100
,  // measure 52
0001
0000
1000
0100
,  // measure 53
0010
0010
0100
0100
,  // measure 54
1000
0000
0001
0100
,  // measure 55
0001
0001
0010
0100
,  // measure 56
1000
0000
0001
0000
,  // measure 57
1000
0000
0001
0000
1000
0001
1000
0001
,  // measure 58
1000
0010
0100
0001
,  // measure 59
0010
0010
0010
1001
,  // measure 60
0001
0100
0010
0100
,  // measure 61
0001
1000
0001
1000
,  // measure 62
0001
0100
0010
1000
,  // measure 63
0100
0100
0100
1001
,  // measure 64
0001
0100
0001
0001
,  // measure 65
1000
0100
1000
1000
,  // measure 66
0010
0010
0100
0100
,  // measure 67
0001
0010
0100
1000
,  // measure 68
0001
0100
0001
0100
,  // measure 69
0010
1000
0100
0100
,  // measure 70
1000
1000
0001
0001
,  // measure 71
1000
0100
0010
0001
,  // measure 72
1000
0010
1000
0010
,  // measure 73
1000
0001
0010
0100
,  // measure 74
1001
0000
0000
0000
;

//---------------dance-single - ----------------
#NOTEDATA:;
#CHARTNAME:;
#STEPSTYPE:dance-single;
#DESCRIPTION:;
#CHARTSTYLE:;
#DIFFICULTY:Medium;
#METER:7;
#RADARVALUES:0.442554,0.542128,0.209316,0.153498,0.020932,392.000000,30.000000,22.000000,0.000000,0.000000,0.000000,0.000000,0.000000,0.442554,0.542128,0.209316,0.153498,0.020932,392.000000,30.000000,22.000000,0.000000,0.000000,0.000000,0.000000,0.000000;
#CREDIT:;
#NOTES:
// measure 0
0000
0000
0000
0000
,  // measure 1
0000
0000
0000
0000
,  // measure 2
0000
0000
0000
0000
,  // measure 3
0000
0000
0000
0000
,  // measure 4
0001
1000
0002
0000
0000
0000
0000
0000
,  // measure 5
0003
0000
0000
0000
0000
0000
0000
1000
,  // measure 6
0010
0100
0020
0000
0000
0000
0000
0000
,  // measure 7
0030
0000
0000
1001
,  // measure 8
1000
0000
0100
0000
0010
0001
1000
0000
,  // measure 9
0001
0000
0100
0000
0020
0000
2030
3000
,  // measure 10
1000
0000
0100
0000
0010
0100
1000
0000
,  // measure 11
1000
0010
0200
0320
,  // measure 12
1030
0000
0100
0000
0010
0001
1000
0000
,  // measure 13
0001
0100
0020
2030
,  // measure 14
3001
0000
0010
0000
0100
0010
0001
1000
,  // measure 15
0001
0001
0100
0100
0010
0100
0001
1001
,  // measure 16
1000
0000
0100
0010
0001
1000
0010
0000
,  // measure 17
0200
0302
0000
0023
0000
0032
0000
0103
,  // measure 18
0010
0000
1000
0000
0100
1000
0001
0100
,  // measure 19
0000
0010
1000
0001
0000
1000
0001
0000
,  // measure 20
1000
0000
0001
1000
0010
0100
0001
0000
,  // measure 21
1000
2000
0000
3200
0000
0320
0000
0032
,  // measure 22
1003
0001
1000
0001
0100
0001
1000
0001
,  // measure 23
0010
0100
0010
1000
0010
1000
0010
0100
,  // measure 24
1000
0000
0001
0100
0010
1000
0001
0000
,  // measure 25
0200
0001
0000
1000
0000
0320
0000
0031
,  // measure 26
1000
0000
0001
0000
0100
0010
1000
0010
,  // measure 27
0000
0100
0001
1000
0000
1000
0100
0000
,  // measure 28
0100
0000
0010
0001
1000
0010
0100
0000
,  // measure 29
0200
0001
0000
1000
0000
0320
0000
0031
,  // measure 30
0010
1000
0010
1000
0010
0100
0001
0010
,  // measure 31
0100
0001
0100
0001
0100
0001
0100
1000
,  // measure 32
0001
0000
0100
0000
0010
1000
0010
0000
,  // measure 33
1000
0100
0010
0000
0001
0100
0010
0000
,  // measure 34
1000
0000
0010
0000
0001
0010
1000
0000
,  // measure 35
0001
0010
1000
0000
1000
0010
0001
0000
,  // measure 36
1000
0000
0010
0000
0100
0001
0100
0000
,  // measure 37
0001
0010
0100
0000
1000
0010
0100
0000
,  // measure 38
0001
0000
0100
0000
1000
0100
0001
0000
,  // measure 39
1000
0100
0001
0000
0001
0100
1000
0000
,  // measure 40
0001
0101
0001
0011
,  // measure 41
0100
1100
1000
1010
,  // measure 42
0001
0011
0010
1010
,  // measure 43
0010
0011
1000
1010
,  // measure 44
0001
0011
0001
0101
,  // measure 45
0100
0110
0010
1010
,  // measure 46
1000
0000
0100
0001
0100
1000
0001
1000
,  // measure 47
0010
0010
0010
1001
,  // measure 48
1000
0000
0100
0000
0010
0000
0000
0000
0001
0000
0100
0000
0020
0000
0000
0100
,  // measure 49
0000
0000
0100
0000
0000
0100
0000
0000
0100
0000
0000
0130
0000
0000
1001
0000
,  // measure 50
0001
0100
0001
1000
0100
0100
1001
0000
,  // measure 51
0001
0100
0001
0001
1000
0100
1000
1000
,  // measure 52
0010
0100
0001
1000
0100
0010
0011
0000
,  // measure 53
0001
0001
1000
0010
1000
1000
0001
0010
,  // measure 54
0001
0100
0010
1000
0100
1000
0101
0000
,  // measure 55
0010
0010
1000
0001
0100
0100
1000
0001
,  // measure 56
1001
0110
1001
0110
,  // measure 57
1002
0000
1000
0000
1000
0000
1003
0000
0001
1000
0001
1000
0001
1000
0001
0000
,  // measure 58
1000
0000
0100
0000
0010
0001
1000
0000
,  // measure 59
0001
0100
1000
0100
0001
0000
1001
0000
,  // measure 60
1000
0100
0010
0000
0001
0100
0010
0000
,  // measure 61
0010
1000
0100
0000
0010
0001
0100
0000
,  // measure 62
0010
0000
0010
0000
1000
0001
0010
0000
,  // measure 63
0001
0010
1000
0010
0001
0000
1001
0000
,  // measure 64
0001
0100
0010
0100
0001
0000
1001
0000
,  // measure 65
1000
0100
0010
0001
1000
0000
1001
0000
,  // measure 66
0001
0000
0100
0000
0010
1000
0001
0000
,  // measure 67
1000
0100
0001
0100
1000
0000
1001
0000
,  // measure 68
0001
0100
0010
0000
1000
0100
0010
0000
,  // measure 69
0010
0001
0100
0000
0010
1000
0100
0000
,  // measure 70
0010
0000
0001
0000
1000
0010
1000
0000
,  // measure 71
0001
0010
0001
0100
0010
0000
1000
0010
,  // measure 72
0000
1000
0010
0000
1000
0010
0000
1000
,  // measure 73
0010
0001
0010
1000
0001
1000
0001
0000
,  // measure 74
1001
0000
0000
0000
;

//---------------dance-single - ----------------
#NOTEDATA:;
#CHARTNAME:;
#STEPSTYPE:dance-single;
#DESCRIPTION:;
#CHARTSTYLE:;
#DIFFICULTY:Hard;
#METER:9;
#RADARVALUES:0.633928,0.722838,0.369792,0.076749,0.334906,572.000000,53.000000,11.000000,0.000000,0.000000,20.000000,0.000000,0.000000,0.633928,0.722838,0.369792,0.076749,0.334906,572.000000,53.000000,11.000000,0.000000,0.000000,20.000000,0.000000,0.000000;
#CREDIT:;
#NOTES:
// measure 0
0000
0000
0000
0000
,  // measure 1
0000
0000
0000
0000
,  // measure 2
0000
0000
0000
0000
,  // measure 3
0000
0000
0000
0000
,  // measure 4
0010
0000
1000
0000
0002
2000
0000
0000
0000
0000
0000
0000
0000
0000
0000
0000
,  // measure 5
3003
0000
0000
0000
0000
0000
0000
0000
0000
0000
0000
0000
0000
0000
0001
1000
,  // measure 6
0100
0000
1000
0000
0002
2000
0000
0000
0000
0000
0000
0000
0000
0000
0000
0000
,  // measure 7
3003
0000
0000
1001
,  // measure 8
1000
0000
0100
0000
0011
0000
1000
0000
0001
0100
1000
0100
0001
0000
0001
0000
,  // measure 9
1000
0100
0110
0100
1000
0001
0101
0001
,  // measure 10
1000
0000
0010
0000
0101
0000
1000
0000
0100
0001
0100
1000
0001
0000
0001
0000
,  // measure 11
1000
0010
0110
0010
1000
0001
0011
0001
,  // measure 12
1000
0000
0100
0000
1010
0000
0100
0000
0001
1000
0001
0010
0001
0000
1000
0000
,  // measure 13
0010
0100
0101
0100
0010
1000
1100
1000
,  // measure 14
1001
0101
0110
1010
,  // measure 15
1001
0000
0000
0000
1001
0000
0000
0000
1001
0000
0000
0000
1001
0000
0000
0000
1000
0000
0001
0000
1000
0000
0001
0000
1000
0001
1000
0001
1000
0000
0000
0000
,  // measure 16
0001
0000
0100
0000
0010
0000
1000
0100
1000
0100
1000
0000
0001
0000
0100
0000
,  // measure 17
0004
0043
0000
4030
0000
3040
0000
0034
,  // measure 18
1003
0000
0010
0000
1000
0000
0001
0010
0001
0010
0001
0000
0010
0000
0100
1000
,  // measure 19
0100
1000
0100
0000
1000
0000
0001
0100
0001
0100
0001
0000
0100
0000
0010
0000
,  // measure 20
1000
0000
0100
0000
1000
0000
0001
0010
0001
0010
0001
0000
1000
0000
0010
0000
,  // measure 21
4000
3400
0000
0304
0000
0403
0000
4300
,  // measure 22
3010
0001
0010
1000
0100
0001
1000
0010
,  // measure 23
0100
0001
0100
1000
0010
0001
0010
1000
,  // measure 24
0001
0000
0100
0000
0001
0000
1000
0010
1000
0010
1000
0000
0001
0000
0010
0000
,  // measure 25
0004
0403
0000
4300
0000
3400
0000
0340
,  // measure 26
1030
0000
0100
0000
1000
0000
0001
0010
0001
0010
0001
0000
0010
0000
0100
1000
,  // measure 27
0100
1000
0100
0000
1000
0000
0001
0100
0001
0100
0001
0000
0100
0000
0010
0000
,  // measure 28
1000
0000
0010
0000
1000
0000
0100
1000
0100
1000
0100
0000
1000
0000
0100
0000
,  // measure 29
4000
3040
0000
0034
0000
0043
0000
4030
,  // measure 30
3001
0010
1000
0001
0100
1000
0010
0001
,  // measure 31
0010
0100
0001
0010
1000
0010
0002
0000
,  // measure 32
1003
0000
1001
0000
0001
0010
0100
0000
,  // measure 33
1000
0100
0010
0100
1000
0010
0100
0000
,  // measure 34
0100
0001
0100
0010
0100
1000
0100
0010
,  // measure 35
0100
0001
0010
1000
0010
0001
1000
0000
,  // measure 36
1001
0000
1001
0000
0001
0100
0010
0000
,  // measure 37
1000
0100
0010
0100
1000
0010
0100
0000
,  // measure 38
0010
1000
0010
0100
0010
0001
0010
0100
,  // measure 39
0010
0000
1000
0000
0100
0000
0001
0000
0100
0000
1000
0000
0001
0000
1000
0001
,  // measure 40
1000
0100
1100
0000
0001
0100
0101
0000
,  // measure 41
0001
0010
0011
0000
1000
0010
1010
0000
,  // measure 42
1000
0001
0101
0000
0001
1000
1100
0000
,  // measure 43
1000
0001
0011
0000
0001
1000
1010
0000
,  // measure 44
0001
0100
0110
0000
1000
0100
0110
0000
,  // measure 45
0001
0100
0110
0000
1000
0100
0110
0000
,  // measure 46
1001
0000
1000
0100
0001
0100
1000
0010
,  // measure 47
0001
0010
0001
0010
0001
0010
1000
0001
,  // measure 48
1000
0000
0100
0000
1000
0001
0000
0000
0100
1000
0100
0001
1000
0000
1000
0100
,  // measure 49
0000
0000
0100
0000
0010
0000
0000
0000
0010
0000
0001
0000
0000
0000
0001
0000
1000
0000
0000
0000
1000
0000
0010
0000
0000
0000
0010
0000
0100
0010
0100
0000
,  // measure 50
0001
0000
1000
0000
0010
0100
0001
0000
2000
0100
3100
1000
0001
0000
0000
0000
,  // measure 51
1000
0000
0010
0000
0001
0000
0010
0000
1000
0000
0100
0000
0001
0000
0000
0000
0100
1000
0100
0000
1000
0000
0001
0000
0100
0000
1000
0000
0100
0000
0001
0000
,  // measure 52
1000
0000
0001
0000
0010
0001
1000
0000
0020
0100
0130
0001
1000
0000
0000
0000
,  // measure 53
0001
0000
0010
0000
1000
0000
0010
0000
0001
0000
0200
0000
1000
0000
0000
0000
0301
0010
0001
0000
1000
0000
0010
0000
0001
0000
0010
0000
1000
0000
0001
0000
,  // measure 54
0010
0000
0001
0000
1000
0010
1000
0000
0200
0001
0301
0100
1000
0000
0000
0000
,  // measure 55
0001
0000
0100
0000
1000
0000
0100
0000
0001
0000
0020
0000
1000
0000
0000
0000
0031
0100
0001
0000
1000
0000
0100
0000
0001
0000
0100
0000
1000
0000
0010
0000
,  // measure 56
0110
0000
0010
0000
1000
0001
0000
0000
1001
0000
0100
0000
0010
0100
0000
0000
,  // measure 57
1001
0000
0000
0000
1001
0000
0000
0000
1001
0000
0000
0000
1001
0000
0000
0000
0001
0000
1000
0000
0001
0000
1000
0000
0001
1000
0001
1000
0001
0000
0000
0000
,  // measure 58
1000
0000
0100
0000
0010
0000
0100
1000
0100
1000
0100
0000
1000
0000
0001
0000
,  // measure 59
0100
0100
0100
0100
0010
1000
1001
0000
,  // measure 60
1000
0100
0001
0100
1000
0010
0001
0000
,  // measure 61
1000
0001
1000
0000
0001
0000
0010
0000
1000
0000
0100
0000
0010
0000
0001
0000
,  // measure 62
1000
0000
0010
0000
0100
0000
0001
0010
0001
0010
0001
0000
0010
0000
0100
0000
,  // measure 63
1000
1000
0001
0001
1000
0010
0110
0000
,  // measure 64
0010
0010
0100
0100
0010
1000
1001
0000
,  // measure 65
0001
1001
0000
1000
1001
0001
1001
0000
,  // measure 66
1000
0000
0100
0000
1000
0000
0001
0100
0001
0100
0001
0000
0100
0000
0001
0000
,  // measure 67
0010
0010
0010
0010
0010
0100
1001
0000
,  // measure 68
0001
0100
1000
0100
0001
0020
1000
0000
,  // measure 69
0031
0100
0001
0000
1000
0000
0100
0000
0001
0000
0100
0000
1000
0000
0001
0000
,  // measure 70
0100
0000
0010
0000
1000
0000
0001
1000
0001
1000
0001
0000
1000
0000
0100
0000
,  // measure 71
0010
0010
0010
0010
0110
0000
0100
1100
,  // measure 72
0000
1000
1001
0000
0001
0101
0000
0100
,  // measure 73
0110
0010
1000
0001
0010
0001
1000
0000
,  // measure 74
1001
0000
0000
0000
;
