#TITLE:Roar;
#SUBTITLE:;
#ARTIST:Katy Perry;
#TITLETRANSLIT:;
#SUBTITLETRANSLIT:;
#ARTISTTRANSLIT:;
#GENRE:Pop;
#CREDIT:;
#BANNER:Roar.png;
#BACKGROUND:Roar-bg.png;
#LYRICSPATH:;
#CDTITLE:;
#MUSIC:Roar.mp3;
#OFFSET:-0.069660;
#SAMPLESTART:0.000000;
#SAMPLELENGTH:15.000000;
#SELECTABLE:YES;
#BPMS:0.000000=90.000000
,120.000000=86.500000
,122.000000=90.000000
;
#STOPS:
;
#BGCHANGES:-0.500=Roar.avi=1.000=0=0=0=StretchNoLoop====,
99999=-nosongbg-=1.000=0=0=0 // don't automatically add -songbackground-
;
#KEYSOUNDS:;
#ATTACKS:;

//---------------dance-single - ----------------
#NOTES:
     dance-single:
     :
     Hard:
     7:
     0.410634,0.404427,0.467932,0.163405,0.081702,302.000000,63.000000,22.000000,0.000000,0.000000,0.000000,0.410634,0.404427,0.467932,0.163405,0.081702,302.000000,63.000000,22.000000,0.000000,0.000000,0.000000:
0000
0000
0000
0000
,
0000
0000
0000
0000
,
0001
0000
0010
0000
0100
0000
1000
0000
0110
0000
0001
0010
0000
0010
0001
0000
,
1000
0000
0010
0000
0100
0000
0001
0000
0110
0000
0100
1000
0000
1000
0001
0000
,
0100
0000
0010
0000
1010
0000
1000
0001
0000
0001
0100
0000
0010
0000
0100
0000
,
0001
0000
1000
0000
1100
0000
1000
0001
0000
0001
0100
0000
0010
0000
1000
0000
,
0100
0000
0010
0000
0001
0000
1000
0000
0110
0000
0010
0100
0000
0100
0001
0000
,
0010
0000
0100
0000
1000
0000
0001
0000
0110
0000
0100
1000
0000
1000
0001
0000
,
0100
0000
0010
0000
1001
0000
0100
0010
0000
0010
0100
0000
1000
0000
0010
0000
,
0100
0000
0001
0000
1001
0000
1000
0100
0000
0100
1000
0000
0110
0000
0001
0000
,
0100
0010
1001
0000
0100
0010
1001
0110
,
0000
0000
0010
0000
1000
0100
1000
0100
1000
0000
0001
0000
0100
0000
0000
0000
,
0010
1000
2200
3300
0010
0001
0202
0303
,
0000
0000
0010
0000
0100
0001
0100
0001
0100
0000
0010
0000
1010
0000
1000
0000
,
0001
0010
0011
0100
1000
0001
1001
0110
,
0000
0000
0010
0000
0100
0001
0100
0001
0100
0000
0010
0000
1010
0000
1000
0000
,
0001
0010
0220
0330
0100
1000
2002
3003
,
0001
0100
0010
1000
0001
0010
0100
1100
,
0000
0011
0100
1100
0000
1001
0000
0001
,
0100
1000
0100
0101
0000
1010
0010
0110
,
0000
1001
0001
0011
0000
0110
0000
0100
,
1000
0010
0001
0010
0000
1000
0000
0002
,
0000
0000
1003
0100
0000
0011
0000
0001
,
0010
0100
1000
1010
0000
0101
0001
1010
,
0000
0110
0001
1001
0000
0110
0000
0010
,
1000
0100
0001
0010
0000
0110
0000
2002
,
0000
0000
3003
0010
0100
1000
0001
0001
,
0100
0010
1000
0100
0010
0001
1000
1000
,
0010
0100
0001
0010
0100
1000
0010
0010
,
1000
0010
0001
0100
0000
1000
0000
2002
,
0000
3003
0000
0000
,
0000
0000
0200
0000
,
0320
0000
0000
0000
,
2030
0000
0001
0001
3001
0000
0100
0010
,
1000
0001
1000
0001
0100
0010
0100
0010
,
1000
0100
0001
0100
1000
0010
0001
0010
,
1000
0000
0000
0000
0000
0000
0000
1001
,
0000
0110
0010
0011
0000
1100
0000
1100
,
1000
1001
0001
0101
0000
1010
0010
0110
,
0000
1001
0001
0011
0000
1100
0000
0001
,
0010
1000
0010
0001
0000
1000
0000
0220
,
0000
0000
0330
0100
0000
0101
0000
0010
,
1000
0100
1000
1001
0000
0110
0010
0011
,
0000
1100
1000
1001
0000
0110
0000
0010
,
0001
0100
1000
0010
0000
0100
0000
2002
,
0000
0000
3003
0001
0010
0100
1000
1000
,
0001
0100
0010
0100
0001
0010
0100
0100
,
1000
0010
0001
0010
1000
0001
0010
0010
,
1000
0100
0001
0010
0000
0100
0000
2002
,
0000
0000
3003
0000
;

//---------------dance-single - ----------------
#NOTES:
     dance-single:
     :
     Medium:
     5:
     0.285428,0.275746,0.000000,0.259962,0.000000,234.000000,0.000000,35.000000,0.000000,0.000000,0.000000,0.285428,0.275746,0.000000,0.259962,0.000000,234.000000,0.000000,35.000000,0.000000,0.000000,0.000000:
0000
0000
0000
0000
,
0000
0000
0000
0000
,
0001
0000
0100
0000
0010
1000
0100
0000
,
0010
0000
0001
0000
1000
0001
0100
0000
,
0010
0000
0100
0000
0001
1000
0100
0000
,
0010
0000
0001
0000
0010
0100
1000
0000
,
0001
0000
0100
0000
0010
1000
0001
0000
,
0010
0000
0100
0000
1000
0001
0100
0000
,
0010
0000
1000
0000
0001
0010
0100
0000
,
1000
0000
0010
0000
0100
0001
0010
0000
,
0100
0000
1000
0000
0100
1000
0001
0000
,
0100
0000
0010
0000
0100
0001
0010
0000
,
0100
1000
0010
0000
0100
0001
0010
0000
,
0000
0100
1000
0001
0100
0010
1000
0000
,
0001
0010
0100
0000
1000
0001
0100
0000
,
0000
0010
0100
0001
1000
0100
0010
0000
,
0010
0001
1000
0000
0010
0100
0001
0000
,
0000
0010
0001
1000
0010
0100
0001
2000
,
0000
3001
0100
0020
0000
0130
0000
0001
,
0010
0100
1000
0020
0000
1030
0001
0020
,
0000
0031
1000
0200
0000
1300
0000
0010
,
0100
0001
1000
0200
0000
0320
0000
0032
,
0000
0000
1003
0020
0000
0130
0000
0001
,
0010
0001
1000
0200
0000
1300
0010
0200
,
0000
0310
1000
0002
0000
0013
0000
0100
,
1000
0010
0100
0001
0000
1000
0000
0002
,
0000
0000
1003
0000
0001
1000
0001
0000
,
0100
0000
0010
0000
0100
0010
0100
0000
,
0010
0000
1000
0000
0010
1000
0010
0000
,
1000
0001
1000
0001
0000
1000
0000
0020
,
0000
0030
0000
0000
,
0000
0000
0200
0000
,
0302
0000
0000
0000
,
2003
0000
0000
0000
,
3001
0001
1000
1000
,
0010
0010
0010
0010
0100
0100
0100
0100
,
0001
0000
0000
0000
0000
0000
0000
0020
,
0000
0130
1000
0002
0000
0103
0000
0010
,
1000
0100
1000
0002
0000
0013
0100
2000
,
0000
3010
1000
0002
0000
0013
0000
0100
,
1000
0010
0100
0002
0000
2003
0000
3200
,
0000
0000
0310
0200
0000
1300
0000
0010
,
0100
0001
0100
0020
0000
1030
0001
0020
,
0000
0031
0100
0020
0000
0130
0000
0001
,
0100
0010
1000
0002
0000
2003
0000
3200
,
0000
0000
0310
0000
0001
0010
0001
0000
,
1000
0000
0010
0000
1000
0010
1000
0000
,
0010
0000
0100
0000
0010
0100
0010
0000
,
1000
0001
1000
0002
0000
2003
0000
3020
,
0000
0000
0030
0000
;

//---------------dance-single - ----------------
#NOTES:
     dance-single:
     :
     Easy:
     3:
     0.186748,0.183830,0.029710,0.222825,0.000000,142.000000,4.000000,30.000000,0.000000,0.000000,0.000000,0.186748,0.183830,0.029710,0.222825,0.000000,142.000000,4.000000,30.000000,0.000000,0.000000,0.000000:
0000
0000
0000
0000
,
0000
0000
0000
0000
,
1000
0001
1000
0000
,
0010
0100
0010
0000
,
1000
0001
0010
0000
,
0100
1000
0001
0000
,
0100
0010
0100
0000
,
0001
1000
0001
0000
,
0010
0001
0010
0000
,
0100
1000
0100
0000
,
1000
1000
0001
0001
,
0000
0100
0010
0100
,
0002
0003
2000
3000
,
0000
0010
0100
0001
,
0010
0100
1000
0001
,
0000
0100
0010
1000
,
0002
0003
2000
3000
,
0010
0100
0001
1000
,
0020
0030
0200
0300
,
0001
0010
0100
1000
,
0002
0003
2000
3000
,
0010
0100
0001
1000
,
0200
0300
2000
3000
,
0001
0100
0010
1000
,
0002
0003
0020
0030
,
0100
1000
0010
0100
,
2002
3003
0001
1000
,
0010
0100
0010
0100
,
0001
1000
0001
1000
,
0100
0010
0001
1000
,
2002
3003
0000
0000
,
0000
0000
0020
0000
,
0230
0000
0000
0000
,
0302
0000
1000
0000
,
1003
1000
0001
0001
,
0100
0100
0010
0010
,
1001
0000
0000
0000
,
0002
0003
2000
3000
,
0010
0100
0001
1000
,
0020
0030
0200
0300
,
0001
0010
0100
1000
,
0002
0003
0020
0030
,
0100
1000
0001
0100
,
2000
3000
0200
0300
,
0010
1000
0001
0010
,
0220
0330
0100
1000
,
0001
1000
0001
1000
,
0001
0010
0001
0010
,
0100
1000
0001
0100
,
0020
0000
0030
0000
;

//---------------dance-single - ----------------
#NOTES:
     dance-single:
     :
     Beginner:
     1:
     0.059420,0.072789,0.007427,0.000000,0.000000,55.000000,1.000000,0.000000,0.000000,0.000000,0.000000,0.059420,0.072789,0.007427,0.000000,0.000000,55.000000,1.000000,0.000000,0.000000,0.000000,0.000000:
// measure 0
0000
0000
0000
0000
,  // measure 1
0000
0000
0000
0000
,  // measure 2
1000
0000
0000
0000
,  // measure 3
0001
0000
0000
0000
,  // measure 4
0100
0000
0000
0000
,  // measure 5
0010
0000
0000
0000
,  // measure 6
1000
0000
0000
0000
,  // measure 7
0100
0000
0000
0000
,  // measure 8
0010
0000
0000
0000
,  // measure 9
0001
0000
0000
0000
,  // measure 10
0100
0000
0100
0000
,  // measure 11
0000
0000
0000
0000
,  // measure 12
0010
0000
0010
0000
,  // measure 13
0000
0000
0000
0000
,  // measure 14
1000
0000
1000
0000
,  // measure 15
0000
0000
0000
0000
,  // measure 16
0001
0000
0001
0000
,  // measure 17
0000
0000
0000
0000
,  // measure 18
1001
0000
0000
0000
,  // measure 19
0100
0000
0000
0000
,  // measure 20
0010
0000
0000
0000
,  // measure 21
1000
0000
0000
0000
,  // measure 22
0001
0000
0000
0000
,  // measure 23
0010
0000
0000
0000
,  // measure 24
0100
0000
0000
0000
,  // measure 25
1000
0000
0000
0000
,  // measure 26
0001
0000
0001
0000
,  // measure 27
0001
0000
0000
0000
,  // measure 28
1000
0000
1000
0000
,  // measure 29
1000
0000
0000
0000
,  // measure 30
0010
0000
0000
0000
,  // measure 31
0000
0000
0100
0000
,  // measure 32
0001
0000
0000
0000
,  // measure 33
1000
0000
0000
0000
,  // measure 34
0001
0000
0001
0000
,  // measure 35
0100
0000
0100
0000
,  // measure 36
0010
0000
0000
0000
,  // measure 37
1000
0000
0000
0000
,  // measure 38
0010
0000
0000
0000
,  // measure 39
0100
0000
0000
0000
,  // measure 40
0001
0000
0000
0000
,  // measure 41
0010
0000
0000
0000
,  // measure 42
0100
0000
0000
0000
,  // measure 43
1000
0000
0000
0000
,  // measure 44
0001
0000
0000
0000
,  // measure 45
0100
0000
0100
0000
,  // measure 46
0100
0000
0000
0000
,  // measure 47
0010
0000
0010
0000
,  // measure 48
0010
0000
0010
0000
,  // measure 49
0010
0000
0000
0000
;
