#TITLE:Nijuu;
#SUBTITLE:;
#ARTIST:DJ TECHNORCH;
#TITLETRANSLIT:;
#SUBTITLETRANSLIT:;
#ARTISTTRANSLIT:;
#GENRE:;
#CREDIT:Loodee;
#BANNER:Nijuu-bn.png;
#BACKGROUND:Nijuu-bg.png;
#LYRICSPATH:;
#CDTITLE:loodeecdtitle.png;
#MUSIC:Nijuu.ogg;
#OFFSET:-0.007;
#SAMPLESTART:71.018;
#SAMPLELENGTH:16.423;
#SELECTABLE:YES;
#DISPLAYBPM:160.000;
#BPMS:0.000=120.000,22.000=160.000;
#STOPS:;
#BGCHANGES:;
#KEYSOUNDS:;

//---------------dance-single - Loodee----------------
#NOTES:
     dance-single:
     Loodee:
     Challenge:
     13:
     1.000,1.000,0.244,0.554,1.000:
0000
0000
0000
0000
,
0000
0000
0000
0000
,
0000
0000
0000
0000
,
0000
0000
0000
0000
,
0000
0000
0000
0000
,
0000
0000
0000
0000
0000
0000
0000
0000
MM11
0000
0010
0000
0001
1000
0010
0000
,
1000
0000
0001
0000
0100
0010
1000
0010
1000
0100
0010
0001
1000
0100
0010
0001
,
0200
0000
0000
0300
0200
0000
0000
0300
0002
0000
0000
0000
1003
0001
1000
0000
,
0100
0010
0100
0000
1000
0001
0010
0001
1000
0010
0100
0001
1000
0010
0100
0001
,
0010
0000
0010
0100
1000
0000
1000
0000
1002
0000
0000
0000
0103
0010
0100
0000
,
0001
0000
0100
0000
0001
0010
0100
1000
0100
0010
0100
1000
0100
0010
0001
0100
,
0002
0000
0000
0003
0002
0000
0000
0003
1000
0001
1000
0001
0100
0001
1000
0010
,
1000
0100
1000
0100
0010
0001
0010
0001
0200
0000
0000
0000
0000
0000
0000
0000
,
2000
0000
0000
0000
0000
0000
0000
3300
1100
0000
0100
0010
0100
0000
0010
1000
,
0001
0010
0001
0000
1000
0100
0010
0100
1000
0001
1000
0001
0100
0000
0010
1000
,
0010
0100
0010
0000
1000
0001
0010
0001
1000
0100
0010
0001
0010
0000
0001
0010
,
0100
1000
0100
0000
1000
0010
0100
0001
0100
0001
1000
0001
0100
0001
1000
0100
,
0010
0100
1000
0001
1000
0010
0100
0001
1000
0100
1000
0100
0010
0000
0001
0100
,
0001
1000
0010
0000
1000
0100
0010
0001
1000
0100
0010
0100
1000
0000
0010
0100
,
0001
0100
0010
0000
1000
0010
0100
0001
0010
0001
0010
0100
1000
0000
0001
0010
,
0100
0010
0001
0000
1000
0010
1000
0001
1000
0100
0010
0100
0010
0001
1000
0010
,
0100
0010
0100
0001
1000
0100
0010
0001
1000
0000
1000
0000
0002
0000
0203
0000
,
0000
0320
0000
1030
0100
0100
0020
0230
,
0000
0302
0203
2300
3010
0010
2000
3002
,
0000
0000
0203
0000
0000
0000
0310
0000
1000
0100
1000
0010
0100
0001
0010
0001
,
1000
0010
0100
0001
1000
0100
0010
0001
0100
0000
0100
0000
0020
0000
0230
0000
,
0000
0302
0000
0013
0100
0100
2000
3200
,
0000
0000
0320
0000
0032
0000
2003
0000
3001
0010
0001
0100
0001
1000
0001
0010
,
0100
0000
1000
0000
0010
0000
1000
0000
0001
0000
1000
0000
0100
0000
0010
0000
0004
4000
0000
0000
0000
0000
0000
0000
0000
0000
0000
0000
0000
0000
0000
0000
,
0000
0000
0000
0000
0000
0000
0000
0000
0000
0000
0000
0000
0000
3003
0000
0000
1001
0000
0000
0000
0000
0000
0101
0000
0000
0000
0000
0000
0011
0000
0000
0000
,
0110
0000
0000
0000
0000
0000
0000
0000
1100
0000
0000
0110
0000
0000
1001
0000
,
1010
0000
0101
0000
1010
0000
0000
0000
1001
0000
0000
0011
0000
0000
0101
0000
,
1010
0000
0000
0000
0000
0000
0000
0000
0001
0010
0100
1000
0100
0010
0100
1000
,
0001
0100
0010
1000
0001
0100
0010
0100
0001
0000
0000
0011
0000
0000
1001
0000
,
1010
0000
0000
0000
0000
0000
0000
0000
1100
0000
0000
0101
0000
0000
0011
0000
,
0110
0000
1100
0000
0011
0000
0000
0000
1001
0000
0000
1010
0000
0000
0101
0000
,
0110
0000
0000
0000
0000
0000
0000
0000
0001
1000
0010
1000
0100
1000
0010
0100
,
0001
0010
0001
0100
0001
1000
0001
0100
0010
1000
0001
1000
0100
1000
0001
1000
,
0100
0010
0001
1000
0001
0100
0001
0010
0001
0100
0001
1000
0010
0100
0001
1000
,
0010
1000
0100
1000
0001
0100
0010
1000
0001
0010
0100
0010
0001
0010
0100
1000
,
0010
0100
0001
1000
0010
0100
0001
1000
0001
0010
0100
1000
0100
0010
0100
1000
,
0001
0100
0010
1000
0001
0100
0010
1000
0001
0100
0010
1000
0001
1000
0010
0100
,
0010
1000
0001
1000
0100
0010
0100
0010
0001
1000
0001
0100
0001
1000
0001
0100
,
0001
1000
0010
1000
0001
1000
0010
0100
0001
0010
0100
1000
0001
0010
0100
1000
,
0010
0100
0010
1000
0010
0100
0010
1000
0001
0010
0100
0010
0100
1000
0100
0010
,
0001
0010
0001
0100
0001
0010
0001
0100
0010
1000
0001
1000
0010
1000
0001
1000
,
0001
1000
0100
1000
0001
1000
0010
1000
0001
1000
0001
1000
0100
1000
0001
1000
,
0001
1000
0010
1000
0001
1000
0100
1000
0100
0010
0001
0010
0100
1000
0100
0010
,
0001
0010
0001
0100
0001
1000
0001
0100
0001
0010
0100
1000
0001
0010
0100
1000
,
0010
0100
0001
0100
0010
1000
0010
0100
0001
0100
0001
0100
0010
1000
0010
0100
,
0001
0100
0001
1000
0010
0100
0001
1000
0100
0010
0001
1000
0100
0010
0100
1000
,
0001
1000
0010
1000
0100
1000
0100
0010
0001
0010
0100
0010
0100
1000
0100
1000
,
0001
0010
0001
0100
0001
1000
0001
0100
0010
1000
0001
1000
0100
0010
0001
1000
,
0001
0100
0001
0010
0001
0100
0001
1000
0001
0010
0100
1000
0100
1000
0100
1000
,
0100
1000
0001
0000
1000
0000
0001
0000
1000
0000
0010
0000
1000
0000
0001
0000
0010
0000
0001
0000
0010
0000
0001
0000
0010
0000
0001
0000
0010
0000
0100
0000
,
1000
0001
1000
0000
0001
0000
1000
0000
0010
0000
1000
0000
0001
0000
1000
0000
0010
0000
0100
0000
0001
0000
0100
0000
0001
0000
0010
0000
0001
0000
0100
0000
,
0001
1000
0010
1000
0100
0010
0001
0010
0000
0000
0000
0000
0000
0000
0000
0000
,
0000
0000
0000
0000
0000
0000
0000
0000
0001
0010
0001
0000
0200
0000
0320
0000
,
0000
0230
0000
0301
0010
0010
0200
2300
,
0000
3200
0302
0203
1300
1000
0001
0200
,
0000
0000
0320
0000
0000
0000
0130
0000
0001
0010
0001
0010
0100
1000
0100
1000
,
0010
0100
0001
0010
0001
0100
0001
1000
0001
0000
0001
0000
0020
0000
0230
0000
,
0000
2300
0000
3100
0010
0010
0002
0203
,
0000
0320
0032
0023
0130
0100
0002
0023
,
0000
0000
0230
0000
0000
0000
1300
0000
0010
1000
0010
1000
0001
0100
0001
1000
,
0100
0010
0001
0010
0100
1000
0001
1000
0001
0000
0001
0000
2000
0000
3020
0000
,
0000
0230
0000
0310
1000
1000
0002
0023
,
0000
2030
3020
0032
0103
0100
0020
0230
,
0000
0000
0302
0000
0000
0000
0013
0000
0100
1000
0100
0010
0001
1000
0010
0100
,
0010
1000
0001
0010
0100
0010
0001
1000
0010
0000
0010
0000
2000
0000
3002
0000
,
0000
0203
0000
0301
0010
0010
0200
2300
,
0000
0000
3020
0000
0032
0000
0023
0000
0130
0010
1000
0010
0100
0001
1000
0001
,
0010
0000
0001
0000
0100
0000
0001
0000
1000
0000
0001
0000
1000
0000
0010
0000
4000
0004
0000
0000
0000
0000
0000
0000
0000
0000
0000
0000
0000
0000
0000
0000
,
0000
0000
0000
0000
0000
0000
0000
0000
0000
0000
0000
0000
0000
3003
0000
0000
0001
0000
1000
0000
0001
0000
1000
0000
0001
0000
0010
0000
0100
0000
1000
0000
,
0010
0000
0100
0000
0010
0000
0100
0000
0001
0000
0100
0000
0010
1000
0010
1000
0010
0000
1000
0000
0001
0000
1000
0000
0001
0000
0010
0000
0100
0000
0010
0000
,
0001
0000
1000
0000
0001
0000
1000
0000
0100
1000
0100
1000
0100
0000
0010
0000
0001
0000
0100
0000
0010
0000
1000
0000
0100
0000
1000
0000
0010
0000
0100
0000
,
0001
0000
0100
0000
0010
0000
1000
0000
0001
1000
0001
1000
0001
0000
0100
0000
0010
0000
1000
0000
0001
0000
1000
0000
0100
0000
0010
0000
0100
0000
1000
0000
,
0010
0000
0100
0000
0001
0000
0010
0000
0100
0000
1000
0000
0001
0100
0001
0100
0002
0000
0000
0000
0000
0000
0000
0000
0000
0000
0000
0000
0000
0000
0000
0000
,
0000
0000
0000
0000
,
0000
0000
0000
0000
,
0003
0000
0000
0000
;

//---------------dance-single - Loodee----------------
#NOTES:
     dance-single:
     Loodee:
     Hard:
     11:
     0.868,1.000,0.253,0.839,0.591:
0000
0000
0000
0000
,
0000
0000
0000
0000
,
0000
0000
0000
0000
,
0000
0000
0000
0000
,
0000
0000
0000
0000
,
0000
0000
0000
0000
0001
0010
0100
1000
,
0001
0000
0100
0000
0001
1000
0001
1000
0100
0000
0010
0000
0001
0010
0100
1000
,
0002
0000
0000
0003
0002
0000
0000
0003
0100
0000
0010
0000
1000
0000
1000
0000
,
0001
0010
0001
0000
1000
0001
1000
0001
0100
0000
0010
0000
1000
0100
1000
0100
,
0010
0000
0001
1000
0001
0000
0100
0000
1001
0000
0000
0000
0001
0000
0010
0000
,
0100
0000
0010
0000
0001
1000
0001
1000
0010
0000
0100
0000
0001
0010
0001
0010
,
0200
0000
0000
0300
0200
0000
0000
0300
1000
0001
1000
0001
0100
0000
0001
0000
,
1000
0100
0010
0001
1000
0000
0001
0000
0202
0000
0000
0000
0000
0000
0000
0303
,
2002
0000
0000
0000
0000
0000
0000
3003
0001
0010
0001
0000
1000
0000
0010
0100
,
0010
0000
1000
0000
0001
0000
0100
0000
0010
0100
0010
0000
1000
0000
0100
0010
,
0100
0000
1000
0000
0001
0000
1000
0000
0001
0010
0100
0000
0010
0000
0001
1000
,
0001
0000
0100
0000
0001
0000
1000
0000
0010
0100
0001
0000
1000
0000
0001
0010
,
0100
0000
1000
0000
0001
1000
0001
1000
0001
0100
0001
0000
0100
0000
0001
1000
,
0100
0000
0010
0000
0001
0000
0100
0000
0010
1000
0010
0000
1000
0000
0100
0010
,
0001
0000
1000
0000
0001
0000
1000
0000
0010
0100
0010
0000
1000
0000
0001
0010
,
0001
0000
0010
0000
0100
0000
1000
0000
0010
0100
0010
0100
0001
1000
0002
0000
,
0000
0203
0302
0023
0130
0100
2000
3002
,
0000
0203
0000
0310
0100
0100
0002
0023
,
0000
0032
2003
3002
0103
0100
0020
2030
,
0000
3002
0000
0103
0010
0010
2000
3200
,
0000
0000
0320
0000
0031
1000
0001
1000
0010
0000
0010
0000
0200
0000
0302
0000
,
0000
0023
0000
0130
1000
1000
0002
0203
,
0000
0320
2030
3020
0130
0100
0002
0023
,
0000
0230
0000
1300
0004
0000
0000
0000
,
0000
0000
0000
0000
0000
0000
0003
0000
0101
0000
0000
1001
0000
0000
1100
0000
,
1100
0000
0000
0000
0000
0000
0000
0000
1001
0000
0000
0101
0000
0000
1001
0000
,
0110
0000
0110
0000
0110
0000
0000
0000
1001
0000
0000
1100
0000
0000
0011
0000
,
0011
0000
0000
0000
0000
0000
0000
0000
1000
0100
0010
0001
1000
0100
0010
0001
,
1000
0001
1000
0001
1000
0001
1000
0001
0100
0000
0000
0110
0000
0000
1001
0000
,
1001
0000
0000
0000
0000
0000
0000
0000
1010
0000
0000
0110
0000
0000
1001
0000
,
0011
0000
0011
0000
0011
0000
0000
0000
0101
0000
0000
0110
0000
0000
1100
0000
,
1100
0000
0000
0000
0000
0000
0000
0000
0001
0100
0010
1000
0001
0100
0010
1000
,
0001
1000
0001
1000
0001
1000
0001
1000
0001
0010
0100
0000
0010
0000
1000
0000
,
0010
0100
0001
0100
0001
0100
1000
0010
,
0100
0000
0001
0000
0100
0000
1000
0000
0100
0010
0100
0010
1000
0001
1000
0001
,
0100
0000
0001
0000
1000
0000
0001
0000
0010
0100
0010
0100
1000
0100
1000
0100
,
1000
0001
0100
0010
1000
0010
0001
0010
,
0100
1000
0100
1000
0100
0001
1000
0001
,
0010
0000
0100
0000
0010
0000
1000
0000
0010
0100
1000
0100
1000
0001
1000
0001
,
0100
0000
0001
0000
0100
0000
0010
0000
1000
0001
1000
0001
0100
0010
0100
0010
,
1000
0000
0001
0000
0010
0000
0001
0000
0011
0000
0010
0000
0001
0000
1000
0100
,
1000
0100
0010
0000
0001
0100
0001
1000
0001
0000
0100
0000
0010
0000
1000
0001
,
1000
0001
0100
0000
0010
1000
0010
0000
1000
0100
1000
0100
0010
0001
0010
0001
,
0100
0000
0001
0000
1000
0000
0001
0000
0100
0010
0100
0010
1000
0010
1000
0001
,
0010
0000
0100
0000
1000
0000
0100
0000
0010
0001
0010
0000
1000
0000
0010
0000
,
0100
0000
0001
0000
0100
0000
0001
0000
0100
0010
0100
0000
1000
0000
0001
0000
,
1000
0000
0000
0000
0020
0000
0000
0000
0130
0000
0000
0000
0010
0000
0000
0000
4000
0004
0000
0000
0000
0000
0000
0000
0000
0000
0000
0000
0000
0000
0000
0000
,
0000
0000
0000
0000
,
0000
0000
0000
0000
0000
0000
3003
0000
0001
0010
0100
1000
0001
0010
0100
1000
,
0010
0100
0001
0010
0100
1000
0100
0010
0001
0100
0010
1000
0001
0100
0010
1000
,
0100
0000
1000
0000
0010
0000
0100
0000
0001
0000
1000
0000
0001
0000
0100
0000
0004
4000
0000
0000
0000
0000
0000
0000
0000
0000
0000
0000
0000
0000
0000
0000
,
0000
0000
0000
0000
0000
0000
0000
3003
0000
0000
0000
0000
0000
0000
0000
0000
,
0000
0000
0000
0000
1000
1000
0002
0203
,
0000
0320
0000
1030
0100
0100
0020
0230
,
0000
0320
0032
2003
3001
0001
0200
0320
,
0000
0230
0000
0301
0100
0100
0002
0023
,
0000
2030
3002
0203
1300
1000
0002
0023
,
0000
0230
0000
0310
0001
0001
2000
3020
,
0000
0230
0302
2003
3100
0100
0020
0230
,
0000
2300
0000
3001
0100
0100
0020
0230
,
0000
2300
3002
0023
1030
1000
0002
0023
,
0000
0230
0000
1300
0010
0010
0200
0320
,
0000
2030
3002
2003
3100
0100
0020
0230
,
0000
2300
0000
3001
0100
0100
0002
0203
,
0000
2300
3002
0023
1030
1000
0002
2003
,
0000
3200
0000
0310
0001
0001
2000
3020
,
0000
2030
3002
2003
3100
0100
0020
0230
,
0000
0320
0000
0031
1000
1000
0020
0230
,
0000
0000
2300
0000
3002
0000
0023
0000
0130
0010
1000
0010
0100
0001
1000
0001
,
1000
0100
0010
0001
1000
0001
1000
0010
1000
0100
0010
0001
0100
0010
0100
0001
,
1000
0001
1000
0010
0100
0001
1000
0100
0010
0001
0010
0001
0100
0010
1000
0100
,
1000
0001
0010
0100
1000
0010
0100
0001
1000
0001
1000
0100
0010
0001
0010
0100
,
1000
0010
0100
0010
0100
0001
1000
0010
2000
0000
0000
0000
0000
0000
0000
0000
,
0000
0000
0000
0000
,
0000
0000
0000
3000
;

//---------------dance-single - Loodee----------------
#NOTES:
     dance-single:
     Loodee:
     Medium:
     9:
     0.659,0.708,0.065,0.766,0.061:
0000
0000
0000
0000
,
0000
0000
0000
0000
,
0000
0000
0000
0000
,
0000
0000
0000
0000
,
0000
0000
0000
0000
,
0000
0000
0000
0000
1000
0100
0010
0100
,
1000
0010
0100
0001
1000
0100
0001
0100
,
2000
0000
0000
3000
2000
0000
0000
3000
0001
0000
0100
0000
0010
0000
0010
0000
,
0100
0010
1000
0100
0001
0100
1000
0010
,
0100
0000
0001
1000
0001
0000
0010
0000
0011
0000
0000
0000
0001
0000
0100
0000
,
0010
1000
0010
0100
1000
0001
1000
0100
,
0002
0000
0000
0003
0002
0000
0000
0003
0010
0000
0100
0000
1000
0000
0100
0000
,
1000
0001
0100
0010
0220
0000
0000
0330
,
2002
0000
0000
0000
0000
0000
3003
0000
0001
0000
0010
0000
0001
0000
1000
0001
,
1000
0000
0010
0000
0100
0000
0001
0000
1000
0000
0100
0000
0010
0000
0001
0010
,
0001
0000
0100
0000
0001
0000
1000
0000
0010
0000
0100
0000
0001
0000
1000
0100
,
1000
0000
0100
0000
0010
0000
0001
0000
1000
0000
0010
0000
0100
0000
0001
0100
,
0001
0000
1000
0000
0100
0000
0010
0000
0001
0000
0100
0000
0001
0000
0010
0100
,
0010
0000
0100
0000
1000
0000
0001
0000
1000
0000
0010
0000
0100
0000
0001
1000
,
0001
0000
0010
0000
0100
0000
0010
0000
0001
0000
1000
0000
0010
0000
0100
0010
,
0100
0001
0100
0001
1000
0100
0020
0032
,
0000
2003
3002
0203
0310
1000
0002
0023
,
0000
0230
0000
0000
1300
0001
0200
0320
,
0000
2030
3002
2003
3100
0010
0002
2003
,
0000
3020
0000
0000
0130
0001
2000
3200
,
0000
0302
0203
2300
3001
1000
0020
0230
,
0000
0302
0000
0000
0013
0100
2000
3200
,
0000
0320
0032
2003
3001
0100
0010
1000
,
0001
0010
0100
1000
0004
0000
0000
0000
,
0000
0000
0000
0000
0000
0000
0003
0000
1000
0000
0000
0010
0000
0000
1000
0000
,
1010
0000
0000
0000
0000
0000
0000
0000
1000
0000
0000
0100
0000
0000
0010
0000
,
0001
0000
0100
0000
0010
0000
0000
0000
1000
0000
0000
0001
0000
0000
1000
0000
,
1001
0000
0000
0000
0001
0100
1000
0001
,
0010
0000
1000
0000
0001
0000
0010
0000
0100
0000
0000
0010
0000
0000
0100
0000
,
0110
0000
0000
0000
0000
0000
0000
0000
1000
0000
0000
0001
0000
0000
0010
0000
,
0100
0000
1000
0000
0001
0000
0000
0000
0100
0000
0000
0001
0000
0000
0100
0000
,
0101
0000
0000
0000
1000
0100
0001
1000
,
0010
0001
1000
0001
0100
0010
0100
1000
,
0100
0010
0100
1000
0100
0001
1000
0001
,
0010
0100
1000
0100
0001
1000
0001
1000
,
0001
0100
1000
0010
0001
1000
0001
1000
,
0001
0010
1000
0001
0010
0100
0001
0100
,
0010
0100
0001
0100
1000
0001
1000
0001
,
0100
0010
0100
0010
0001
1000
0001
1000
,
0001
0010
1000
0100
0001
1000
0001
1000
,
0001
0100
1000
0001
0100
0100
0001
1000
,
1000
0100
1000
0010
1000
1000
0001
0010
,
0010
0001
0100
0010
1000
0100
0001
0100
,
0001
0100
1000
0001
1000
0010
0001
0010
,
0001
0010
1000
0001
1000
0100
0010
0100
,
0001
0100
0001
0100
0010
0001
1000
0010
,
0100
0002
0103
0001
4000
0000
0000
0000
,
0000
0000
0000
0000
,
0000
0000
0000
3000
0001
0010
0100
1000
,
0001
0010
0100
1000
0010
0100
0001
1000
,
0010
0100
0001
1000
0004
0000
0000
0000
,
0000
0000
0000
0003
0000
0000
0000
0000
,
0000
0000
0000
0000
0100
0001
2000
3200
,
0000
0320
0000
0000
0031
1000
0020
0230
,
0000
0302
2003
3002
0013
0100
2000
3002
,
0000
0203
0000
0000
0310
1000
0002
0023
,
0000
2030
3020
0032
1003
0001
0200
0320
,
0000
2030
0000
0000
3100
0010
0002
0023
,
0000
0230
2300
3002
0103
0010
2000
3002
,
0000
2003
0000
3100
0010
0001
0100
0020
,
0000
0230
0302
2003
3010
1000
0002
0023
,
0000
0032
0000
0000
0103
0010
2000
3200
,
0000
2300
3002
2003
3100
0010
0002
2003
,
0000
3002
0000
0000
0013
0100
2000
3020
,
0000
0032
0023
2030
3001
1000
0020
0230
,
0000
0302
0000
0000
0013
0100
2000
3020
,
0000
0000
0230
0000
0302
0000
0203
0000
0304
4000
0000
0000
0000
0000
0000
0000
,
0000
0000
0000
3003
4004
0000
0000
0000
,
0000
0000
0000
3003
0001
0100
1000
0100
,
0010
1000
0100
0001
0100
0010
0001
0100
,
0010
0100
1000
0100
0001
0010
0100
0001
,
0100
1000
0010
0100
1000
0100
0001
1000
,
0100
0001
1000
0010
0002
0000
0000
0000
,
0000
0000
0000
0000
,
0003
0000
0000
0000
;

//---------------dance-single - Loodee----------------
#NOTES:
     dance-single:
     Loodee:
     Easy:
     5:
     0.560,0.579,0.057,0.725,0.000:
0000
0000
0000
0000
,
0000
0000
0000
0000
,
0000
0000
0000
0000
,
0000
0000
0000
0000
,
0000
0000
0000
0000
,
0000
0000
0000
0000
1000
0001
1000
0000
,
0001
0010
0100
0000
1000
0001
0100
0001
,
2000
0000
3002
0000
0013
0000
0100
1000
,
0100
0000
1000
0000
0001
0100
0001
1000
,
0100
0010
0100
1000
0001
0000
0100
0001
,
1000
0000
0100
0000
0010
0001
1000
0010
,
0200
0000
0302
0000
1003
0100
0010
0001
,
1000
0001
1000
0001
2000
0000
0000
0000
,
0001
0000
3000
0000
0001
0010
0100
0000
,
1000
0010
1000
0000
0001
0100
0010
0000
,
1000
0001
1000
0000
0100
0010
0001
0000
,
1000
0010
0100
0000
0001
0100
0010
1000
,
0001
1000
0001
1000
0100
0010
0001
0000
,
0100
0010
1000
0000
0001
0010
0100
0000
,
1000
0010
0100
0000
0001
1000
0001
0000
,
0010
0100
0010
0000
0001
0010
0100
1000
,
0001
0010
0100
1000
0002
0000
0203
0302
,
0000
2003
0000
0000
3200
0000
0320
0032
,
0000
2003
0000
0000
3020
0000
0230
0302
,
0000
2003
0000
0000
3010
0100
0001
1000
,
0010
0100
0001
1000
0200
0000
0320
0032
,
0000
2003
0000
0000
3002
0000
0203
0320
,
0000
0230
0302
0000
1003
0001
1000
0001
,
0100
0010
0100
0010
2000
0000
0000
0000
,
0000
0000
0000
3000
1001
0000
0000
0001
,
1000
0000
0000
0000
1100
0000
0000
1000
,
0100
1000
0001
0000
0101
0000
0000
0001
,
0100
0000
0000
0000
0001
0010
0001
0010
,
0100
1000
0100
1000
0100
0000
0000
1000
,
0010
0000
0000
0000
0110
0000
0000
0100
,
0001
1000
0001
0000
1001
0000
0000
1000
,
0001
0000
0000
0000
1000
0010
0100
0010
,
1000
0100
1000
0001
0010
0001
1000
0001
,
1000
0010
0100
0010
1000
0001
1000
0100
,
1000
0001
1000
0010
0200
0000
0001
0000
,
0001
0001
0320
1000
,
1000
1000
0130
0001
,
0010
0100
0000
0000
1000
0000
0001
0000
,
0100
0010
1000
0001
2000
0000
0100
0000
,
0100
0100
3020
0100
,
0100
0000
0100
0000
1030
1000
0001
0000
,
1000
0001
0000
0100
0001
1000
0001
0000
,
0010
0001
0000
0010
0200
0000
1000
0000
,
1000
1000
0320
0001
,
0001
0000
0001
0000
0130
1000
0001
0000
,
0100
0001
1000
0000
0001
0010
0001
0100
,
0001
2000
3001
0010
0200
0000
0000
0000
,
0000
0000
0000
0000
,
0000
0000
0000
0000
1300
0001
1000
0001
,
0100
0001
1000
0001
0100
0010
0100
0010
,
1000
0010
0100
0001
1000
0100
0010
0001
,
1000
0001
0010
0100
0000
0000
0000
0000
,
0000
0000
0000
0000
2100
0000
3020
2030
,
0000
3002
0000
0000
0023
0000
0230
2300
,
0000
3002
0203
0000
0320
0000
0230
0302
,
0000
2003
0000
0000
3100
0010
0001
1000
,
0001
1000
0010
1000
0002
0000
0023
0230
,
0000
0320
0000
0000
0032
0000
0203
0320
,
0000
0230
0302
0000
2003
0000
3200
0320
,
0000
0230
0000
0000
1300
0010
0100
0001
,
1000
0010
0100
0001
1002
0000
0203
0302
,
0000
2003
0000
0000
3200
0000
0320
0032
,
0000
2003
3020
0000
0230
0000
0320
2030
,
0000
3002
0000
0000
0013
0100
1000
0001
,
1000
0001
0100
0001
2000
0000
3200
0320
,
0000
0230
0000
0000
2300
0000
3020
0230
,
0000
0320
2030
0000
3002
0000
0023
0230
,
0000
0320
0000
0000
0002
0000
0000
0000
,
0000
0000
0033
0000
0001
0010
0100
1000
,
0001
1000
0100
0001
0100
0010
0100
1000
,
0001
0100
1000
0100
0001
0010
0100
1000
,
0001
0010
0001
1000
0010
1000
0001
0100
,
0010
1000
0001
0100
0020
0000
0000
0000
,
0000
0000
0000
0000
,
0030
0000
0000
0000
;
