#TITLE:King Conga;
#SUBTITLE:;
#ARTIST:Danny Baranowsky;
#TITLETRANSLIT:;
#SUBTITLETRANSLIT:;
#ARTISTTRANSLIT:;
#GENRE:;
#CREDIT:;
#BANNER:[Round 9] - King Conga.png;
#BACKGROUND:[Round 9] - King Conga-bg.png;
#LYRICSPATH:;
#CDTITLE:cdtitle.png;
#MUSIC:[Round 9] - King Conga.mp3;
#OFFSET:-0.074000;
#SAMPLESTART:16.056988;
#SAMPLELENGTH:15.999996;
#SELECTABLE:YES;
#BPMS:0.000000=120.000000
;
#STOPS:
;
#BGCHANGES:;
#KEYSOUNDS:;
#ATTACKS:;

//---------------dance-single - ----------------
#NOTES:
     dance-single:
     :
     Challenge:
     9:
     0.674288,0.735543,0.237272,0.296590,0.894007,494.000000,28.000000,35.000000,0.000000,0.000000,0.000000,0.674288,0.735543,0.237272,0.296590,0.894007,494.000000,28.000000,35.000000,0.000000,0.000000,0.000000:
0000
0000
0000
0000
,
0000
0000
0000
0000
,
0000
0000
0000
0000
,
0000
0000
0000
0000
,
1001
0000
0000
1000
0000
0001
1000
0000
2010
0000
0000
3001
0100
0000
0001
0000
,
0010
0000
0000
0001
0000
0100
0010
0000
0110
0000
0000
0000
2001
0000
0000
0000
,
3001
0000
1000
0100
0000
1000
0010
0000
0100
0000
0001
1000
0000
1000
0100
1000
,
0010
0000
0010
0100
0000
0100
0001
0000
1000
0010
0100
0001
1000
0001
2000
0000
,
3001
0000
0010
0100
0000
0010
0000
0001
0000
0100
0000
1000
0000
0100
0001
0010
,
0100
0000
1000
0010
0000
0001
0000
0010
0000
1000
0100
0000
0010
0000
0001
0000
,
1000
0000
0010
0100
0000
0010
0000
1000
0000
0100
0000
0001
0000
0100
1000
0010
,
0100
0000
1000
0100
0000
0001
0000
0010
0000
0100
0010
0000
0001
0000
1000
0000
,
1001
0000
0001
0200
0000
0000
0310
0000
1000
0001
0100
0010
0000
0010
1000
0000
,
0001
0000
1000
0002
0000
0000
1003
0000
0100
0010
0001
0010
0000
0100
1000
0000
,
1001
0000
1000
0100
0010
0100
1000
0001
0010
0001
1000
0001
0100
0001
1000
0010
,
0100
0010
1000
0001
1000
0100
0010
0001
0100
0010
0100
0020
0000
0000
0130
0010
,
2000
0000
0000
0000
3010
0000
0100
0001
0020
0000
0000
0000
0130
0000
0010
0001
,
2000
0000
0000
0000
3020
0000
0000
0000
0031
0000
0010
1000
0000
0200
0000
0000
,
1300
0000
0001
0100
0010
0100
0001
1000
0100
1000
0001
1000
0010
1000
0001
0010
,
0100
0010
0001
1000
0001
0010
0100
1000
0010
0100
0010
0200
0000
0000
0301
0000
,
1001
0000
0000
1000
0001
0000
1000
0100
1000
0000
0000
0001
1000
0000
0001
0100
,
0001
0000
0000
1000
0001
0000
0100
0010
0100
0000
0000
0000
0000
0000
0000
0000
,
1001
0000
0000
0001
1000
0000
0001
0010
0001
0000
0000
1000
0001
0000
1000
0010
,
1000
0000
0000
0001
1000
0000
0100
0000
0220
0000
0000
0000
0330
0000
0000
0000
,
1001
0000
0000
0001
0100
0000
0010
1000
0010
0000
0000
1000
0100
0000
0010
0001
,
0010
0000
0000
0001
0100
0000
0010
1000
0001
0000
0000
0000
0000
0000
0000
0000
,
1001
0000
0000
1000
0100
0000
1000
0010
1000
0000
0000
0001
0100
0000
0001
0010
,
0001
0000
0000
1000
0100
0000
1000
0000
2002
0000
0000
0000
3003
0000
0000
0000
,
1001
0000
0000
0001
0000
1000
0001
0000
0012
0000
0000
1003
0010
0000
0100
0000
,
0001
0000
0000
1000
0000
0100
0010
0000
0110
0000
0000
0000
1002
0000
0000
0000
,
1003
0000
0001
0010
0000
0001
0100
0000
0010
0000
1000
0001
0000
0001
0100
0001
,
0010
0000
0010
0100
0000
0100
1000
0000
0001
0010
0100
1000
0001
1000
0002
0000
,
1003
0000
0010
0100
0000
0010
0000
0001
0000
0010
0000
1000
0000
0100
1000
0001
,
0100
0000
0001
0010
0000
1000
0000
0010
0000
0001
0100
0000
0010
0000
1000
0000
,
0001
0000
0010
0100
0000
0010
0000
1000
0000
0010
0000
0001
0000
0100
0001
1000
,
0100
0000
0001
0100
0000
1000
0000
0010
0000
0100
0010
0000
1000
0000
0001
0000
,
1001
0000
1000
0200
0000
0000
0310
0000
0001
0010
0100
1000
0000
1000
0001
0000
,
0100
0000
0010
2000
0000
0000
3010
0000
0100
0001
0010
0100
0000
1000
0001
0000
,
1001
0000
0001
0100
0010
0100
0001
1000
0010
1000
0001
1000
0100
1000
0001
0010
,
0100
0010
0001
1000
0001
0100
0010
1000
0100
0010
0100
0020
0000
0000
0130
0010
,
0002
0000
0000
0000
0013
0000
0100
1000
0020
0000
0000
0000
1030
0000
0010
0100
,
0002
0000
0000
0000
0023
0000
0000
0000
1030
0000
0010
0001
0000
0200
0000
0000
,
0301
0000
1000
0100
0010
0100
1000
0001
0100
0001
1000
0001
0010
0001
1000
0010
,
0100
0010
1000
0001
1000
0010
0100
0001
0010
0100
0010
0200
0000
0000
1300
0000
,
1001
0000
0000
0001
1000
0000
0010
0100
0010
0000
0000
1000
0001
0000
0010
0100
,
0010
0000
0000
0001
1000
0000
0001
0100
0001
0000
0000
0000
0000
0000
0000
0000
,
1001
0000
0000
1000
0001
0000
0100
0010
0100
0000
0000
0001
1000
0000
0100
0010
,
0100
0000
0000
1000
0001
0000
0100
0000
0220
0000
0000
0000
0330
0000
0000
0000
,
1001
0000
0000
1000
0100
0000
0010
0001
0010
0000
0000
0001
0100
0000
0010
1000
,
0010
0000
0000
1000
0100
0000
0010
0001
1000
0000
0000
0000
0000
0000
0000
0000
,
1001
0000
0000
0001
0100
0000
0001
0010
0001
0000
0000
1000
0100
0000
1000
0010
,
1000
0000
0000
0001
0100
0000
0001
0000
2002
0000
0000
0000
3003
0000
0000
0000
,
1010
0000
0000
1000
0000
0001
0100
0000
0120
0000
0000
1030
0010
0000
0100
0000
,
0001
0000
0000
0010
0000
0100
1000
0000
1100
0000
0000
0000
2001
0000
0000
0000
,
3001
0000
1000
0010
0000
1000
0100
0000
0010
0000
0001
0100
0000
0100
0010
1000
,
0001
0000
0001
0100
0000
0100
0010
0000
1000
0100
0010
0001
1000
0001
2000
0000
,
3001
0000
0000
0000
;

//---------------dance-single - ----------------
#NOTES:
     dance-single:
     :
     Hard:
     8:
     0.464860,0.474544,0.118636,0.228798,0.432174,343.000000,14.000000,27.000000,0.000000,0.000000,0.000000,0.464860,0.474544,0.118636,0.228798,0.432174,343.000000,14.000000,27.000000,0.000000,0.000000,0.000000:
0000
0000
0000
0000
,
0000
0000
0000
0000
,
0000
0000
0000
0000
,
0000
0000
0000
0000
,
1001
0000
0000
0000
0001
0100
0000
0000
0120
0000
0000
0000
1030
0000
0000
0000
,
1001
0000
0000
1000
0000
0001
0010
0000
0011
0000
0000
0000
2000
0000
0000
0000
,
3001
0000
0100
0000
0000
0100
0001
0000
1000
0000
0200
0000
0000
0000
0310
0001
,
0010
0000
0000
0001
0000
0000
1000
0000
0010
0000
0001
0000
0010
0000
1000
0000
,
0001
0000
0000
1000
0000
0100
0000
0010
0000
0001
0000
0100
0000
0000
0001
0000
,
1000
0000
0000
0001
0000
0010
0000
0100
0000
0000
0010
0000
0001
0000
1000
0000
,
0001
0000
0000
1000
0000
0010
0000
0100
0000
0001
0000
0010
0000
0000
0001
0000
,
1000
0000
0000
0010
0000
0100
0000
0001
0000
0000
0001
0000
1000
0000
1000
0000
,
0001
0000
0010
0200
0000
0000
0310
0000
0001
0000
0100
0010
0000
0100
0010
0000
,
1000
0000
0100
0020
0000
0000
0130
0000
1000
0000
0010
0100
0000
0100
0001
0000
,
1000
0001
0100
0010
0100
1000
0100
0010
,
0100
0000
0001
0000
0010
0000
0100
0000
1000
0000
0000
0001
0000
0000
1000
0000
,
0200
0000
0000
0000
0310
0000
0001
1000
0002
0000
0000
0000
0103
0000
0010
1000
,
0020
0000
0000
0000
0230
0000
0000
0000
0301
0000
1000
0100
0000
0200
0000
0000
,
1300
0001
0010
0100
0010
1000
0010
0100
,
0010
0000
0001
0000
0100
0000
0010
0000
1000
0000
0000
0001
0000
0000
1000
0000
,
1001
0000
0000
0001
0000
0000
0100
0000
0010
0000
0000
0010
0000
0000
1000
0000
,
0001
0000
0000
0001
0000
0000
1000
0001
1000
0000
0000
0000
0000
0000
0000
0000
,
1000
0000
0000
1000
0000
0000
0001
0000
0010
0000
0000
0010
0000
0000
0100
0000
,
1000
0000
0000
1000
0000
0000
0010
0000
0200
0000
0000
0000
0300
0000
0000
0000
,
0001
0000
0000
0010
0000
0000
0001
0000
1000
0000
0000
0100
0000
0000
1000
0000
,
0010
0000
0000
0100
0000
0000
0001
1000
0001
0000
0000
0000
0000
0000
0000
0000
,
1000
0000
0000
0010
0000
0000
1000
0000
0001
0000
0000
0100
0000
0000
0001
0000
,
0010
0000
0000
0100
0000
0000
1000
0000
0002
0000
0000
0000
0003
0000
0000
0000
,
1001
0000
0000
0000
1000
0100
0000
0000
0120
0000
0000
0000
0031
0000
0000
0000
,
1001
0000
0000
0001
0000
0100
0010
0000
1010
0000
0000
0000
0002
0000
0000
0000
,
1003
0000
0010
0000
0000
0010
1000
0000
0001
0000
0020
0000
0000
0000
0031
1000
,
0001
0000
0000
0100
0000
0000
0001
0000
0010
0000
1000
0000
0010
0000
0001
0000
,
1000
0000
0000
0001
0000
0100
0000
0010
0000
0100
0000
0001
0000
0000
1000
0000
,
0001
0000
0000
1000
0000
0100
0000
0010
0000
0000
0001
0000
0100
0000
0010
0000
,
1000
0000
0000
0100
0000
0010
0000
0001
0000
0010
0000
0100
0000
0000
1000
0000
,
0001
0000
0000
0100
0000
0010
0000
1000
0000
0000
1000
0000
0001
0000
0001
0000
,
1000
0000
0100
0020
0000
0000
0031
0000
1000
0000
0010
0100
0000
0010
0100
0000
,
0001
0000
0010
0200
0000
0000
1300
0000
0010
0000
1000
0001
0000
0001
0010
0000
,
0001
1000
0100
0010
0100
0001
0100
0010
,
0100
0000
1000
0000
0010
0000
0100
0000
0001
0000
0000
1000
0000
0000
0001
0000
,
0200
0000
0000
0000
0310
0000
1000
0001
2000
0000
0000
0000
3100
0000
0010
0001
,
0020
0000
0000
0000
0230
0000
0000
0000
1300
0000
0001
0100
0000
0200
0000
0000
,
0301
1000
0010
0100
0010
0001
0010
0100
,
0010
0000
1000
0000
0100
0000
0010
0000
0001
0000
0000
1000
0000
0000
0001
0000
,
1001
0000
0000
1000
0000
0000
0100
0000
0010
0000
0000
0010
0000
0000
0001
0000
,
0100
0000
0000
0100
0000
0000
0001
1000
0001
0000
0000
0000
0000
0000
0000
0000
,
1000
0000
0000
1000
0000
0000
0001
0000
0100
0000
0000
0100
0000
0000
0001
0000
,
0010
0000
0000
0010
0000
0000
0100
0000
2000
0000
0000
0000
3000
0000
0000
0000
,
0001
0000
0000
0010
0000
0000
0100
0000
1000
0000
0000
0010
0000
0000
0100
0000
,
0001
0000
0000
0010
0000
0000
0100
1000
0100
0000
0000
0000
0000
0000
0000
0000
,
1000
0000
0000
0010
0000
0000
0100
0000
0001
0000
0000
0010
0000
0000
0100
0000
,
1000
0000
0000
0010
0000
0000
0100
0000
0002
0000
0000
0000
0003
0000
0000
0000
,
1001
0000
0000
0000
0001
0010
0000
0000
0210
0000
0000
0000
1300
0000
0000
0000
,
1001
0000
0000
1000
0000
0010
0100
0000
0101
0000
0000
0000
2000
0000
0000
0000
,
3001
0000
0010
0000
0000
0010
0100
0000
1000
0000
0002
0000
0000
0000
1003
0010
,
1000
0000
0000
0001
0000
0000
1000
0000
0100
0000
0001
0000
0100
0000
1000
0000
,
0001
0000
0000
0000
;

//---------------dance-single - ----------------
#NOTES:
     dance-single:
     :
     Medium:
     5:
     0.343802,0.332181,0.228798,0.237272,0.000000,229.000000,27.000000,28.000000,0.000000,0.000000,0.000000,0.343802,0.332181,0.228798,0.237272,0.000000,229.000000,27.000000,28.000000,0.000000,0.000000,0.000000:
0000
0000
0000
0000
,
0000
0000
0000
0000
,
0000
0000
0000
0000
,
0000
0000
0000
0000
,
1001
0100
2002
3003
,
0110
1000
0110
0002
,
1003
0100
0000
0010
0001
0200
0000
0310
,
0010
0000
1000
0000
0010
0100
0001
0000
,
1001
0000
1000
0000
0010
1000
0100
0000
,
0010
0000
0001
0100
1000
0000
0100
0000
,
0001
0000
0001
0000
0010
0001
0100
0000
,
0010
0000
1000
0100
0001
0000
0010
0000
,
1000
0000
1001
0000
1000
0001
0010
0000
,
0001
1001
0100
0000
,
1001
0000
1000
0010
0100
0001
1000
0000
,
0001
0010
0100
1000
0001
0000
0000
0000
,
0200
0000
0000
0310
0020
0000
0000
1030
,
2000
3002
1003
0000
,
1000
0000
0001
0010
0100
0010
0001
0000
,
0100
0010
1000
0010
0100
0000
0000
0000
,
1001
0001
1000
1000
,
0001
0000
1000
0001
0010
0000
0000
0000
,
0001
0001
1000
1000
,
0001
1000
0220
0330
,
1000
0100
0010
0001
,
0100
0000
0010
1000
0100
0000
0000
0000
,
0010
0001
0100
0010
,
1000
0100
0220
0330
,
1001
0100
2002
3003
,
0110
0001
0110
2000
,
3001
0100
0000
0010
1000
0200
0000
0310
,
0010
0000
0001
0000
0100
0010
1000
0000
,
1001
0000
0001
0000
0010
0001
0100
0000
,
0010
0000
1000
0100
0001
0000
0100
0000
,
1000
0000
1000
0000
0010
1000
0100
0000
,
0010
0000
0001
0100
1000
0000
0010
0000
,
0001
0000
1001
0000
0001
1000
0010
0000
,
1000
1001
0100
0000
,
1001
0000
1000
0100
0010
0001
0100
0000
,
0010
1000
0001
0010
0100
0000
0000
0000
,
2000
0000
0000
3010
0020
0000
0000
0130
,
0200
0302
1003
0000
,
1000
0000
0010
1000
0100
1000
0010
0000
,
0100
0001
0010
0001
0100
0000
0000
0000
,
1001
1000
0001
0001
,
1000
0000
0001
1000
0010
0000
0000
0000
,
1000
1000
0001
0001
,
1000
0001
0220
0330
,
0001
0100
0010
0100
,
0001
0000
0010
0100
1000
0000
0000
0000
,
0010
1000
0100
1000
,
0001
0100
0220
0330
,
1001
0010
2002
3003
,
0110
1000
0110
0002
,
1003
0001
0000
0100
0010
2000
0000
3001
,
0001
0000
1000
0000
0100
0010
0001
0000
,
1001
0000
0000
0000
;

//---------------dance-single - ----------------
#NOTES:
     dance-single:
     :
     Easy:
     2:
     0.191270,0.213545,0.059318,0.186428,0.000000,129.000000,7.000000,22.000000,0.000000,0.000000,0.000000,0.191270,0.213545,0.059318,0.186428,0.000000,129.000000,7.000000,22.000000,0.000000,0.000000,0.000000:
0000
0000
0000
0000
,
0000
0000
0000
0000
,
0000
0000
0000
0000
,
0000
0000
0000
0000
,
1000
0001
0002
0003
,
0001
1000
1000
0020
,
0030
1000
0000
1000
,
0100
0000
0100
0010
,
0001
0000
0100
0000
,
0010
0000
1000
0000
,
0001
0000
0010
0000
,
0100
0000
1000
0000
,
0001
0001
1000
1000
,
0010
0010
0100
0000
,
1001
0000
0100
0000
,
0010
0001
0100
0000
,
0002
0000
2003
0000
,
3200
0320
0031
0000
,
1000
0000
0001
0000
,
0100
0010
1000
0000
,
0001
0000
0001
0000
,
0001
0000
0100
0000
,
0001
0000
0001
0000
,
0001
0000
0220
0330
,
1000
0000
0001
0000
,
1000
0000
0100
0000
,
1000
0000
0001
0000
,
1000
0000
0220
0330
,
0001
1000
2000
3000
,
1000
0001
0001
0020
,
0030
0100
0000
0100
,
1000
0000
0001
1000
,
0010
0000
0100
0000
,
0001
0000
0010
0000
,
0100
0000
1000
0000
,
0010
0000
0100
0000
,
0001
0001
1000
1000
,
0100
0100
0010
0000
,
1001
0000
0100
0000
,
0010
1000
0100
0000
,
2000
0000
3002
0000
,
0203
0320
1030
0000
,
0001
0000
1000
0000
,
0100
0010
0001
0000
,
1000
0000
1000
0000
,
1000
0000
0100
0000
,
1000
0000
1000
0000
,
1000
0000
0220
0330
,
0001
0000
1000
0000
,
0001
0000
0100
0000
,
0001
0000
1000
0000
,
0001
0000
0220
0330
,
1000
0001
0002
0003
,
0001
1000
1000
0200
,
0300
0010
0000
0010
,
0001
0000
1000
0001
,
1001
0000
0000
0000
;

//---------------dance-single - ----------------
#NOTES:
     dance-single:
     :
     Beginner:
     1:
     0.073845,0.094909,0.000000,0.000000,0.000000,61.000000,0.000000,0.000000,0.000000,0.000000,0.000000,0.073845,0.094909,0.000000,0.000000,0.000000,61.000000,0.000000,0.000000,0.000000,0.000000,0.000000:
// measure 0
0000
0000
0000
0000
,  // measure 1
0000
0000
0000
0000
,  // measure 2
0000
0000
0000
0000
,  // measure 3
0000
0000
0000
0000
,  // measure 4
1000
0000
0000
0000
,  // measure 5
0001
0000
0000
0000
,  // measure 6
0100
0000
0000
0000
,  // measure 7
0010
0000
0010
0000
,  // measure 8
1000
0000
0000
0000
,  // measure 9
0100
0000
0000
0000
,  // measure 10
0001
0000
0000
0000
,  // measure 11
0010
0000
0000
0000
,  // measure 12
1000
0000
1000
0000
,  // measure 13
0001
0000
0001
0000
,  // measure 14
1000
0000
0000
0000
,  // measure 15
0100
0000
0000
0000
,  // measure 16
0010
0000
0000
0000
,  // measure 17
0001
0000
1000
0000
,  // measure 18
0001
0000
0000
0000
,  // measure 19
0100
0000
0000
0000
,  // measure 20
0010
0000
0000
0000
,  // measure 21
0000
0000
0100
0000
,  // measure 22
0010
0000
0000
0000
,  // measure 23
0000
0000
1000
0000
,  // measure 24
0001
0000
0000
0000
,  // measure 25
0000
0000
1000
0000
,  // measure 26
0001
0000
0000
0000
,  // measure 27
0000
0000
0100
0000
,  // measure 28
0001
0000
0000
0000
,  // measure 29
1000
0000
0000
0000
,  // measure 30
0100
0000
0000
0000
,  // measure 31
0010
0000
0010
0000
,  // measure 32
0001
0000
0000
0000
,  // measure 33
0100
0000
0000
0000
,  // measure 34
1000
0000
0000
0000
,  // measure 35
0010
0000
0000
0000
,  // measure 36
0001
0000
0001
0000
,  // measure 37
1000
0000
1000
0000
,  // measure 38
0001
0000
0000
0000
,  // measure 39
0100
0000
0000
0000
,  // measure 40
0010
0000
0000
0000
,  // measure 41
1000
0000
0001
0000
,  // measure 42
1000
0000
0000
0000
,  // measure 43
0100
0000
0000
0000
,  // measure 44
0010
0000
0000
0000
,  // measure 45
0000
0000
0100
0000
,  // measure 46
0010
0000
0000
0000
,  // measure 47
0000
0000
0001
0000
,  // measure 48
1000
0000
0000
0000
,  // measure 49
0000
0000
0001
0000
,  // measure 50
1000
0000
0000
0000
,  // measure 51
0000
0000
0100
0000
,  // measure 52
1000
0000
0000
0000
,  // measure 53
0001
0000
0000
0000
,  // measure 54
0100
0000
0000
0000
,  // measure 55
0010
0000
0000
0000
,  // measure 56
1000
0000
0000
0000
;
