#TITLE:Go Berzerk;
#SUBTITLE:;
#ARTIST:Scott Brown;
#TITLETRANSLIT:;
#SUBTITLETRANSLIT:;
#ARTISTTRANSLIT:;
#GENRE:Hardcore;
#CREDIT:;
#BANNER:Go Berzerk-bn.png;
#BACKGROUND:Go Berzerk-bg.png;
#LYRICSPATH:;
#CDTITLE:;
#MUSIC:beatmania IIDX RED - Go Berzerk.mp3;
#OFFSET:-0.491137;
#SAMPLESTART:89.807114;
#SAMPLELENGTH:9.767441;
#SELECTABLE:YES;
#BPMS:0.000000=172.000000
;
#STOPS:
;
#BGCHANGES:;
#KEYSOUNDS:;
#ATTACKS:;

//---------------dance-single - ----------------
#NOTES:
     dance-single:
     :
     Hard:
     10:
     0.749431,0.758046,0.086142,0.163669,0.387637,580.000000,10.000000,19.000000,0.000000,0.000000,0.000000,0.749431,0.758046,0.086142,0.163669,0.387637,580.000000,10.000000,19.000000,0.000000,0.000000,0.000000:
0000
0000
0000
0000
,
0000
0000
0000
0000
,
0000
0000
0000
0000
,
0000
0000
0000
0000
,
1000
1000
1000
1000
,
0001
0001
0001
0001
,
0100
0010
1000
0001
,
2002
0000
0000
3003
,
1000
0100
0010
0100
1000
0100
0010
0100
,
1000
0001
0100
0001
1000
0100
0010
0000
,
0001
0100
0010
0100
0001
0100
0010
0100
,
0001
1000
0100
1000
0001
0100
0010
0000
,
0100
0001
1000
0001
0100
0001
1000
0001
,
0100
0010
1000
0100
0010
0001
1000
0000
,
0100
1000
0001
1000
0100
1000
0001
1000
,
0100
0010
0001
0100
0010
1000
0001
0000
,
0100
0000
0010
0000
1000
0000
0100
0000
0010
0000
0100
0010
0000
0100
0000
0000
,
1000
0000
0001
0000
0100
0000
0010
0000
0100
0000
0010
0100
0000
0010
0000
0000
,
1000
0000
0100
0000
0010
0000
0001
0000
1000
0000
0001
0100
0000
0001
0000
0000
,
0001
0000
0100
0000
0010
0000
1000
0000
0001
0000
1000
0100
0000
1000
0100
0000
,
1000
0000
0100
0000
0001
0000
0100
0000
1000
0000
0001
0100
0000
0010
0000
0000
,
0100
0000
0001
0000
0010
0000
1000
0000
0010
0000
0001
1000
0000
0001
0000
0000
,
0100
0000
0010
0000
1000
0000
0100
0000
0001
0000
0100
1000
0000
0001
0100
0000
,
2002
0000
0000
3003
,
0001
0100
0001
0000
0001
0000
0000
0000
1000
0100
1000
0000
1000
0000
0000
0000
,
0100
0010
0100
0000
0100
0000
0000
0000
1000
0000
0002
0000
0100
0000
0000
0000
,
1003
0100
1000
0000
1000
0000
0000
0000
0001
0100
0001
0000
0001
0000
0000
0000
,
0100
0010
0100
0000
0100
0000
0000
0000
0001
0000
2000
0000
0100
0000
0000
0000
,
3001
0010
0001
0000
0001
0000
0000
0000
1000
0010
1000
0000
1000
0000
0000
0000
,
0100
0010
0100
0000
0100
0000
0000
0000
1000
0000
0002
0000
0100
0000
0000
0000
,
0013
0100
0010
0000
0010
0000
0000
0000
0001
0000
1000
0000
0001
0000
0000
0000
,
2002
0000
0000
3003
,
0001
0100
0001
0000
0001
0000
1000
0000
0100
1000
0100
0000
0100
0000
1000
0000
,
0010
0100
0010
0000
0010
0000
0100
0000
0001
0000
2000
0000
0000
0000
3100
0000
,
0010
0100
0010
0000
0010
0000
0001
0000
1000
0001
1000
0000
1000
0000
0010
0000
,
0100
0010
0100
0000
0100
0000
0001
0000
1000
0000
0200
0000
0000
0000
0310
0000
,
0100
1000
0100
0000
0100
0000
0010
0000
0001
1000
0001
0000
0001
0000
0100
0000
,
0010
0100
0010
0000
0010
0000
1000
0000
0001
0000
0200
0000
0000
0000
0310
0000
,
1000
0001
1000
0000
1000
0000
0100
0000
0010
0001
0010
0000
0010
0000
0100
0000
,
1000
0001
1000
0000
1000
0000
0010
0000
0100
0000
0001
0000
1001
0000
0000
0000
,
1000
0000
0100
0000
0010
0000
0100
0000
1000
0000
0001
0100
0000
0010
0000
0100
,
0001
0000
0100
0000
0010
0000
0100
0000
0001
0000
1000
0100
0000
0010
0000
0100
,
1000
0000
0100
0000
0010
0000
0100
0000
1000
0000
0001
0100
0000
0010
0000
1000
,
0001
0000
0010
0000
0100
0000
0010
0000
0001
0000
1000
0100
0000
0010
0000
0001
,
1000
0000
0010
0000
0100
0000
0001
0000
0010
0000
0100
0010
0000
0001
0000
0100
,
0010
0000
1000
0000
0100
0000
0010
0000
0100
0000
1000
0001
0000
0100
0010
0000
,
0100
0010
0100
0000
0010
0000
0000
0000
1000
0000
0001
0000
1000
0000
0000
0000
,
0100
0100
1100
0101
,
0001
0010
0010
0001
1000
1000
0001
0100
,
0001
1000
1000
0100
1000
0100
0001
0100
,
1000
0010
0010
0100
0010
0010
1000
0001
,
0100
0001
0001
0010
0001
0100
0110
0000
,
0001
1000
1000
0100
1000
1000
0010
0100
,
0010
1000
1000
0100
1000
0010
0001
0010
,
1000
0100
0100
0010
0100
0100
0010
0001
,
1000
0001
0001
0100
0001
0010
0110
0000
,
1000
0000
0010
1000
0010
0000
0100
0000
0010
0100
0010
0000
0100
0000
0001
0100
,
0001
0000
1000
0000
0001
1000
0001
0000
0100
0000
0020
0000
1000
0000
0000
0000
,
0130
0000
0001
0100
0001
0000
0100
0000
0010
0100
0010
0000
1000
0000
0001
1000
,
0001
0000
1000
0000
0100
0010
0100
0000
0010
0000
0002
0000
1000
0000
0000
0000
,
0103
0000
0010
1000
0010
0000
1000
0000
0001
1000
0001
0000
1000
0000
0100
0010
,
0100
0000
0010
0000
0001
1000
0001
0000
0100
0000
0020
0000
1000
0000
0000
0000
,
0130
0000
0001
0100
0001
0000
1000
0000
0100
1000
0100
0000
0010
0000
0001
0000
,
2002
0000
0000
3003
,
1000
0000
0100
0000
0001
0000
0100
0000
1000
0000
0000
0010
0000
0000
0100
0000
,
0001
0000
0010
0000
1000
0000
0010
0000
0001
0000
0000
0100
0000
0000
0010
0000
,
1000
0000
0010
0000
0001
0000
0010
0000
1000
0000
0000
0100
0000
0000
0010
0000
,
0001
0000
0100
0000
1000
0000
0100
0000
0001
0000
0000
0010
0000
0000
0100
0000
,
1000
0100
1000
0000
0001
0000
0100
0000
0001
0000
0010
0100
0000
0010
0100
0000
,
1000
0010
1000
0000
0001
0000
0100
0000
0010
0000
1000
0001
0000
1000
0001
0000
,
0100
0010
0100
0000
0001
0000
0010
0000
0001
0000
0100
0010
0000
1000
0010
0000
,
1000
0100
1000
0000
0001
0000
0010
0000
0001
0000
0000
0100
0000
0000
0100
0000
,
0010
1000
1000
0001
1000
1000
0100
0010
,
0100
1000
1000
0010
1000
1000
0010
0100
,
0001
1000
1000
0001
0010
0010
0001
0100
,
0001
0010
0010
1000
0010
0001
0100
0010
,
1000
0100
1000
0000
0100
0000
0010
0100
0010
0000
0100
0000
0010
0001
0010
0000
,
0001
0100
0001
0000
0100
0000
0010
1000
0010
0000
1000
0000
0100
0010
0100
0000
,
0010
0100
0010
0000
0010
0000
0000
0000
0001
0000
1000
0000
0001
0000
0000
0000
,
2002
0000
0000
0000
,
3003
0000
0000
0000
;

//---------------dance-single - ----------------
#NOTES:
     dance-single:
     :
     Medium:
     8:
     0.541461,0.551306,0.284267,0.180897,0.038764,386.000000,33.000000,21.000000,0.000000,0.000000,0.000000,0.541461,0.551306,0.284267,0.180897,0.038764,386.000000,33.000000,21.000000,0.000000,0.000000,0.000000:
0000
0000
0000
0000
,
0000
0000
0000
0000
,
0000
0000
0000
0000
,
0000
0000
0000
0000
,
1000
1000
0001
0001
,
0100
0100
0010
0010
,
1000
0001
0010
0100
,
2002
0000
0000
3003
,
1000
0100
0000
0010
0000
0001
0000
0100
,
0000
0010
0000
0100
0000
0001
0000
1000
,
0100
0010
0000
0100
0000
1000
0000
0001
,
0000
0100
0000
0010
0000
0100
0000
0001
,
1000
0100
0000
0010
0000
0100
0000
1000
,
0000
0001
0000
0100
0000
0010
0000
0100
,
0001
0010
0000
0100
0000
1000
0000
0010
,
0200
0000
0000
0300
,
0010
1000
0010
0000
1000
0001
1000
0000
,
0100
0000
0010
0000
0001
1000
0001
0000
,
0100
0001
0100
0000
0010
0100
0010
0000
,
1000
0000
0100
0000
0010
0100
0010
0000
,
0100
1000
0100
0000
1000
0001
1000
0000
,
0001
0000
0100
0000
0010
0100
0010
0000
,
1000
0100
1000
0000
0001
0100
0001
0000
,
2002
0000
0000
3003
,
0001
1000
0000
0000
0001
0100
0000
0000
,
0001
0010
0000
0000
0100
2000
0000
0000
,
3010
0100
0000
0000
0010
0001
0000
0000
,
0010
1000
0000
0000
0001
2000
0000
0000
,
3010
0100
0000
0000
0010
0001
0000
0000
,
0010
1000
0000
0000
0100
2000
0000
0000
,
3001
1000
0001
0000
0001
1000
0001
0000
,
2002
0000
0000
3003
,
0001
0100
0010
0000
0010
1000
0001
0000
,
0001
0010
0100
0000
1000
0002
0000
0103
,
0010
0100
0001
0000
0001
0010
0100
0000
,
0100
1000
0010
0000
1000
0002
0000
1003
,
0100
1000
0010
0000
0010
0100
0001
0000
,
1000
0100
0010
0000
0100
2000
0000
3001
,
0100
0010
1000
0000
1000
0100
0010
0000
,
0001
0001
0100
0010
1000
0002
0000
0003
,
1000
0100
0000
0011
0000
0100
0000
1010
,
0000
0100
0000
0011
0000
0100
0000
1000
,
0001
0100
0000
1010
0000
0100
0000
0011
,
0000
0100
0000
1010
0000
0100
0000
0001
,
1000
0100
0000
0110
0000
0001
0000
1100
,
0000
0010
0000
0101
0000
0010
0000
1000
,
0001
1000
0001
0000
1000
0001
1000
0000
,
0100
0100
0100
0100
,
1000
0010
0000
1000
0100
0000
0010
0001
,
0010
0001
0000
0100
0001
0000
1000
0000
,
0001
0100
0000
0001
0010
0000
0100
1000
,
0100
1000
0000
0010
1000
0000
0001
0000
,
0100
0010
0000
1000
0010
0000
1000
0100
,
1000
0100
0000
0010
0100
0000
1000
0000
,
0001
0100
0000
0010
0100
0000
0001
1000
,
0001
1000
0000
0100
0010
0000
1001
0000
,
0001
0100
0001
0100
0010
0100
0010
0100
,
1000
0100
1000
0100
0010
0200
0000
0301
,
1000
0100
1000
0100
0010
0100
0010
0100
,
0001
0100
0001
0100
0010
0200
0000
1300
,
0001
0010
0001
0010
0100
0010
0100
0010
,
1000
0010
1000
0010
0100
0020
0000
0130
,
1000
0010
1000
0010
0100
0010
0100
0010
,
0220
0000
0000
0330
,
0001
0000
0100
0000
0010
0000
0000
0000
0100
0000
0000
0100
0000
0000
0100
0000
,
0001
0000
1000
0000
0100
0000
0000
0000
0010
0000
0000
0010
0000
0000
0010
0000
,
0100
0000
1000
0000
0001
0000
0000
0000
0100
0000
0000
0100
0000
0000
0100
0000
,
0010
0000
1000
0000
0001
0000
0000
0000
0010
0000
0000
0010
0000
0000
0010
0000
,
0100
0000
1000
0000
0001
0000
0000
0000
0100
0000
0000
0010
0000
0000
1000
0000
,
0100
0000
0010
0000
0001
0000
0000
0000
1000
0000
0000
0001
0000
0000
0100
0000
,
0010
0000
1000
0000
0001
0000
0000
0000
0010
0000
0000
0100
0000
0000
1000
0000
,
0001
0000
0100
0000
0010
0000
0000
0000
1000
0000
0000
0001
0000
0000
1000
0000
,
0100
0011
0000
0101
0000
1100
0000
1010
,
0000
1001
0000
0101
0000
0001
0010
0100
,
1000
1010
0000
0011
0000
0101
0000
1100
,
0000
1010
0000
1001
0000
1000
0010
0100
,
0001
0011
0000
1010
0000
1100
0000
0101
,
0000
1001
0000
0011
0000
0010
0100
1000
,
0001
1000
0001
0000
0100
0000
0000
0000
0001
0000
1000
0000
0001
0000
0000
0000
,
2002
0000
0000
0000
,
3003
0000
0000
0000
;

//---------------dance-single - ----------------
#NOTES:
     dance-single:
     :
     Easy:
     6:
     0.396251,0.413479,0.189511,0.155055,0.000000,282.000000,22.000000,18.000000,0.000000,0.000000,0.000000,0.396251,0.413479,0.189511,0.155055,0.000000,282.000000,22.000000,18.000000,0.000000,0.000000,0.000000:
0000
0000
0000
0000
,
0000
0000
0000
0000
,
0000
0000
0000
0000
,
0000
0000
0000
0000
,
0001
1000
0001
1000
,
0010
0100
0010
0100
,
0001
0010
0100
1000
,
2002
0000
0000
3003
,
1000
0100
1000
0001
,
1000
0100
0010
0000
,
0001
0100
0001
1000
,
0100
0010
0001
0000
,
1000
0010
0100
0010
,
1000
0100
0010
0000
,
0001
0100
0010
0100
,
0001
0010
0100
0000
,
1000
0010
0100
0000
,
0001
1000
0100
0000
,
0010
0100
1000
0000
,
0001
0100
0010
0110
,
1000
0100
0010
0000
,
0001
0100
0010
0000
,
1000
0001
0100
0000
,
0220
0000
0000
0330
,
1000
0000
0001
0000
,
0100
0000
0220
0330
,
0001
0000
1000
0000
,
0100
0000
0220
0330
,
1000
0000
0001
0000
,
0100
0000
0220
0330
,
0010
0000
1000
0001
,
2002
0000
0000
3003
,
1000
1000
0001
0001
,
0100
0100
0010
0110
,
0001
0001
1000
1000
,
0100
0100
0010
0110
,
1000
1000
0010
0010
,
0100
0100
0001
1001
,
0001
0001
0010
0010
,
0100
0100
1000
1001
,
1000
0000
1000
0000
0001
1000
0001
0000
,
1000
0000
1000
0000
0010
1000
0010
0000
,
0100
0000
0100
0000
0001
1000
0001
0000
,
0100
0000
0100
0000
0001
1000
0100
0000
,
0010
0000
0010
0000
0001
1000
0001
0000
,
0010
0000
0010
0000
0001
0010
0001
0000
,
0010
0010
0100
0100
,
0220
0000
0000
0330
,
1000
0000
0000
1000
0000
0000
1000
0000
,
0001
0000
0000
0001
0000
0000
0001
0000
,
0100
0000
0000
0100
0000
0000
0100
0000
,
0010
0000
0000
0010
0000
0000
0010
0000
,
1000
0100
0010
0001
,
0100
0010
1000
0001
,
0010
0100
1000
0001
,
0100
0010
1000
0100
,
0010
0000
0010
0000
0001
0010
0001
0000
,
0100
0000
0100
0000
0010
0100
0010
0000
,
1000
0000
1000
0000
0100
1000
0100
0000
,
0010
0000
0010
0000
0001
0100
0001
0000
,
0100
0000
0100
0000
0010
1000
0010
0000
,
1000
0000
1000
0000
0001
1000
0001
0000
,
0100
0000
0100
0000
0001
1000
0001
0000
,
2002
0000
0000
3003
,
0001
0100
0010
0110
,
1000
0100
0010
0110
,
0001
0100
0010
0110
,
1000
0100
0010
0110
,
0001
1000
0100
1100
,
1000
0001
0100
0101
,
0001
1000
0010
1010
,
1000
0001
0010
0011
,
0001
0100
0001
0000
0100
0000
0100
0000
,
0010
1000
0010
0000
1000
0000
1000
0000
,
0001
1000
0001
0000
0010
0000
0010
0000
,
0100
1000
0100
0000
0010
0000
0010
0000
,
0001
0100
0001
0000
0100
0001
0100
0000
,
0001
1000
0001
0000
1000
0001
1000
0000
,
0100
0010
0100
0000
0010
0100
0010
0000
,
0220
0000
0000
0000
,
0330
0000
0000
0000
;

//---------------dance-single - ----------------
#NOTES:
     dance-single:
     :
     Beginner:
     3:
     0.237505,0.275653,0.043071,0.129212,0.000000,173.000000,5.000000,15.000000,0.000000,0.000000,0.000000,0.237505,0.275653,0.043071,0.129212,0.000000,173.000000,5.000000,15.000000,0.000000,0.000000,0.000000:
// measure 0
0000
0000
0000
0000
,  // measure 1
0000
0000
0000
0000
,  // measure 2
0000
0000
0000
0000
,  // measure 3
0000
0000
0000
0000
,  // measure 4
0001
0000
0000
0000
,  // measure 5
1000
0000
0000
0000
,  // measure 6
0001
0000
1000
0000
,  // measure 7
2002
0000
0000
3003
,  // measure 8
1000
0000
1000
0000
,  // measure 9
1000
0000
0000
0000
,  // measure 10
0001
0000
0001
0000
,  // measure 11
0001
0000
0000
0000
,  // measure 12
0100
0000
0100
0000
,  // measure 13
0100
0000
0000
0000
,  // measure 14
0010
0000
0010
0000
,  // measure 15
0020
0000
0000
0030
,  // measure 16
1000
0000
0100
0000
,  // measure 17
1000
0000
0100
0000
,  // measure 18
1000
0000
0001
0000
,  // measure 19
1000
0000
0000
0000
,  // measure 20
0001
0000
0100
0000
,  // measure 21
0001
0000
0100
0000
,  // measure 22
0010
0000
1000
0000
,  // measure 23
0020
0000
0000
0030
,  // measure 24
1000
0000
1000
0000
,  // measure 25
2000
0000
3001
0000
,  // measure 26
0001
0000
0001
0000
,  // measure 27
0002
0000
1003
0000
,  // measure 28
0010
0000
0010
0000
,  // measure 29
0020
0000
0130
0000
,  // measure 30
0100
0000
0100
0000
,  // measure 31
0220
0000
0000
0330
,  // measure 32
1000
0000
1000
0000
,  // measure 33
1000
0001
1000
0000
,  // measure 34
0001
0000
0001
0000
,  // measure 35
0001
1000
0001
0000
,  // measure 36
0100
0000
0100
0000
,  // measure 37
0100
0010
0100
0000
,  // measure 38
0010
0000
0010
0000
,  // measure 39
0010
0100
0010
0000
,  // measure 40
1000
0100
1000
0000
,  // measure 41
0001
0100
0001
0000
,  // measure 42
1000
0100
1000
0000
,  // measure 43
0001
0100
0001
0000
,  // measure 44
1000
0010
1000
0000
,  // measure 45
0001
0010
0001
0000
,  // measure 46
1000
0001
1000
0000
,  // measure 47
2002
0000
0000
3003
,  // measure 48
0001
0000
0001
0000
,  // measure 49
1000
0000
1000
0000
,  // measure 50
0100
0000
0100
0000
,  // measure 51
0010
0000
0010
0000
,  // measure 52
0001
0000
1000
0000
,  // measure 53
0001
0000
0100
0000
,  // measure 54
0010
0000
1000
0000
,  // measure 55
0001
0000
1000
0000
,  // measure 56
0100
0010
0100
0000
,  // measure 57
1000
0001
1000
0000
,  // measure 58
0001
0100
0001
0000
,  // measure 59
1000
0010
1000
0000
,  // measure 60
0010
0100
0010
0000
,  // measure 61
1000
0010
1000
0000
,  // measure 62
0001
0100
0001
0000
,  // measure 63
2002
0000
0000
3003
,  // measure 64
1000
1000
1000
0000
,  // measure 65
0001
0001
0001
0000
,  // measure 66
0100
0100
0100
0000
,  // measure 67
0010
0010
0010
0000
,  // measure 68
1000
0100
0010
0000
,  // measure 69
0001
0100
0010
0000
,  // measure 70
1000
0100
0010
0000
,  // measure 71
0001
0100
0010
0000
,  // measure 72
1000
0100
1000
0000
,  // measure 73
0001
0100
0001
0000
,  // measure 74
1000
0100
0010
0000
,  // measure 75
0001
0100
0010
0000
,  // measure 76
1000
0001
1000
0000
,  // measure 77
0010
0100
0010
0000
,  // measure 78
1000
0001
1000
0001
,  // measure 79
2002
0000
0000
0000
,  // measure 80
3003
0000
0000
0000
;
