#VERSION:0.81;
#TITLE:Dadadadadadadadadada;
#SUBTITLE:;
#ARTIST:Higedriver join. SELEN;
#TITLETRANSLIT:;
#SUBTITLETRANSLIT:;
#ARTISTTRANSLIT:;
#GENRE:;
#ORIGIN:;
#CREDIT:;
#BANNER:[Round 9] - Dadadadadadadadadadang.png;
#BACKGROUND:[Round 9] - Dadadadadadadadadadang.png;
#PREVIEWVID:;
#JACKET:;
#CDIMAGE:;
#DISCIMAGE:;
#LYRICSPATH:;
#CDTITLE:encorerebirth.png;
#MUSIC:[ROUND 9] - Dadadadadadadadadada.mp3;
#OFFSET:-2.086;
#SAMPLESTART:74.411;
#SAMPLELENGTH:11.900;
#SELECTABLE:YES;
#BPMS:0.000=156.000;
#STOPS:;
#DELAYS:;
#WARPS:;
#TIMESIGNATURES:0.000=4=4;
#TICKCOUNTS:0.000=4;
#COMBOS:0.000=1;
#SPEEDS:0.000=1.000=0.000=0;
#SCROLLS:0.000=1.000;
#FAKES:;
#LABELS:0.000=Song Start;
#BGCHANGES:;
#KEYSOUNDS:;
#ATTACKS:
;

//---------------dance-single - Spork!----------------
#NOTEDATA:;
#CHARTNAME:;
#STEPSTYPE:dance-single;
#DESCRIPTION:Spork!;
#CHARTSTYLE:;
#DIFFICULTY:Beginner;
#METER:1;
#RADARVALUES:0.096,0.181,0.076,0.113,0.000,51.000,8.000,12.000,0.000,0.000,0.000,0.000,0.000,0.096,0.181,0.076,0.113,0.000,51.000,8.000,12.000,0.000,0.000,0.000,0.000,0.000;
#CREDIT:Spork!;
#NOTES:
// measure 0
0000
0000
0000
0000
,  // measure 1
0000
0000
0000
0000
,  // measure 2
0000
0000
0000
0000
,  // measure 3
0000
0000
0000
0000
,  // measure 4
0000
0000
0000
0000
,  // measure 5
1000
0000
0000
0000
,  // measure 6
1000
0000
0000
0000
,  // measure 7
0001
0000
0000
0000
,  // measure 8
0001
0000
0000
0000
,  // measure 9
1000
0000
0000
0000
,  // measure 10
1000
0000
0000
0000
,  // measure 11
0001
0000
0000
0000
,  // measure 12
0001
0000
0000
0000
,  // measure 13
0020
0000
0000
0000
,  // measure 14
0000
0000
0000
0000
,  // measure 15
0130
0000
0000
0000
,  // measure 16
0010
0000
0000
0000
,  // measure 17
0200
0000
0000
0000
,  // measure 18
0000
0000
0000
0000
,  // measure 19
0310
0000
0000
0000
,  // measure 20
0100
0000
0000
0000
,  // measure 21
2002
0000
0000
0000
,  // measure 22
3003
0000
0000
0000
,  // measure 23
0220
0000
0000
0000
,  // measure 24
0330
0000
0000
0000
,  // measure 25
0001
0000
0000
0000
,  // measure 26
0001
0000
0000
0000
,  // measure 27
1000
0000
0000
0000
,  // measure 28
1000
0000
0000
0000
,  // measure 29
0002
0000
0000
0000
,  // measure 30
0000
0000
0000
0000
,  // measure 31
1003
0000
0000
0000
,  // measure 32
0001
0000
0000
0000
,  // measure 33
2000
0000
0000
0000
,  // measure 34
0000
0000
0000
0000
,  // measure 35
3001
0000
0000
0000
,  // measure 36
1000
0000
0000
0000
,  // measure 37
0001
0000
0000
0000
,  // measure 38
0100
0000
0000
0000
,  // measure 39
0010
0000
0000
0000
,  // measure 40
1000
0000
0000
0000
,  // measure 41
1000
0000
0000
0000
,  // measure 42
0010
0000
0000
0000
,  // measure 43
0000
0000
0000
0000
,  // measure 44
1000
0000
0000
0000
,  // measure 45
0001
0000
0000
0000
,  // measure 46
0000
0000
0000
0000
,  // measure 47
1001
0000
0000
0000
,  // measure 48
1001
0000
0000
0000
,  // measure 49
2002
0000
0000
0000
,  // measure 50
0000
0000
3003
0000
,  // measure 51
0110
0000
0000
0000
,  // measure 52
0110
0000
0000
0000
,  // measure 53
0220
0000
0000
0000
,  // measure 54
0000
0000
0330
0000
,  // measure 55
1000
0000
0001
0000
,  // measure 56
1000
0000
0000
0000
,  // measure 57
0001
0000
0000
0000
,  // measure 58
0001
0000
0000
0000
,  // measure 59
1000
0000
0000
0000
,  // measure 60
1000
0000
0000
0000
,  // measure 61
0001
0000
0000
0000
,  // measure 62
0001
0000
0000
0000
,  // measure 63
1000
0000
0000
0000
,  // measure 64
1000
0000
0000
0000
;

//---------------dance-single - Spork!----------------
#NOTEDATA:;
#CHARTNAME:;
#STEPSTYPE:dance-single;
#DESCRIPTION:Spork!;
#CHARTSTYLE:;
#DIFFICULTY:Easy;
#METER:5;
#RADARVALUES:0.349,0.367,0.255,0.453,0.000,184.000,27.000,48.000,0.000,0.000,0.000,0.000,0.000,0.349,0.367,0.255,0.453,0.000,184.000,27.000,48.000,0.000,0.000,0.000,0.000,0.000;
#CREDIT:Spork!;
#NOTES:
// measure 0
0000
0000
0000
0000
,  // measure 1
0000
0000
0000
0000
,  // measure 2
0000
0000
0000
0000
,  // measure 3
0000
0000
0000
0000
,  // measure 4
0000
0000
0000
0000
,  // measure 5
0021
0030
1002
0003
,  // measure 6
0201
0300
0010
1000
,  // measure 7
1200
0300
2001
3000
,  // measure 8
1020
0030
0100
0001
,  // measure 9
1020
0030
1002
0003
,  // measure 10
2100
3000
0010
1000
,  // measure 11
0102
0003
2001
3000
,  // measure 12
0012
0003
0100
0001
,  // measure 13
2000
0000
0000
0000
,  // measure 14
0000
0000
0000
0000
,  // measure 15
3001
0010
0100
1000
,  // measure 16
1000
0010
0100
0001
,  // measure 17
0002
0000
0000
0000
,  // measure 18
0000
0000
0000
0000
,  // measure 19
1003
0100
0010
0001
,  // measure 20
0001
0100
0110
1001
,  // measure 21
2000
3100
2000
3010
,  // measure 22
2000
0000
3001
0000
1000
1000
1000
0000
,  // measure 23
0002
0013
0002
0103
,  // measure 24
0002
0000
1003
0000
0001
0001
0001
0000
,  // measure 25
2000
3010
0200
0301
,  // measure 26
0020
0000
0130
0000
1000
1000
1000
0000
,  // measure 27
0002
0103
0020
1030
,  // measure 28
0200
0310
0000
0000
,  // measure 29
0020
0000
0000
0000
,  // measure 30
0000
0000
0000
0000
,  // measure 31
0130
1000
0010
0010
,  // measure 32
0100
0001
0010
0010
,  // measure 33
0200
0000
0000
0000
,  // measure 34
0000
0000
0000
0000
,  // measure 35
0310
0001
0100
0100
,  // measure 36
0020
0030
0020
0030
,  // measure 37
1000
0100
0001
0001
,  // measure 38
0100
1000
0010
0100
,  // measure 39
0001
0010
1000
0010
,  // measure 40
0001
0100
0010
1000
,  // measure 41
0001
0100
1000
1000
,  // measure 42
0100
0001
0010
0100
,  // measure 43
2000
3001
0002
1003
,  // measure 44
1000
0010
0100
0001
,  // measure 45
1000
0000
0001
0000
,  // measure 46
0020
0000
0130
0000
,  // measure 47
0200
1000
0010
0301
,  // measure 48
0200
1000
0010
0301
,  // measure 49
0200
1000
0010
0001
,  // measure 50
0001
0010
1300
0001
,  // measure 51
0210
0001
0010
1300
,  // measure 52
0210
0001
0010
1300
,  // measure 53
0210
0001
0010
1000
,  // measure 54
1000
0010
0301
0000
,  // measure 55
1000
0100
0001
0010
,  // measure 56
1000
0001
1001
0000
,  // measure 57
1200
0300
2001
3000
,  // measure 58
1020
0030
0100
0001
,  // measure 59
0021
0030
1002
0003
,  // measure 60
0201
0300
0010
1000
,  // measure 61
0201
0300
2001
3000
,  // measure 62
0012
0003
0100
0001
,  // measure 63
1000
1000
0001
0001
,  // measure 64
0010
0100
1000
0001
;

//---------------dance-single - Spork!----------------
#NOTEDATA:;
#CHARTNAME:;
#STEPSTYPE:dance-single;
#DESCRIPTION:Spork!;
#CHARTSTYLE:;
#DIFFICULTY:Challenge;
#METER:10;
#RADARVALUES:0.803,0.829,0.312,0.113,1.000,550.000,33.000,12.000,88.000,0.000,6.000,0.000,0.000,0.803,0.829,0.312,0.113,1.000,550.000,33.000,12.000,88.000,0.000,6.000,0.000,0.000;
#CREDIT:Spork!;
#NOTES:
// measure 0
0000
0000
0000
0000
,  // measure 1
0000
0000
0000
0000
,  // measure 2
0000
0000
0000
0000
,  // measure 3
0000
0000
0000
0000
,  // measure 4
M000
M000
M000
M000
M000
M000
M000
M000
000M
000M
0000
0000
,  // measure 5
0100
0010
0000
0010
1000
0000
0100
0000
0010
0100
0000
0100
1000
0000
0010
0000
,  // measure 6
0100
0001
0000
0001
1000
0000
0100
0000
0020
0000
0001
0000
0130
0000
0000
0000
,  // measure 7
0100
0010
0000
0010
0001
0000
0100
0000
0010
0100
0000
0100
0001
0000
0010
0000
,  // measure 8
0100
1000
0000
1000
0001
0000
0100
0000
0010
0100
0010
1000
0100
0010
0001
0000
,  // measure 9
1000
0100
0000
1000
0010
0000
0100
0000
0001
0010
0000
0001
1000
0000
0001
0000
,  // measure 10
1000
0100
0000
0010
0001
0000
0100
0000
0020
0000
1000
0000
0130
0000
0000
0000
,  // measure 11
0001
0100
0000
0001
0010
0000
0100
0000
1000
0010
0000
1000
0001
0000
1000
0000
,  // measure 12
0001
0010
0000
0100
1000
0000
0010
0000
0100
0010
1000
0100
0010
0001
0100
0000
,  // measure 13
0010
0010
0010
0010
,  // measure 14
0100
0100
0100
0100
,  // measure 15
0010
1000
0000
0010
0000
0100
0001
0000
0011
0000
0100
0000
1010
0000
0001
0000
,  // measure 16
0100
0001
0000
0100
0000
0010
1000
0000
0001
0010
0100
0010
0001
1000
0001
0000
,  // measure 17
0010
0010
0010
0010
,  // measure 18
0400
0040
0000
0000
0000
0000
0000
0000
0000
0000
0300
0030
0001
0000
0000
0000
,  // measure 19
0010
0001
0000
0010
0000
0100
1000
0000
1010
0000
0100
0000
0011
0000
1000
0000
,  // measure 20
0100
1000
0000
0100
0000
0010
0001
0000
1001
0000
0000
0000
0110
0000
0000
0000
,  // measure 21
0001
0100
0000
0110
0000
0000
0010
0000
1000
0000
0000
1100
0000
0000
0100
0000
,  // measure 22
0010
0001
0000
0001
1000
0000
0010
0000
1010
0000
1001
0000
0012
0000
0000
0000
,  // measure 23
1003
0100
0000
0110
0000
0000
0010
0000
0001
1000
0000
0101
0000
0000
0100
0000
,  // measure 24
0010
1000
0000
1000
0001
0000
0010
0000
0110
0000
0011
0000
2001
0000
0000
0000
,  // measure 25
3001
0010
0001
0100
0001
0000
0010
0000
0100
0010
0100
1000
0100
0000
0010
0000
,  // measure 26
0001
1000
0001
0100
0010
0000
1000
0000
1010
0000
1001
0000
1200
0000
0000
0000
,  // measure 27
1300
0010
1000
0100
1000
0000
0010
0000
0100
0010
0100
0001
0100
0000
0010
0000
,  // measure 28
1000
0001
1000
0100
0010
0000
0001
0000
0100
0010
0100
0010
0100
0000
0000
0000
,  // measure 29
0001
0001
0001
0001
,  // measure 30
1000
1000
1000
1000
,  // measure 31
0100
1000
0000
0010
0000
0100
0001
0000
0011
0000
0100
0000
1010
0000
0001
0000
,  // measure 32
0010
0001
0000
0100
0000
0010
1000
0000
0001
1000
0001
0010
0100
1000
0001
0000
,  // measure 33
1000
1000
1000
1000
,  // measure 34
0004
4000
0000
0000
0000
0000
0000
0000
0000
0000
0003
3000
0010
0000
0000
0000
,  // measure 35
0100
0001
0000
0010
0000
0100
1000
0000
1010
0000
0100
0000
0011
0000
1000
0000
,  // measure 36
0010
1000
0010
0000
0100
0001
0100
0000
0001
1000
0001
1000
0001
1000
0001
1000
,  // measure 37
0001
0000
0100
0001
0010
0000
0100
1000
0010
0000
0100
0000
0010
0100
0010
0100
,  // measure 38
0010
0000
1000
0100
0010
0000
0001
0100
0010
0000
1000
0000
0002
0000
0000
0000
,  // measure 39
1003
0000
0010
1000
0010
0000
0100
0000
0001
0000
0010
0001
0010
0000
0100
0000
,  // measure 40
1000
0100
0010
0001
0010
0100
1000
0100
0010
0001
0100
0010
0100
0010
1000
0001
,  // measure 41
1000
0000
0100
1000
0010
0000
0100
0001
0010
0000
0100
0010
0001
0000
1000
0000
,  // measure 42
0001
0000
0010
0001
0100
0000
0010
1000
0100
0000
0010
0000
0002
0000
0000
0000
,  // measure 43
1003
0010
0000
1000
0001
0000
0100
0000
0001
0010
0000
0001
1000
0000
0010
0000
,  // measure 44
0100
0010
0000
0100
0001
0000
0010
0000
0100
0000
1000
0000
0010
0000
0100
0000
,  // measure 45
0001
0100
0001
0100
0001
0100
0001
0100
0010
1000
0010
1000
0010
1000
0010
1000
,  // measure 46
0004
4000
0000
0000
0000
0000
0000
0000
0000
0000
0000
0000
0000
0000
0003
0000
3010
0000
0000
0000
0000
0000
0000
0000
0010
0000
0000
0000
0000
0000
0000
0000
,  // measure 47
100M
010M
001M
010M
100M
001M
010M
100M
01M0
00M1
0000
0000
,  // measure 48
M001
0000
M010
0000
M100
0000
M010
0000
M001
0000
M100
0000
M010
0000
M001
0000
0M10
0000
1M00
0000
0001
1000
0001
0000
,  // measure 49
10M0
01M0
00M1
01M0
10M0
01M0
00M1
01M0
100M
010M
M010
M001
,  // measure 50
01M0
10M0
01M0
00M1
01M0
10M0
01M0
0000
0000
1001
0000
0000
,  // measure 51
M010
0000
M001
0100
M001
0000
M010
0000
M100
0000
M001
0000
M100
0000
M010
0000
0M01
0000
1M00
0000
0000
0000
0000
0000
,  // measure 52
001M
0000
100M
0100
100M
0000
001M
0000
010M
0000
100M
0000
010M
0000
001M
0000
1M00
0000
0M01
0000
0000
0000
0000
0000
,  // measure 53
0M10
0000
0M01
1000
0M01
0000
0M10
0000
1M00
0000
0M10
0000
0M01
0000
1M00
0000
0M10
0000
M001
0000
0M10
0000
100M
0000
,  // measure 54
01M0
0000
10M0
0001
10M0
0000
01M0
0000
00M1
0000
01M0
0000
10M0
0000
0000
0000
0000
0000
1001
0000
0000
0000
0000
0000
,  // measure 55
1000
0100
0010
1100
0000
0000
0001
0100
0010
0101
0000
0000
,  // measure 56
1000
0010
0100
0001
0010
0100
1002
0000
0000
0103
0000
0000
,  // measure 57
0010
0100
0000
0100
0001
0000
0010
0000
0100
0010
0000
0010
0001
0000
0100
0000
,  // measure 58
0010
1000
0000
1000
0001
0000
0010
0000
0200
0000
1000
0000
0310
0000
0000
0000
,  // measure 59
0010
0100
0000
0100
1000
0000
0010
0000
0100
0010
0000
0010
1000
0000
0100
0000
,  // measure 60
0010
0001
0000
0001
1000
0000
0010
0000
0100
0010
0100
0001
0010
0100
1000
0000
,  // measure 61
0001
0010
0000
0001
0100
0000
0010
0000
1000
0100
0000
1000
0001
0000
1000
0000
,  // measure 62
0001
0010
0000
0100
1000
0000
0010
0000
0200
0000
0001
0000
0310
0000
0000
0000
,  // measure 63
1000
0001
0000
0101
0000
0000
0010
0000
0001
1000
0000
1010
0000
0000
0100
0000
,  // measure 64
1000
0010
1000
0001
1000
0000
0100
0000
0110
0000
1001
0000
0202
0000
0000
0000
,  // measure 65
0303
0000
0000
0000
;

//---------------dance-single - Spork!----------------
#NOTEDATA:;
#CHARTNAME:;
#STEPSTYPE:dance-single;
#DESCRIPTION:Spork!;
#CHARTSTYLE:;
#DIFFICULTY:Hard;
#METER:8;
#RADARVALUES:0.604,0.583,0.170,0.113,0.430,418.000,18.000,12.000,0.000,0.000,0.000,0.000,0.000,0.604,0.583,0.170,0.113,0.430,418.000,18.000,12.000,0.000,0.000,0.000,0.000,0.000;
#CREDIT:Spork!;
#NOTES:
// measure 0
0000
0000
0000
0000
,  // measure 1
0000
0000
0000
0000
,  // measure 2
0000
0000
0000
0000
,  // measure 3
0000
0000
0000
0000
,  // measure 4
0000
0000
0000
0000
,  // measure 5
0010
1000
0000
1000
0001
0000
0010
0000
0001
1000
0000
1000
0010
0000
0100
0000
,  // measure 6
0010
1000
0000
1000
0001
0000
0010
0000
0001
0000
0100
0000
1001
0000
0000
0000
,  // measure 7
0100
1000
0000
1000
0001
0000
0100
0000
0001
1000
0000
1000
0100
0000
0010
0000
,  // measure 8
0100
1000
0000
1000
0001
0000
0100
0000
0001
0000
0001
0000
1000
0000
1000
0000
,  // measure 9
0001
0010
0000
0001
0010
0000
0100
0000
1000
0001
0000
1000
0001
0000
0100
0000
,  // measure 10
0010
0100
0000
0010
0100
0000
0001
0000
1000
0000
0100
0000
1001
0000
0000
0000
,  // measure 11
0001
0100
0000
0001
0100
0000
0010
0000
1000
0001
0000
1000
0001
0000
0010
0000
,  // measure 12
0100
0010
0000
0100
0010
0000
0001
0000
1000
0000
1000
0000
0001
0000
0000
0000
,  // measure 13
0100
0100
0100
0100
,  // measure 14
0010
0010
0010
0010
,  // measure 15
1000
0100
1000
0010
1000
0001
0100
0100
,  // measure 16
0001
0010
0001
0100
0001
1000
0001
0001
,  // measure 17
0010
0010
0010
0010
,  // measure 18
0200
0010
1000
0310
,  // measure 19
0001
0100
0001
1000
0001
0010
0001
0001
,  // measure 20
1000
0010
1000
0001
1100
0000
1001
0000
,  // measure 21
1000
0001
0000
0010
0000
0000
0100
0000
0010
0000
0000
0001
0000
0000
0100
0000
,  // measure 22
0010
0000
0000
1000
0000
0000
0001
0000
0100
0000
1000
0000
0100
0000
0000
0000
,  // measure 23
0001
1000
0000
0010
0000
0000
0100
0000
0010
0000
0000
1000
0000
0000
0100
0000
,  // measure 24
0010
0000
0000
0001
0000
0000
1000
0000
0010
0000
0001
0000
0010
0000
0000
0000
,  // measure 25
1000
0100
1000
0100
0001
0100
0001
0100
,  // measure 26
0001
0010
0001
0010
1000
0001
0011
0000
,  // measure 27
0001
0100
0001
0100
1000
0100
1000
0100
,  // measure 28
1000
0010
1000
0010
0002
0000
1003
0000
,  // measure 29
0010
0010
0010
0010
,  // measure 30
0100
0100
0100
0100
,  // measure 31
0001
0010
0001
0100
0001
1000
0010
0010
,  // measure 32
1000
0100
1000
0010
1000
0001
1000
1000
,  // measure 33
0100
0100
0100
0100
,  // measure 34
0020
0100
0001
0130
,  // measure 35
1000
0010
1000
0001
1000
0100
1000
1000
,  // measure 36
0001
0010
0100
1000
0100
0010
0001
1000
,  // measure 37
0001
0000
0000
0101
0000
0000
0001
0000
0010
0000
0100
0000
1000
0000
0001
0000
,  // measure 38
1000
0000
0000
1010
0000
0000
1000
0000
0100
0000
0010
0000
0001
0000
0000
0000
,  // measure 39
1000
0100
1000
0100
0010
0001
0010
0001
,  // measure 40
0100
0010
0100
0010
1000
0000
1000
0001
,  // measure 41
1000
0000
0000
1100
0000
0000
1000
0000
0010
0000
0100
0000
0001
0000
1000
0000
,  // measure 42
0001
0000
0000
0011
0000
0000
0001
0000
0100
0000
0010
0000
2000
0000
0000
0000
,  // measure 43
3001
0000
0000
0010
0000
0000
0001
0000
0100
0000
0000
0010
0000
0000
1000
0000
,  // measure 44
0001
0000
0000
1000
0000
0000
0001
0000
0010
0000
0100
0000
1000
0000
0001
0000
,  // measure 45
2000
0000
0000
0001
0002
0000
3003
0000
,  // measure 46
0011
0000
1001
0000
,  // measure 47
1000
0000
1000
0010
0000
0010
0100
0000
0100
0001
0000
0000
,  // measure 48
0001
0000
0001
0010
0000
0010
0100
0000
0100
1000
0000
0000
,  // measure 49
1000
0000
1000
0001
0000
0001
1000
0000
1000
0001
0000
0001
,  // measure 50
0010
0000
0010
0100
0000
0100
0020
0000
0000
0031
0000
0000
,  // measure 51
1000
0100
1000
0100
0000
0100
0010
0000
0010
0001
0000
0000
,  // measure 52
0001
0100
0001
0100
0000
0100
0010
0000
0010
1000
0000
0000
,  // measure 53
0001
1000
0001
1000
0000
0100
1000
0001
1000
0001
0000
0010
,  // measure 54
0001
1000
0001
1000
0001
1000
0020
0000
0000
0130
0000
0000
,  // measure 55
0001
0101
1000
1100
,  // measure 56
0010
0110
2002
3003
,  // measure 57
0010
0001
0000
0001
1000
0000
0010
0000
1000
0001
0000
0001
0010
0000
0100
0000
,  // measure 58
0010
0001
0000
0001
1000
0000
0010
0000
1000
0000
0100
0000
1001
0000
0000
0000
,  // measure 59
0100
0001
0000
0001
1000
0000
0100
0000
1000
0001
0000
0001
0100
0000
0010
0000
,  // measure 60
0100
0001
0000
0001
1000
0000
0100
0000
1000
0000
1000
0000
0001
0000
0001
0000
,  // measure 61
1000
0100
0000
1000
0100
0000
0010
0000
0001
1000
0000
0001
1000
0000
0010
0000
,  // measure 62
0100
0010
0000
0100
0010
0000
1000
0000
0001
0000
0010
0000
1001
0000
0000
0000
,  // measure 63
1000
0001
0000
0100
0000
0000
0010
0000
0100
0000
0000
0001
0000
0000
0010
0000
,  // measure 64
0100
0000
0000
1000
0000
0000
0001
0000
0100
0000
0100
0000
0220
0000
0000
0000
,  // measure 65
0330
0000
0000
0000
;

//---------------dance-single - Spork!----------------
#NOTEDATA:;
#CHARTNAME:;
#STEPSTYPE:dance-single;
#DESCRIPTION:Spork!;
#CHARTSTYLE:;
#DIFFICULTY:Medium;
#METER:7;
#RADARVALUES:0.498,0.491,0.586,0.066,0.000,300.000,62.000,7.000,0.000,0.000,0.000,0.000,0.000,0.498,0.491,0.586,0.066,0.000,300.000,62.000,7.000,0.000,0.000,0.000,0.000,0.000;
#CREDIT:Spork!;
#NOTES:
// measure 0
0000
0000
0000
0000
,  // measure 1
0000
0000
0000
0000
,  // measure 2
0000
0000
0000
0000
,  // measure 3
0000
0000
0000
0000
,  // measure 4
0000
0000
0000
0000
,  // measure 5
1000
0100
1000
0100
1000
0001
1000
0001
,  // measure 6
1000
0010
1000
0010
0100
0000
0100
0000
,  // measure 7
0001
0010
0001
0010
0001
1000
0001
1000
,  // measure 8
0001
0100
0001
0100
0010
0000
1001
0000
,  // measure 9
0001
0100
0001
0100
0001
1000
0001
1000
,  // measure 10
0001
0010
0001
0010
0100
0000
0100
0000
,  // measure 11
1000
0010
1000
0010
1000
0001
1000
0001
,  // measure 12
1000
0100
1000
0100
0010
0000
0010
0000
,  // measure 13
0001
0001
0001
0001
,  // measure 14
1000
1000
1000
1000
,  // measure 15
0001
0010
0000
0011
0000
1001
0000
0100
,  // measure 16
0000
0010
0000
1010
0000
1001
0000
0100
,  // measure 17
1000
1000
1000
1000
,  // measure 18
0001
0001
0001
0001
,  // measure 19
1000
0010
0000
1010
0000
0110
0000
1000
,  // measure 20
0000
0001
0100
0000
1001
0000
1001
0000
,  // measure 21
0001
0000
0010
0001
0100
0000
0100
0001
,  // measure 22
0010
0100
0110
1001
,  // measure 23
1000
0000
0010
1000
0100
0000
0100
1000
,  // measure 24
0010
0100
0110
1001
,  // measure 25
1000
0100
1000
0000
0100
0010
0100
0000
,  // measure 26
0010
0001
0010
0000
0011
0000
1001
0000
,  // measure 27
0001
0100
0001
0000
0100
0010
0100
0000
,  // measure 28
0010
1000
0010
0000
2000
0000
3001
0000
,  // measure 29
1000
1000
1000
1000
,  // measure 30
0001
0001
0001
0001
,  // measure 31
1000
0100
0000
0110
0000
1001
0000
0010
,  // measure 32
0000
0001
0000
0101
0000
1001
0000
0010
,  // measure 33
0001
0001
0001
0001
,  // measure 34
1000
1000
1000
1000
,  // measure 35
0001
0100
0000
0110
0000
1001
0000
1000
,  // measure 36
0001
0010
0001
0100
,  // measure 37
0110
0000
0100
0001
1000
0000
0010
0000
,  // measure 38
0110
0000
0010
0000
1000
0001
0010
0000
,  // measure 39
0001
0000
0010
0000
0100
0010
0100
0000
,  // measure 40
1000
0000
0001
1000
0010
0000
0000
0010
,  // measure 41
0100
0000
0010
1000
0001
0000
0010
0000
,  // measure 42
0110
0000
0010
0000
0001
1000
0010
0000
,  // measure 43
0200
0310
0020
0130
,  // measure 44
0001
0010
0100
1000
,  // measure 45
0002
0000
0000
1000
2000
0000
3003
0000
,  // measure 46
1001
0000
0110
0000
,  // measure 47
0101
1100
0101
0110
,  // measure 48
1010
0011
1010
1001
,  // measure 49
1100
0101
0011
1010
,  // measure 50
0011
0101
1100
0010
,  // measure 51
1010
0011
1010
0110
,  // measure 52
0101
1100
0101
1001
,  // measure 53
0011
1010
1100
0101
,  // measure 54
1100
1010
0011
0100
,  // measure 55
1000
1010
0001
0011
,  // measure 56
0100
0010
0110
0000
,  // measure 57
0001
0010
0001
0010
0001
1000
0001
1000
,  // measure 58
0001
0100
0001
0100
0010
0000
0010
0000
,  // measure 59
1000
0100
1000
0100
1000
0001
1000
0001
,  // measure 60
1000
0010
1000
0010
0100
0000
1001
0000
,  // measure 61
1000
0010
1000
0010
1000
0001
1000
0001
,  // measure 62
1000
0100
1000
0100
0010
0000
0010
0000
,  // measure 63
0110
0000
0010
0001
1000
0000
0010
0000
,  // measure 64
0110
0000
0100
0000
0010
2000
0002
0000
,  // measure 65
3003
0000
0000
0000
;
