#TITLE:Collar Full;
#SUBTITLE:;
#ARTIST:Panic! At The Disco;
#TITLETRANSLIT:;
#SUBTITLETRANSLIT:;
#ARTISTTRANSLIT:;
#GENRE:Alternative Rock;
#CREDIT:;
#BANNER:Collar Full-bn.png;
#BACKGROUND:Collar Full-bg.png;
#LYRICSPATH:;
#CDTITLE:darkanine.png;
#MUSIC:[Round 9] - Collar Full.ogg;
#OFFSET:0.000000;
#SAMPLESTART:44.099998;
#SAMPLELENGTH:12.000000;
#SELECTABLE:YES;
#BPMS:0.000000=169.994995
;
#STOPS:
;
#BGCHANGES:;
#KEYSOUNDS:;
#ATTACKS:;

//---------------dance-single - ----------------
#NOTES:
     dance-single:
     :
     Hard:
     7:
     0.572434,0.597390,0.649790,0.045124,0.000000,367.000000,72.000000,5.000000,0.000000,0.000000,0.000000,0.572434,0.597390,0.649790,0.045124,0.000000,367.000000,72.000000,5.000000,0.000000,0.000000,0.000000:
0000
0000
0000
0000
,
0000
0000
0000
0000
,
0000
0000
0000
0000
,
0000
0000
0000
0000
,
0000
0000
1000
0000
0000
0100
0000
0000
,
0010
0000
0000
0001
0000
0000
0100
0000
,
0000
0000
1000
0000
0000
0001
0000
0000
,
0100
0000
0000
0010
0000
0100
0101
0000
,
1000
0000
1000
0001
0000
0010
0011
0000
,
1000
0000
0001
0100
0000
0010
1010
0000
,
0001
0000
0001
1000
0000
0100
1100
0000
,
0001
0000
1000
0010
0000
0100
0101
0000
,
1000
0000
1000
0001
0000
0010
0011
0000
,
1000
0000
0001
1000
0000
0010
1010
0000
,
0001
0000
0001
0010
0000
0100
1100
0000
,
0001
0000
1001
1000
0000
0110
0110
0000
,
0001
0100
0010
1000
0000
1000
0100
0000
,
1000
0001
0100
0010
0000
0010
1000
0000
,
0001
0010
0100
1000
0000
1000
0010
0000
,
1000
0010
0100
0001
0000
0001
1000
0000
,
0100
1000
0001
1000
0000
0001
0100
0000
,
0010
1000
0001
1000
0000
0001
0100
0000
,
0010
1000
0001
0010
0000
0010
0001
0000
,
0010
0001
0100
0010
0000
1010
1010
0000
,
1000
0000
0100
1000
0000
1000
0100
0000
,
0001
0000
0100
0001
0000
0001
0100
0000
,
0010
0000
1000
0100
0000
0100
1000
0000
,
0001
0000
0100
0010
0000
0010
0100
0000
,
0001
0000
0010
0001
0000
0001
0010
0000
,
1000
0000
0010
1000
0000
1000
0010
0000
,
0001
1000
0010
1000
0001
0010
0100
0010
,
0011
0000
0000
0000
0000
1000
1010
0000
,
0001
0100
0010
0000
1000
0010
0100
0001
,
1000
0100
0010
0000
0100
1000
0001
0100
,
0010
1000
1100
0000
1000
0001
0011
0000
,
1000
0010
1010
0000
0001
1000
0010
1000
,
0100
0010
0001
0000
0010
0100
1000
0001
,
0100
0010
1000
0000
0001
1000
0100
0010
,
0001
1000
1010
0000
1000
0001
0011
0000
,
0010
0100
0110
0000
1000
0001
0100
0010
,
1000
1001
1100
0101
,
1000
0101
0110
0101
,
0010
1100
0011
1100
,
0001
0100
0010
0000
1000
0001
0100
0001
,
0010
1100
0011
0101
,
1000
0110
1001
1010
,
0001
1010
0101
1100
,
0001
0000
0001
0100
0000
0010
1000
0100
,
0000
0000
0101
0001
0000
1000
1100
0000
,
0000
0001
0011
0000
0100
0100
0110
0000
,
0011
0000
0000
1010
0000
0000
0101
0000
,
0000
0110
0000
0000
0001
1000
0001
2200
,
0000
0300
0000
0000
,
0002
3000
0000
0000
,
0020
0003
0000
0000
,
0200
0030
0000
0300
,
1000
1000
1000
1000
,
0001
0001
0001
0001
,
0100
0100
0100
0100
,
0010
0000
0010
0000
0010
1000
0010
1000
,
1100
0000
0001
0000
0001
1000
0010
0100
,
0101
0000
1000
0000
1000
0100
0010
0001
,
1000
0100
0001
0000
0001
0100
1000
0000
,
1000
0010
0100
0000
0100
0000
0001
1000
,
1001
0000
0100
0000
0100
0000
1000
0001
,
0101
0000
0010
0000
0010
0000
1000
0100
,
0010
0001
0010
0000
0010
1000
0010
0000
,
0001
1000
0100
0000
0100
0010
0001
1000
,
1010
0110
0101
1001
,
1000
0010
0001
0010
,
1100
1001
0101
0110
,
1000
0000
0100
0000
0010
0001
0010
0001
,
1001
0101
1010
0110
,
1000
0100
0001
0100
,
1010
0011
1100
0101
,
0110
0000
1001
0000
1010
0100
0101
0000
,
1000
0100
0010
0001
0010
0100
1000
0010
,
0100
0001
1000
0100
0010
0010
0001
0001
;

//---------------dance-single - ----------------
#NOTES:
     dance-single:
     :
     Medium:
     5:
     0.470582,0.491968,0.144398,0.360995,0.000000,309.000000,16.000000,40.000000,0.000000,0.000000,0.000000,0.470582,0.491968,0.144398,0.360995,0.000000,309.000000,16.000000,40.000000,0.000000,0.000000,0.000000:
0000
0000
0000
0000
,
0000
0000
0000
0000
,
0000
0000
0000
0000
,
0000
0000
0000
0000
,
0000
0000
1000
0000
0000
0100
0000
0000
,
0010
0000
0000
0100
0000
0000
1000
0000
,
0000
0000
0001
0000
0000
0100
0000
0000
,
0010
0000
0000
0100
0000
0010
1000
0000
,
0001
0000
0100
0001
0000
0100
0001
0000
,
1000
0000
0100
1000
0000
0100
1000
0000
,
0001
0000
0010
0001
0000
0010
0001
0000
,
0100
0000
0010
0100
0000
0010
0100
0000
,
0001
0000
0100
0001
0000
0100
0001
0000
,
1000
0000
0001
1000
0000
0001
1000
0000
,
0100
0000
1000
0100
0000
1000
0100
0000
,
0010
0000
0100
0010
0000
0100
0100
0000
,
1000
0000
0001
0000
0100
0001
0100
0000
,
0010
0000
1000
0100
1000
0000
0001
0000
,
0100
0000
0010
0000
1000
0001
1000
0000
,
0010
0000
0010
0100
0010
0000
0100
0000
,
0001
0000
0100
0000
0001
1000
0001
0000
,
1000
0000
0010
1000
0010
0000
0100
0000
,
0001
0000
0100
0000
0010
1000
0010
0000
,
1000
0000
0001
0100
0000
0001
0001
0000
,
2000
0100
0000
3100
,
0020
0100
0000
0130
,
0002
0010
0000
0013
,
2000
0010
0000
3010
,
0200
0001
0000
0301
,
2000
0001
0000
3001
,
0020
0000
0000
0000
,
0130
0000
0000
0000
0000
0010
0001
0000
,
1000
0100
1000
0000
1000
0100
1000
0000
,
0001
0100
0001
0000
0001
0100
0001
0000
,
1000
0100
1000
0000
0010
0100
0010
0000
,
1000
0010
1000
0000
0001
0100
0001
0000
,
1000
0100
1000
0000
1000
0100
1000
0000
,
0001
0100
0001
0000
0001
0100
0001
0000
,
1000
0010
1000
0000
0001
0010
0001
0000
,
0100
0010
0100
0000
0001
1000
0001
0000
,
1010
1010
0100
0100
,
0011
0011
0100
0100
,
1001
1001
0100
0100
,
0110
0010
0100
1000
,
1100
1100
0010
0010
,
0101
0101
0010
0010
,
1001
1001
0100
0100
,
0220
0000
0000
0330
,
0000
0000
1000
0100
0000
1000
0100
0000
,
0000
0010
0001
0000
0100
0001
0100
0000
,
0002
0000
0003
2000
0000
3000
0200
0000
,
0300
0020
0000
0030
0002
0000
0203
0000
,
0000
0000
0000
0000
,
0302
0000
0000
0000
,
0023
0000
0000
0000
,
0230
0000
0000
0000
,
1300
1000
1000
1000
,
0001
0001
0001
0001
,
0100
0100
0100
0100
,
0010
0000
0010
0000
0010
0100
0010
0100
,
0010
0000
1000
0000
1000
0000
0001
0100
,
0001
1000
1000
0010
,
1000
0100
1000
0000
0001
0010
0001
0000
,
0100
0010
0100
0000
0010
1000
0010
1000
,
0001
0000
0100
0000
0100
0000
0001
0010
,
0001
0100
0100
1000
,
0010
1000
0010
0000
0100
0001
0100
0000
,
0001
1000
0001
0000
1000
0100
1000
0000
,
0020
0230
0302
2003
,
3100
0010
0001
1000
,
0020
2030
3200
0320
,
0031
0000
1000
0000
0010
0100
0010
0100
,
0002
0023
0230
2300
,
3002
0203
0320
0030
,
2000
3200
0320
0032
,
2003
3020
0230
0300
,
0010
0000
0000
0110
0000
0000
0010
0000
,
0000
1001
0000
0000
1000
0010
0100
0001
;

//---------------dance-single - ----------------
#NOTES:
     dance-single:
     :
     Easy:
     3:
     0.323606,0.350842,0.171472,0.225622,0.000000,207.000000,19.000000,25.000000,0.000000,0.000000,0.000000,0.323606,0.350842,0.171472,0.225622,0.000000,207.000000,19.000000,25.000000,0.000000,0.000000,0.000000:
// measure 0
0000
0000
0000
0000
,  // measure 1
0000
0000
0000
0000
,  // measure 2
0000
0000
0000
0000
,  // measure 3
0000
0000
0000
0000
,  // measure 4
0000
0000
0000
0000
,  // measure 5
0000
0000
0000
0000
,  // measure 6
0000
0000
0000
0000
,  // measure 7
0000
0000
0000
1001
,  // measure 8
0000
0100
0000
0100
,  // measure 9
0000
0010
0000
0010
,  // measure 10
0000
1000
0000
1000
,  // measure 11
0000
0001
0000
0001
,  // measure 12
0000
0100
0000
0100
,  // measure 13
0000
1000
0000
1000
,  // measure 14
0000
0010
0000
0010
,  // measure 15
0000
0001
0000
0101
,  // measure 16
1000
0100
1000
0010
,  // measure 17
0100
0001
0100
0001
,  // measure 18
1000
0100
1000
0100
,  // measure 19
0010
0100
0010
0100
,  // measure 20
1000
0001
1000
0001
,  // measure 21
0100
0001
0100
0010
,  // measure 22
1000
0001
1000
0001
,  // measure 23
0010
0100
0010
0100
,  // measure 24
2000
0100
0000
3100
,  // measure 25
0002
0100
0000
0103
,  // measure 26
2000
0010
0000
3010
,  // measure 27
0002
0010
0000
0013
,  // measure 28
2000
0001
0000
3001
,  // measure 29
0002
1000
0000
1003
,  // measure 30
0200
0000
0000
0000
,  // measure 31
0310
0000
0000
1001
,  // measure 32
1000
0010
1000
0100
,  // measure 33
1000
0010
1000
0100
,  // measure 34
1000
0001
0010
0001
,  // measure 35
0100
0010
0100
0001
,  // measure 36
1000
0010
0100
0010
,  // measure 37
1000
0010
0100
0010
,  // measure 38
1000
0001
0010
0001
,  // measure 39
0100
0010
0100
0001
,  // measure 40
1000
1000
0100
0100
,  // measure 41
0001
0001
0010
0010
,  // measure 42
1000
1000
0001
0001
,  // measure 43
0100
0010
0100
0010
,  // measure 44
1000
1000
0010
0010
,  // measure 45
0001
0001
0100
0100
,  // measure 46
1000
1000
0001
0001
,  // measure 47
0200
0000
0000
0300
,  // measure 48
0000
1010
0000
0011
,  // measure 49
0000
1001
0000
0110
,  // measure 50
2000
0000
0000
0002
,  // measure 51
0000
3003
0110
1001
,  // measure 52
0000
0000
0000
0000
,  // measure 53
0100
0000
0000
0000
,  // measure 54
0010
0000
0000
0000
,  // measure 55
0001
0000
0000
0000
,  // measure 56
1000
1000
1000
1000
,  // measure 57
0100
0100
0100
0100
,  // measure 58
0010
0010
0010
0010
,  // measure 59
0001
0001
0001
1000
,  // measure 60
1001
1000
0010
1000
,  // measure 61
1010
1000
0001
0100
,  // measure 62
0101
0000
1001
0000
,  // measure 63
1100
0000
0010
0100
,  // measure 64
0110
1000
0001
1000
,  // measure 65
1001
0100
0010
0100
,  // measure 66
0110
0000
0011
0000
,  // measure 67
1100
0000
0100
0100
,  // measure 68
0020
0000
0032
0000
,  // measure 69
2003
0000
3020
0000
,  // measure 70
0230
0000
0302
0000
,  // measure 71
2003
0000
3010
0010
,  // measure 72
0020
0000
2030
0000
,  // measure 73
3002
0000
0023
0000
,  // measure 74
0230
0000
2300
0000
,  // measure 75
3002
0000
0023
0000
,  // measure 76
0031
0000
0000
1000
0000
0000
0001
0000
,  // measure 77
0000
0010
0000
0000
0100
0000
0010
0000
;
