#TITLE:C18H27NO3;
#SUBTITLE:;
#ARTIST:TeamGrimoire;
#TITLETRANSLIT:;
#SUBTITLETRANSLIT:;
#ARTISTTRANSLIT:;
#GENRE:;
#CREDIT:;
#BANNER:[Round 9] - C18H27NO3-bn.png;
#BACKGROUND:[Round 9] - C18H27NO3-bg.png;
#LYRICSPATH:;
#CDTITLE:;
#MUSIC:[Round 9] - C18H27NO3.mp3;
#OFFSET:-0.114000;
#SAMPLESTART:89.028999;
#SAMPLELENGTH:12.000000;
#SELECTABLE:YES;
#BPMS:0.000000=210.000000
;
#STOPS:71.000000=1.143000
;
#BGCHANGES:;
#KEYSOUNDS:;
#ATTACKS:;

//---------------dance-single - ----------------
#NOTES:
     dance-single:
     :
     Hard:
     10:
     0.739114,0.828812,0.560914,0.293015,0.046045,516.000000,67.000000,35.000000,0.000000,0.000000,0.000000,0.739114,0.828812,0.560914,0.293015,0.046045,516.000000,67.000000,35.000000,0.000000,0.000000,0.000000:
0000
0000
0000
0000
,
0000
0000
0000
0000
,
0000
0000
0000
0000
,
0000
0000
0000
0000
,
0000
0000
0000
0000
,
0000
0000
0000
0000
,
0000
0000
0000
0000
,
0000
0000
0000
0000
,
0000
0000
0000
0000
,
0000
0000
0000
0000
,
0001
1000
0010
1000
,
0001
0000
0010
0100
1000
0000
0010
0000
,
1000
0001
0010
0001
,
1000
0000
0100
0010
0001
0000
0100
0000
,
0001
1000
0100
1000
,
0001
0000
1000
0100
0010
0000
0001
0000
,
0100
0001
0100
0010
,
1000
0000
0000
0000
0001
0000
0010
0000
0100
0000
0000
0000
2000
3000
0000
0000
,
1001
0000
0001
0000
0100
0000
0001
0100
,
0001
0100
0001
0100
0010
0000
0010
0000
,
1000
0000
1000
0000
0001
0000
1000
0001
,
1000
0001
1000
0001
1000
0000
1000
0000
,
0010
0000
0010
0000
0100
0000
0010
0100
,
0010
1000
0010
0100
0010
0000
0010
0000
,
1000
0000
1000
0000
0100
0000
1000
0100
,
1000
0010
1000
0100
0010
0000
0010
0000
,
0011
0000
0101
0000
0110
0000
0010
0100
,
0010
1000
0100
1000
1100
0000
1010
0000
,
0110
0000
0101
0000
0011
0000
0001
0010
,
0001
0100
0010
1000
2010
0000
3001
0000
,
1100
0000
1010
0000
0110
0000
0100
0010
,
0100
0001
0010
0100
1100
0000
1010
0000
,
0101
0010
1100
0010
,
0101
1100
1010
0011
,
0001
0010
0001
0010
0001
0100
0001
0100
,
0010
1000
0010
1000
0010
0100
0010
0010
,
1000
0100
1000
0100
1000
0001
1000
0001
,
0010
0001
0010
0001
0100
0001
0100
0100
,
0010
0010
1000
1000
1001
0000
0101
0000
,
0001
0100
0001
0100
0001
1000
0001
1000
,
0010
0100
0010
0100
0001
1000
0001
1000
,
0100
0100
1100
0101
,
0001
0001
1000
1000
1010
0000
0101
0000
,
1100
0000
0000
0000
0011
0000
0000
0000
0101
0000
0000
0000
0010
0100
0010
0100
,
0010
1010
0101
1100
,
0011
0000
0000
0000
0101
0000
0000
0000
0100
0000
0010
0100
0010
0000
0100
0000
,
0101
1001
1100
1001
,
0011
1010
1100
0101
,
0001
0001
0100
0100
0010
0010
1000
1000
,
0010
0100
0001
0010
0200
0000
1300
0000
,
2100
0000
0000
0000
3010
0010
0010
0010
,
0100
0000
0010
0100
0010
0000
0100
0000
0002
0000
0000
0000
1003
0000
0000
0000
,
1002
0000
0000
0000
0103
0100
0100
0100
,
0001
0001
1000
1000
0100
0100
0010
0000
,
0012
0000
0000
0000
1003
1000
1000
1000
,
0001
0000
1000
0001
1000
0000
0001
0000
2000
0000
0000
0000
3001
0000
0000
0000
,
2001
0000
0000
0000
3010
0010
0010
0010
,
0100
0100
0001
0001
2000
0000
3001
0000
,
0102
0000
0000
0000
1003
1000
1000
1000
,
0001
0000
0100
0001
0100
0000
0001
0000
0200
0000
0000
0000
0301
0000
0000
0000
,
1002
0000
0000
0000
0103
0100
0100
0100
,
0001
0001
0001
0001
1002
0000
0103
0000
,
1020
1030
1010
0110
,
0001
0000
0001
0100
0001
0000
0100
0000
0102
0000
0000
0000
1003
0000
0000
0000
,
1001
1000
0001
1000
0010
0100
0010
0100
,
0001
1000
0001
1000
0001
0010
0100
1000
,
0010
0100
0001
0000
1000
0000
0010
0100
,
0001
1000
0010
0000
0100
0000
0010
1000
,
0001
0010
1000
0000
0010
0000
0001
0100
,
1000
0100
0001
0000
0001
0000
1000
0010
,
1010
1000
0010
0000
0101
0001
0100
0000
,
1010
1000
0010
0000
0101
0001
0100
0000
,
0101
1010
0011
1100
,
1000
0000
0001
0000
1000
0000
0001
0000
1000
0001
1000
0001
1000
0001
1000
0001
,
2000
0010
0010
0010
0010
0010
0010
3010
,
0200
0000
0000
0000
,
0001
0001
0001
0001
0001
0001
0001
0001
,
0301
0100
1000
0100
0001
0010
1000
0010
,
0001
0010
1000
0001
0100
1000
0001
0010
,
1000
0010
0001
0100
1000
0100
0001
0100
,
2000
0000
3100
0010
2000
0000
3001
0000
,
0001
0010
1000
0010
0001
0100
1000
0100
,
0001
0100
1000
0001
0010
1000
0001
0010
,
1000
0100
0001
0100
1000
0010
0001
0010
,
2000
3010
0102
1003
,
1000
0010
0001
0010
1000
0100
0001
0100
,
1000
0100
0001
1000
0010
0001
1000
0100
,
0001
0100
1000
0010
0001
0010
1000
0010
,
0002
0000
0013
0100
0002
0000
1003
0000
,
1000
0100
0001
0100
1000
0010
0001
0010
,
1000
0010
0001
1000
0100
0001
1000
0010
,
0001
0010
1000
0100
0001
0100
1000
0100
,
0002
0103
2010
3001
,
0022
0030
0200
0003
,
0020
0300
2000
0030
,
0002
3000
1000
1000
,
0200
0003
0020
0300
,
2000
0000
0000
0000
,
0000
0000
0000
3030
,
1010
0000
0000
0000
;

//---------------dance-single - ----------------
#NOTES:
     dance-single:
     :
     Medium:
     8:
     0.565697,0.663050,0.485567,0.251155,0.000000,385.000000,58.000000,30.000000,0.000000,0.000000,0.000000,0.565697,0.663050,0.485567,0.251155,0.000000,385.000000,58.000000,30.000000,0.000000,0.000000,0.000000:
0000
0000
0000
0000
,
0000
0000
0000
0000
,
0000
0000
0000
0000
,
0000
0000
0000
0000
,
0000
0000
0000
0000
,
0000
0000
0000
0000
,
0000
0000
0000
0000
,
0000
0000
0000
0000
,
0000
0000
0000
0000
,
0000
0000
0000
0000
,
0001
0000
0100
0000
,
0010
0000
1000
0000
,
0010
0000
0100
0000
,
0001
0000
1000
0000
,
0001
0010
0001
0000
,
1000
0100
1000
0000
,
0001
0100
0001
1000
,
0010
0000
0000
0000
1000
0000
0000
0000
0001
0000
0000
0000
0200
0300
0000
0000
,
1001
0001
1001
0001
,
0001
0100
0001
0100
0010
0000
0010
0000
,
1010
1000
1010
1000
,
1000
0010
1000
0010
1000
0000
1000
0000
,
1100
0100
0110
0100
,
0100
0010
0100
0010
0100
0000
0100
0000
,
0110
0010
0110
0010
,
0010
0100
1000
0100
0010
0000
0010
0000
,
0011
0001
0110
0010
,
0010
1000
0100
0000
1100
0000
0010
0000
,
0110
0001
0011
0001
,
0001
0100
0010
0000
2010
0000
3000
0000
,
1100
0010
0110
0010
,
0010
0001
0100
0000
0101
0000
0010
0000
,
1100
0010
0101
0010
,
1100
1010
1001
0001
,
0001
0010
0001
0000
0001
0100
0001
0000
,
1000
0010
1000
0000
0010
0100
0010
0000
,
1000
0100
1000
0000
0001
0010
0001
0000
,
1000
0001
1000
0000
0010
0100
0010
0000
,
0010
0100
1000
0100
0001
0000
0101
0000
,
0001
0100
0001
0000
1000
0010
1000
0000
,
0010
0100
0010
0000
1000
0100
1000
0000
,
0100
0100
1100
0011
,
0001
0010
1000
0010
0001
0000
0010
0000
,
1000
1100
0001
0011
,
0100
1010
0010
0101
,
0010
0000
1100
0000
0001
0010
0001
0000
,
0100
1001
0100
1010
,
0001
0110
1000
0110
,
0001
0000
0100
0010
0100
0000
1000
0100
,
0010
0000
0001
0010
0200
0000
1300
0000
,
2100
0000
3000
0000
0001
0010
0001
0010
,
0100
0110
0102
0003
,
1002
0000
0003
0000
0010
1000
0010
1000
,
0001
1000
0110
0010
,
0012
0000
0003
0000
1000
0100
1000
0100
,
0010
0101
2010
3000
,
1002
0000
0003
0000
0100
1000
0100
1000
,
0010
0110
2001
3000
,
0102
0000
0003
0000
1000
0100
1000
0100
,
0010
0011
1200
0300
,
1020
0000
0030
0000
0001
0100
0001
0100
,
0001
0010
0001
0000
2001
0000
3000
0000
,
0001
0001
1000
1000
,
0010
0010
0100
0100
,
1001
0010
0110
0100
,
0001
1000
0001
1000
0001
0000
0101
0000
,
1010
0000
0010
0000
0100
0000
0001
0100
,
1000
0000
0100
0000
0001
0000
1000
0010
,
0100
0000
0001
0000
1000
0000
0001
0100
,
1000
0000
0100
0000
0001
0000
1000
0010
,
0100
0001
1000
0010
,
0100
0001
1000
0010
,
1001
1001
1001
1001
,
1000
0001
1000
0001
1000
0001
1000
0001
,
2000
0000
0000
0000
,
3002
0000
0000
0000
,
2000
0000
0000
3003
,
0001
0100
1000
0000
0001
0010
1000
0000
,
0001
0100
1000
0100
0001
0000
1000
0000
,
1000
0010
0001
0000
1000
0100
0001
0000
,
2000
3100
0002
0103
,
0001
0010
1000
0000
0001
0100
1000
0000
,
0001
0100
1000
0100
0001
0000
0001
0000
,
1000
0100
0001
0000
1000
0010
0001
0000
,
2000
3010
0002
1003
,
1000
0010
0001
0000
1000
0100
0001
0000
,
1000
0100
0001
0100
1000
0000
0001
0000
,
1000
0100
0001
0000
1000
0010
0001
0000
,
2000
3010
0002
0013
,
1000
0100
0001
0000
1000
0010
0001
0000
,
1000
0010
0001
0010
1000
0000
0001
0000
,
1000
0010
0001
0000
0001
0100
1000
0000
,
0002
0103
2000
3001
,
0002
0000
0000
0000
,
0203
0000
0000
0000
,
0302
0000
0000
0000
,
0203
0000
0000
0000
,
0302
0000
0000
0000
,
0000
0000
0000
0000
,
1003
0000
0000
0000
;

//---------------dance-single - ----------------
#NOTES:
     dance-single:
     :
     Easy:
     5:
     0.352813,0.538728,0.343246,0.326502,0.000000,215.000000,41.000000,39.000000,0.000000,0.000000,0.000000,0.352813,0.538728,0.343246,0.326502,0.000000,215.000000,41.000000,39.000000,0.000000,0.000000,0.000000:
0000
0000
0000
0000
,
0000
0000
0000
0000
,
0000
0000
0000
0000
,
0000
0000
0000
0000
,
0000
0000
0000
0000
,
0000
0000
0000
0000
,
0000
0000
0000
0000
,
0000
0000
0000
0000
,
0000
0000
0000
0000
,
0000
0000
0000
0000
,
0001
0000
0000
0000
,
0010
0000
0000
0000
,
0100
0000
0000
0000
,
1000
0000
0000
0000
,
0001
0000
0001
0000
,
0100
0000
0100
0000
,
0010
0000
0010
0000
,
1000
0000
2000
3000
,
1001
0000
0100
0000
,
0001
0100
0001
0000
,
1001
0000
1000
0000
,
0010
1000
0010
0000
,
0110
0000
0100
0000
,
0001
0100
0001
0000
,
0110
0000
0010
0000
,
1000
0010
1000
0000
,
0011
0000
0110
0000
,
1000
0100
1000
0000
,
0011
0000
0110
0000
,
1000
0010
1000
0000
,
0110
0000
0011
0000
,
0001
0100
0001
0000
,
1001
0000
0110
0000
,
1001
0000
0110
0000
,
0001
0000
0001
0000
,
0010
0000
0010
0001
,
1000
0000
1000
0000
,
0010
0000
0010
0000
,
1000
0001
1001
0000
,
0001
0000
0001
1000
,
0100
0000
0100
0000
,
0110
0000
1001
0000
,
0001
0100
0010
0000
,
1000
0000
0001
0010
,
0001
0000
1000
0000
,
0010
0000
0010
0000
,
0110
0000
1000
0000
,
0001
0000
1000
0000
,
0101
0100
0100
0000
,
1010
0010
0010
0000
,
2000
3000
0020
0030
,
0200
0300
0002
0003
,
2000
3000
0200
0300
,
0002
0003
0200
0300
,
0002
0003
0200
0300
,
0020
0030
2000
3000
,
0002
0003
0200
0300
,
0101
0000
1001
0000
,
0002
0003
2000
3000
,
0020
0030
0200
0300
,
0002
0003
0020
0030
,
2000
3000
0020
0030
,
0110
0000
0100
0000
,
1100
0000
0100
0000
,
1100
0000
0110
0000
,
0011
0000
1001
0000
,
1010
0000
0100
0000
,
0101
0000
0010
0000
,
1100
0000
0100
0000
,
0011
0000
0001
0000
,
0101
0000
1010
0000
,
1001
0000
0101
0000
,
1001
1000
0001
1000
,
1001
1001
1001
1001
,
2000
0000
0000
0000
,
3002
0000
0000
0000
,
2003
0000
0000
3000
,
0001
1000
0001
1000
,
0010
0100
0010
0100
,
0001
1000
0001
1000
,
0002
1003
0002
1003
,
0010
1000
0010
1000
,
0001
0100
0001
0100
,
0010
1000
0010
1000
,
0002
0103
0002
0103
,
0001
0010
0001
0010
,
0100
1000
0100
1000
,
0001
0010
0001
0010
,
0200
1300
0200
1300
,
0001
0100
0001
0100
,
0010
1000
0010
1000
,
0001
1000
0001
1000
,
0002
1003
2000
3001
,
0002
0000
0003
0000
,
0200
0000
0300
0000
,
0020
0000
0030
0000
,
2000
0000
3000
0000
,
0002
0000
0000
0000
,
0000
0000
0000
0000
,
1003
0000
0000
0000
;

//---------------dance-single - ----------------
#NOTES:
     dance-single:
     :
     Beginner:
     3:
     0.203316,0.290084,0.242783,0.075347,0.000000,132.000000,29.000000,9.000000,0.000000,0.000000,0.000000,0.203316,0.290084,0.242783,0.075347,0.000000,132.000000,29.000000,9.000000,0.000000,0.000000,0.000000:
// measure 0
0000
0000
0000
0000
,  // measure 1
0000
0000
0000
0000
,  // measure 2
0000
0000
0000
0000
,  // measure 3
0000
0000
0000
0000
,  // measure 4
0000
0000
0000
0000
,  // measure 5
0000
0000
0000
0000
,  // measure 6
0000
0000
0000
0000
,  // measure 7
0000
0000
0000
0000
,  // measure 8
0000
0000
0000
0000
,  // measure 9
0000
0000
0000
0000
,  // measure 10
0001
0000
0000
0000
,  // measure 11
0000
0000
0000
0000
,  // measure 12
1000
0000
0000
0000
,  // measure 13
0000
0000
0000
0000
,  // measure 14
0001
0000
0000
0000
,  // measure 15
0010
0000
0000
0000
,  // measure 16
0100
0000
0000
0000
,  // measure 17
1000
0000
0000
0000
,  // measure 18
0001
0000
0100
0000
,  // measure 19
0001
0000
0001
0000
,  // measure 20
1000
0000
0010
0000
,  // measure 21
1000
0000
1000
0000
,  // measure 22
1001
0000
0001
0000
,  // measure 23
1000
0000
1000
0000
,  // measure 24
0110
0000
0010
0000
,  // measure 25
0100
0000
0100
0000
,  // measure 26
0101
0000
0001
0000
,  // measure 27
0100
0000
0100
0000
,  // measure 28
0110
0000
0010
0000
,  // measure 29
0100
0000
0100
0000
,  // measure 30
0101
0000
0100
0000
,  // measure 31
0101
0000
0100
0000
,  // measure 32
0101
0000
0001
0000
,  // measure 33
0101
0000
1001
0000
,  // measure 34
1000
0000
0000
0000
,  // measure 35
0010
0000
0010
0000
,  // measure 36
1000
0000
0000
0000
,  // measure 37
0001
0000
0001
0000
,  // measure 38
1000
0000
1001
0000
,  // measure 39
0001
0000
0000
0000
,  // measure 40
1000
0000
1000
0000
,  // measure 41
0001
0000
0011
0000
,  // measure 42
1001
0000
0000
0000
,  // measure 43
0001
0000
0001
0000
,  // measure 44
0010
0000
0000
0000
,  // measure 45
0001
0000
1000
0000
,  // measure 46
1001
0000
0000
0000
,  // measure 47
0110
0000
0000
0000
,  // measure 48
1001
0000
0100
0000
,  // measure 49
1001
0000
0000
0000
,  // measure 50
1000
0000
0010
0000
,  // measure 51
1000
0000
0000
0000
,  // measure 52
0001
0000
0100
0000
,  // measure 53
0001
0000
0000
0000
,  // measure 54
1000
0000
0010
0000
,  // measure 55
1000
0000
0000
0000
,  // measure 56
0001
0000
0100
0000
,  // measure 57
0001
0000
0101
0000
,  // measure 58
0100
0000
0010
0000
,  // measure 59
0100
0000
0000
0000
,  // measure 60
0010
0000
0100
0000
,  // measure 61
0010
0000
0000
0000
,  // measure 62
0110
0000
0000
0000
,  // measure 63
1001
0000
0000
0000
,  // measure 64
1001
0000
0100
0000
,  // measure 65
1001
0000
0010
0000
,  // measure 66
1001
0000
0000
0000
,  // measure 67
0101
0000
0000
0000
,  // measure 68
1100
0000
0000
0000
,  // measure 69
1010
0000
0000
0000
,  // measure 70
0101
0000
0100
0000
,  // measure 71
0100
0000
0100
0000
,  // measure 72
1001
0000
0001
0000
,  // measure 73
1001
0000
1001
0000
,  // measure 74
2000
0000
3000
0000
,  // measure 75
0002
0000
0000
0000
,  // measure 76
0003
0000
0000
0000
,  // measure 77
1000
0000
1000
0000
,  // measure 78
0001
0000
0001
0000
,  // measure 79
1000
0000
1000
0000
,  // measure 80
0002
0000
0003
0000
,  // measure 81
1000
0000
1000
0000
,  // measure 82
0001
0000
0001
0000
,  // measure 83
1000
0000
1000
0000
,  // measure 84
0002
0000
0003
0000
,  // measure 85
0010
0000
0010
0000
,  // measure 86
0100
0000
0100
0000
,  // measure 87
0010
0000
0010
0000
,  // measure 88
0200
0000
0300
0000
,  // measure 89
0010
0000
0010
0000
,  // measure 90
0100
0000
0100
0000
,  // measure 91
0010
0000
0010
0000
,  // measure 92
2000
0000
3000
0000
,  // measure 93
0002
0000
0000
0000
,  // measure 94
0003
0000
0000
0000
,  // measure 95
0200
0000
0000
0000
,  // measure 96
0300
0000
0000
0000
,  // measure 97
0002
0000
0000
0000
,  // measure 98
0000
0000
0000
0000
,  // measure 99
0003
0000
0000
0000
;
