#TITLE:Animals;
#SUBTITLE:;
#ARTIST:Martin Garrix;
#TITLETRANSLIT:;
#SUBTITLETRANSLIT:;
#ARTISTTRANSLIT:;
#CREDIT:brunobg24;
#BANNER:[Round 9] - Animals.png;
#BACKGROUND:[Round 9] - Animals-bg.png;
#JACKET:[Round 9] - Animals-jacket.png
#LYRICSPATH:;
#CDTITLE:cdtitle.png;
#MUSIC:[Round 9] - Animals.mp3;
#OFFSET:-0.009;
#SAMPLESTART:75.019;
#SAMPLELENGTH:11.920;
#SELECTABLE:YES;
#BPMS:0.000=128.000,48.000=64.000,56.000=128.000,148.000=64.000,150.000=128.000;
#STOPS:;
#BGCHANGES:;

//---------------dance-single - ----------------
#NOTES:
     dance-single:
     :
     Hard:
     9:
     0.455,0.586,0.138,0.049,0.479: // measure 1
0000
0000
0000
0000
,  // measure 2
0000
0000
0000
0000
,  // measure 3
0000
0000
0000
0000
,  // measure 4
0000
0000
0000
0000
,  // measure 5
1000
0100
1000
0000
0001
0100
0000
0010
0000
1000
0100
0000
1000
0001
0000
0010
,  // measure 6
0000
0001
0100
0000
0010
0100
0000
0010
0000
1000
0100
0000
1000
0001
0000
0100
,  // measure 7
0000
0001
0100
0000
0010
1000
0000
0010
0000
0100
0001
0000
0100
0010
0000
1000
,  // measure 8
0000
0001
0100
0000
0010
0100
0000
0001
0000
0010
0001
0000
1000
0100
0000
1000
,  // measure 9
0000
0010
1000
0000
0010
0100
0000
0001
0000
0010
0001
0000
1000
0010
0000
0100
,  // measure 10
0000
0001
1000
0000
0100
1000
0000
0010
0000
1000
0100
0000
0010
0001
0000
0100
,  // measure 11
0000
0001
0010
0000
0100
1000
0000
0010
0000
0100
0001
0000
1000
0010
0000
1000
,  // measure 12
0000
0100
0010
0000
0100
1000
0000
0001
0000
0010
0100
0000
0010
0001
0000
0001
,  // measure 13
2000
0000
0000
0000
,  // measure 14
0000
0000
0000
0000
,  // measure 15
3001
0000
0000
0000
1000
0000
0010
0000
1000
0000
0000
0000
0001
0000
0000
0010
,  // measure 16
0000
0100
1000
0010
1000
0000
0000
0000
,  // measure 17
0001
0000
0100
0000
0001
0000
0100
0000
0010
0000
0000
0000
0000
0000
1000
0100
,  // measure 18
0000
1000
0010
1000
0010
0000
0000
0000
,  // measure 19
1000
0000
0000
0000
0001
0000
0100
0000
0001
0000
0000
0000
1000
0000
0000
0100
,  // measure 20
0000
0010
0001
0100
0001
0000
0000
0000
,  // measure 21
1000
0000
0010
0000
1000
0000
0010
0000
0100
0000
0000
0000
0000
0000
0001
0010
,  // measure 22
0000
0001
0100
0001
0100
0000
0000
0000
,  // measure 23
1001
0000
0000
0000
1000
0000
0100
0000
0010
0000
0000
0000
0011
0000
0000
0101
,  // measure 24
0000
1000
0001
0010
0100
0000
1001
0000
,  // measure 25
0001
0000
0010
0000
0100
0000
0001
0000
0100
0000
0000
0000
1100
0000
1000
0010
,  // measure 26
1000
0100
0010
0100
0001
0100
0110
0000
,  // measure 27
1001
0000
0000
0000
0001
0000
0100
0000
0010
0000
0000
0000
1100
0000
0000
0110
,  // measure 28
0000
0001
1000
0010
0100
0000
1001
0000
,  // measure 29
0001
0000
0010
0000
1000
0000
0010
0000
0001
0000
0000
0000
1010
0000
1000
0010
,  // measure 30
1000
0100
0001
0100
1000
0000
0020
0000
,  // measure 31
1030
0100
0010
0001
,  // measure 32
1000
0010
0100
0001
,  // measure 33
1000
0100
0001
0100
,  // measure 34
1000
0010
0001
0010
,  // measure 35
1000
0100
1000
0100
0010
0001
0010
0001
,  // measure 36
1000
0010
1000
0010
0100
0001
0100
0001
,  // measure 37
1000
0100
1000
0100
0010
0001
0010
0001
1000
0010
1000
0010
0100
0001
0100
0001
,  // measure 38
0020
0000
0000
0000
0000
0000
0000
0000
0031
0000
0000
0000
1000
0010
1000
0010
,  // measure 39
0100
0000
0000
0000
0001
0000
0000
0000
0010
0000
0000
0000
0100
0000
0000
0000
0000
0000
1000
0000
0000
0010
0000
0000
0000
0000
0000
0000
0000
0000
0100
0000
0000
0000
0000
0000
0001
0000
0000
0010
0000
0000
0001
0000
0000
0010
0000
0000
,  // measure 40
0100
0000
0000
0000
1000
0000
0000
0000
0010
0000
0000
0000
1000
0000
0000
0000
0000
0000
0100
0000
0000
0000
0000
0000
0000
0000
0000
0000
0000
0000
1000
0000
0000
0000
0000
0000
0001
0000
0000
0100
0000
0000
0010
0000
0000
0100
0000
0000
,  // measure 41
0001
0000
0000
0000
0010
0000
0000
0000
0100
0000
0000
0000
1000
0000
0000
0000
0000
0000
0010
0000
0000
0100
0000
0000
0000
0000
0000
0000
0000
0000
0001
0000
0000
0000
0000
0000
1000
0000
0000
0100
0000
0000
0010
0000
0000
0100
0000
0000
,  // measure 42
1000
0000
0000
0000
0010
0000
0000
0000
0100
0000
0000
0000
0001
0000
0000
0000
0000
0000
0000
0000
0000
0000
0000
0000
0010
0000
0000
0000
0000
0000
0001
0000
0000
0000
0000
0000
1000
0000
0000
0010
0000
0000
1000
0000
0000
0010
0000
0000
,  // measure 43
0100
0000
0000
0000
0001
0000
0000
0000
0010
0000
0000
0000
0100
0000
0000
0000
0000
0000
0010
0000
0000
0001
0000
0000
0000
0000
0000
0000
0000
0000
1000
0000
0000
0000
0000
0000
0010
0000
0000
0100
0000
0000
0010
0000
0000
0100
0000
0000
,  // measure 44
0001
0000
0000
0000
0100
0000
0000
0000
0010
0000
0000
0000
0100
0000
0000
0000
0000
0000
1000
0000
0000
0000
0000
0000
0000
0000
0000
0000
0000
0000
0100
0000
0000
0000
0000
0000
0001
0000
0000
0010
0000
0000
0001
0000
0000
1000
0000
0000
,  // measure 45
0100
0000
0000
0000
0010
0000
0000
0000
0001
0000
0000
0000
1000
0000
0000
0000
0000
0000
0100
0000
0000
1000
0000
0000
0001
0000
0000
0000
0000
0000
0000
0000
0000
0101
0000
0000
0000
0000
0000
0000
0000
0000
1000
0000
0000
0000
0000
0000
,  // measure 46
0010
0110
2002
0000
,  // measure 47
0000
0000
0000
0000
,  // measure 48
0000
0000
0000
0000
,  // measure 49
0000
0000
0000
0000
,  // measure 50
0000
0000
3MM3
0000
;

//---------------dance-single - ----------------
#NOTES:
     dance-single:
     :
     Medium:
     6:
     0.348,0.391,0.148,0.049,0.035:
0000
0000
0000
0000
,
0000
0000
0000
0000
,
0000
0000
0000
0000
,
0000
0000
0000
0000
,
1000
0100
1000
0000
0001
0100
0001
0000
,
0010
0100
0010
0000
0100
1000
0100
0000
,
1000
0010
1000
0000
0001
0010
0001
0000
,
0100
0010
0100
0000
0010
1000
0010
0000
,
1000
0000
0001
0010
1000
0010
0001
0100
,
0010
0000
1000
0100
0001
0100
1000
0010
,
0100
0000
0001
0010
0100
1000
0010
0100
,
0001
0000
1000
0010
0100
0001
0010
0001
,
0200
0000
0000
0000
,
0000
0000
0000
0000
,
0301
0000
0000
0000
1000
0000
0010
0000
1000
0000
0000
0000
0001
0000
0000
0100
,
0000
0010
1000
0010
0100
0000
0000
0000
,
0010
1000
0100
0010
0001
0000
0000
1000
,
0000
0001
1000
0010
0100
0000
0000
0000
,
0001
0000
0000
0000
1000
0000
0100
0000
1000
0000
0000
0000
0010
0000
0000
0100
,
0000
0001
1000
0010
0100
0000
0000
0000
,
0001
0010
0100
1000
0010
0000
0000
1000
,
0000
0001
0100
0010
1000
0000
0000
0000
,
1001
1010
1001
1100
,
0001
0010
0100
1000
0010
0000
0110
0000
,
1000
0100
0010
0001
0100
0000
0110
0000
,
0001
0100
0010
1000
0100
0000
0110
0000
,
1010
1001
1100
1001
,
1000
0010
0100
0001
0010
0000
0110
0000
,
0001
0100
0010
1000
0100
0000
0110
0000
,
1000
0100
0010
0001
0100
0000
0020
0000
,
1030
0100
0010
0001
,
1000
0010
0100
0001
,
1000
0100
0010
0001
,
1000
0010
0100
0001
,
1000
0010
1000
0000
0001
0010
0001
0000
,
1000
0100
1000
0000
0001
0100
0001
0000
,
1000
0010
1000
0010
0100
0001
0100
0001
,
0020
0000
0000
0000
0130
0000
1000
0001
,
1000
0000
0010
0000
0100
0000
0010
0100
0000
0000
0000
0000
0001
0000
0010
0000
,
0100
1000
0010
0100
0000
0000
0001
1000
,
0010
0000
0100
0000
0010
0000
0100
0001
0000
0000
0000
0000
1000
0000
0100
0000
,
0010
0100
1000
0000
0001
0000
1000
0010
,
0100
0000
0010
0000
0100
0000
0001
0010
0000
0000
0000
0000
0100
0000
1000
0000
,
0001
0100
0010
0100
0000
0000
0001
0010
,
0100
0000
1000
0000
0010
0000
0100
0010
0100
0000
0000
0100
0000
0000
0100
0000
,
0010
0110
2002
0000
,
0000
0000
0000
0000
,
0000
0000
0000
0000
,
0000
0000
0000
0000
,
0000
0000
3MM3
0000
;

//---------------dance-single - ----------------
#NOTES:
     dance-single:
     :
     Easy:
     3:
     0.233,0.269,0.079,0.039,0.000:
0000
0000
0000
0000
,
0000
0000
0000
0000
,
0000
0000
0000
0000
,
0000
0000
0000
0000
,
1000
0001
1000
0010
,
1000
0001
0100
0010
,
1000
0100
0010
0001
,
0100
0010
0100
0001
,
0010
0100
0010
0001
,
1000
0100
0010
0100
,
1000
0010
0100
0010
,
0100
0001
0010
0001
,
2000
0000
0000
0000
,
0000
0000
0000
0000
,
3001
0100
0001
1000
,
0010
1000
0100
0000
,
1000
0001
1000
0000
,
0001
0100
0001
0000
,
1000
0010
1000
0010
,
0100
0001
0010
0000
,
0001
0100
0010
0000
,
1000
0001
0100
0000
,
0010
0010
0100
0100
,
0001
0001
1000
1001
,
0100
0100
0010
0110
,
1000
1000
0001
1001
,
1000
0100
0010
0001
,
0100
0010
1000
1001
,
0001
0100
0010
1010
,
0100
0001
0100
0110
,
0001
0001
0001
0001
,
1000
1000
1000
1000
,
0010
0010
0010
0010
,
0100
0100
0100
0100
,
0001
0010
0100
1000
,
0001
0010
0100
1000
,
0001
0100
0010
1000
,
0020
0000
1030
0100
,
1000
0100
0010
0001
,
0010
0001
1000
0010
,
1000
0010
0100
0001
,
0100
0110
0001
0010
,
0001
0010
0100
1000
,
0100
1000
0001
0100
,
0001
0100
0010
1000
,
0010
1000
2002
0000
,
0000
0000
0000
0000
,
0000
0000
0000
0000
,
0000
0000
0000
0000
,
0000
0000
3MM3
0000
;
