#TITLE:Spinal Fluid Explosion Girl;
#SUBTITLE:;
#ARTIST:96neko;
#TITLETRANSLIT:;
#SUBTITLETRANSLIT:;
#ARTISTTRANSLIT:;
#GENRE:;
#CREDIT:;
#BANNER:;
#BACKGROUND:;
#LYRICSPATH:;
#CDTITLE:encorerebirth.png;
#MUSIC:[Round 8] - Spinal Fluid Explosion Girl.mp3;
#OFFSET:-0.104;
#SAMPLESTART:66.653;
#SAMPLELENGTH:12.327;
#SELECTABLE:YES;
#BPMS:0.000=155.000
;
#STOPS:
;
#BGCHANGES:;
#KEYSOUNDS:;
#ATTACKS:;

//---------------dance-single - Spork!----------------
#NOTES:
     dance-single:
     :
     Beginner:
     1:
     0.083,0.094,0.045,0.072,0.000,51.000,5.000,8.000,0.000,0.000,0.000,0.083,0.094,0.045,0.072,0.000,51.000,5.000,8.000,0.000,0.000,0.000:
0000
0000
0000
0000
,
0000
0000
0000
0000
,
0000
0000
0000
0000
,
0000
0000
0000
0000
,
0100
0000
0000
0000
,
0000
0000
0000
0000
,
0010
0000
0000
0000
,
0000
0000
0000
0000
,
0010
0000
0000
0000
,
0000
0000
0000
0000
,
0100
0000
0000
0000
,
0000
0000
0000
0000
,
0001
0000
0000
0000
,
0001
0000
0000
0000
,
0100
0000
0000
0000
,
0100
0000
0000
0000
,
0010
0000
0000
0000
,
0010
0000
0000
0000
,
1000
0000
0000
0000
,
1000
0000
0000
0000
,
0200
0000
0000
0000
,
0000
0000
0000
0000
,
0320
0000
0000
0000
,
0000
0000
0000
0000
,
0031
0000
0000
0000
,
0001
0000
0000
0000
,
0010
0000
0000
0000
,
0010
0000
0000
0000
,
0100
0000
0000
0000
,
0100
0000
0000
0000
,
1000
0000
0000
0000
,
1000
0000
0000
0000
,
0002
0000
0000
0000
,
0000
0000
0000
0000
,
1003
0000
0000
0000
,
0001
0000
0000
0000
,
2000
0000
0000
0000
,
0000
0000
0000
0000
,
3001
0000
0001
0000
,
0001
0000
0000
0000
,
0000
0000
0000
0000
,
0000
0000
0000
0000
,
0000
0000
0000
0000
,
1000
0000
0000
0000
,
0100
0000
0000
0000
,
2000
0000
0000
0000
,
3001
0000
0000
0000
,
0001
0000
0000
0000
,
0010
0000
0000
0000
,
0002
0000
0000
0000
,
1003
0000
0000
0000
,
1000
0000
0000
0000
,
0010
0000
0000
0000
,
0200
0000
0000
0000
,
0301
0000
0000
0000
,
0001
0000
0000
0000
,
0100
0000
0000
0000
,
0020
0000
0000
0000
,
1030
0000
0000
0000
,
1000
0000
0000
0000
,
0000
0000
0000
0000
,
1001
0000
0000
0000
,
0000
0000
0000
0000
,
0110
0000
0000
0000
,
0000
0000
0000
0000
,
0110
0000
0000
0000
,
0000
0000
0000
0000
,
1001
0000
0000
0000
,
0000
0000
0000
0000
,
1001
0000
0000
0000
;

//---------------dance-single - Spork!----------------
#NOTES:
     dance-single:
     :
     Easy:
     3:
     0.256,0.316,0.081,0.289,0.000,157.000,9.000,32.000,0.000,0.000,0.000,0.256,0.316,0.081,0.289,0.000,157.000,9.000,32.000,0.000,0.000,0.000:
0000
0000
0000
0000
,
0000
0000
0000
0000
,
0000
0000
0000
0000
,
0000
0000
0000
0000
,
0020
0000
0000
0030
,
1000
0001
1000
0001
,
0020
0000
0000
0030
,
0001
1000
0001
1000
,
0020
0000
0000
0030
,
0100
0001
1000
0100
,
0020
0000
0000
0030
,
0100
1000
0001
0100
,
0200
0000
0000
0000
,
0320
0000
0000
0000
,
2030
0000
0000
0000
,
3002
0000
0000
0000
,
1003
0100
1000
1000
,
0001
0010
0001
1000
,
0001
0100
0001
0001
,
2000
0000
3002
0000
,
0203
0000
0000
0000
,
0000
0000
0310
0000
,
0020
0000
0000
0000
,
2030
0000
3002
0000
,
1003
0100
1000
0000
,
0100
0010
0001
1000
,
0001
0100
0001
0000
,
0010
0100
1000
0001
,
1000
1000
0001
0001
,
0100
0010
1000
0001
,
0010
0010
0100
0100
,
0020
0000
0230
0000
,
2300
0000
0000
0000
,
3001
0000
0001
0000
,
0100
0000
0001
0000
,
1000
0000
1000
0000
,
0002
0000
0000
0000
,
1003
0000
1000
0000
,
0010
0000
1000
0000
,
1001
0000
0000
0000
,
0000
0000
0000
0000
,
0000
0000
0000
0000
,
0000
0000
0000
0000
,
1100
0000
0101
0000
,
0001
1000
0100
0000
,
1000
0001
1000
1000
,
0001
1000
0001
0001
,
0011
0000
1010
0000
,
1000
0001
0010
0000
,
0100
1000
0100
0100
,
0010
0001
0010
0000
,
0101
0000
1100
0000
,
1000
0001
0100
0000
,
0002
0010
0023
0100
,
0230
1000
2300
3001
,
1010
0000
0011
0000
,
0001
1000
0100
0000
,
2000
0010
3020
0100
,
0230
0001
0302
0000
,
1003
0000
0000
0000
,
0000
0000
0000
0000
,
0002
0000
0000
0003
,
0010
0001
0100
0010
,
2000
0000
0000
3000
,
0010
1000
0100
0010
,
0002
0000
0000
0003
,
0100
0001
0010
0100
,
2000
0000
0000
3000
,
0100
1000
0010
0100
,
0002
0000
2003
0000
,
3000
0000
0000
0000
;

//---------------dance-single - Spork!----------------
#NOTES:
     dance-single:
     :
     Medium:
     7:
     0.458,0.442,0.226,0.560,0.000,268.000,25.000,62.000,0.000,0.000,0.000,0.458,0.442,0.226,0.560,0.000,268.000,25.000,62.000,0.000,0.000,0.000:
0000
0000
0000
0000
,
0000
0000
0000
0000
,
0000
0000
0000
0000
,
0000
0000
0000
0000
,
0020
2030
3002
0023
,
0130
1000
0100
0000
0010
0001
0010
0000
,
0020
0032
2003
3020
,
0130
0010
0100
0000
0010
0000
0110
0000
,
0200
0302
2003
3200
,
0310
0001
0010
0000
0100
1000
0100
0000
,
0200
2300
3002
0203
,
0310
0010
0100
0100
,
0001
0000
0001
0000
,
1000
0000
0020
0000
,
1030
0000
1000
0000
,
0001
0000
0200
0000
,
0301
0000
0010
0000
0001
1000
0001
0000
,
0100
0010
1000
0110
,
1000
0000
0100
0000
1000
0001
1000
0000
,
0002
0000
2003
0000
,
3200
0000
0010
0000
,
0001
0000
2300
0000
,
3020
0000
0001
0000
,
2030
0000
3200
0000
,
1300
0001
1000
0000
0010
0000
0100
0000
,
0001
1000
0001
0000
0010
0000
1001
0000
,
0010
0100
0010
0000
0001
0000
1000
0000
,
0010
0100
0010
0000
1000
1000
0001
0001
,
1000
0010
0001
0110
,
1000
0010
0001
1001
,
0001
0100
1000
0110
,
0002
0000
2003
0000
,
3002
0000
0013
0001
,
0100
0010
2000
0000
,
3010
1000
0100
0010
,
0001
0010
0100
1000
0100
0010
0001
0000
,
2000
0000
3010
1000
,
0100
0000
0010
0000
0002
0000
0000
0003
,
0101
0000
0110
0000
,
2000
3200
0302
0003
,
2000
3200
0302
0003
,
2000
3200
2300
3020
,
2030
3002
0203
0310
,
0110
0010
1010
0001
,
0010
0100
0010
0001
0010
0000
0100
0000
,
0011
0000
0001
0000
0100
0000
0010
1000
,
0001
0000
0010
0000
0010
0001
0100
0000
,
0110
0100
0101
1000
,
0100
0010
0100
1000
0100
0000
0010
0000
,
1100
0000
1000
0000
0010
0000
0100
0001
,
1000
0010
2000
3001
,
0110
0100
1100
0001
,
0100
0010
0100
0001
0100
0000
0010
0000
,
0101
0000
0001
0000
0010
0000
0100
1000
,
0001
0000
0100
0000
0100
0001
0010
0000
,
0110
0010
0011
1000
,
0010
0100
0010
1000
0010
0000
0100
0000
,
1010
0000
1000
0000
0100
0000
0010
0001
,
1000
0010
0100
0001
,
2000
0000
0000
0000
,
3001
1000
1000
0001
,
0200
0302
2003
3200
,
0310
0001
0010
0000
0100
1000
0100
0000
,
0200
2300
3002
0203
,
0310
0100
0010
0000
0100
0000
0110
0000
,
0020
2030
3002
0023
,
0130
1000
0100
0000
0010
0001
0010
0000
,
0020
0032
2003
3020
,
0130
0100
0010
0010
,
0101
0000
1001
0000
1100
0000
0000
0110
;

//---------------dance-single - Spork!----------------
#NOTES:
     dance-single:
     :
     Hard:
     9:
     0.642,0.733,0.172,0.389,0.303,435.000,19.000,43.000,0.000,0.000,0.000,0.642,0.733,0.172,0.389,0.303,435.000,19.000,43.000,0.000,0.000,0.000: // measure 0
0000
0000
0000
0000
,  // measure 1
0000
0000
0000
0000
,  // measure 2
0000
0000
0000
0000
,  // measure 3
0000
0000
0000
0000
,  // measure 4
0020
0000
1000
0000
0000
0100
0000
0000
0001
0000
0000
0100
0000
0000
1030
0000
,  // measure 5
0000
0000
1000
0000
0001
1000
0000
0000
0100
0000
1000
0000
0010
0000
0000
0000
,  // measure 6
0200
0000
0001
0000
0000
0010
0000
0000
1000
0000
0000
0010
0000
0000
0301
0000
,  // measure 7
0000
0000
0001
0000
1000
0001
0000
0000
0010
0000
0001
0000
1000
0010
1000
0000
,  // measure 8
0200
0000
1000
0000
0000
0010
0000
0000
0001
0000
0000
0010
0000
0000
1300
0000
,  // measure 9
0000
0000
0001
0000
1000
0001
0000
0000
0100
0000
0001
0000
0010
0000
0000
0000
,  // measure 10
0020
0000
0001
0000
0000
0100
0000
0000
1000
0000
0000
0100
0000
0000
0031
0000
,  // measure 11
0000
0000
1000
0000
0001
1000
0000
0000
0100
0000
1000
0000
0010
0000
0000
0000
,  // measure 12
0200
0010
0000
1000
,  // measure 13
0000
0001
0300
1001
,  // measure 14
0020
0100
0000
1000
,  // measure 15
0000
0001
0030
1001
,  // measure 16
1000
0010
1000
0010
0100
0010
0100
0010
,  // measure 17
0001
0000
0010
0000
0001
0000
0010
0000
1000
0000
0100
0000
0010
0001
0010
0000
,  // measure 18
0001
0100
0001
0100
0010
0100
0010
0100
,  // measure 19
2000
0000
0000
0000
3200
0000
0000
0300
,  // measure 20
0101
0000
0000
0100
0010
0000
0000
0010
1000
0000
0000
1000
0001
0000
0000
0001
,  // measure 21
0010
0000
0000
0010
0100
0000
0000
0000
1100
0000
0000
1000
0010
0000
0000
0000
,  // measure 22
0110
0000
0000
0100
0001
0000
0000
0001
1000
0000
0000
1000
0100
0000
0000
0000
,  // measure 23
0110
0000
0000
0010
0001
0000
0000
0000
2002
0000
0000
0000
0000
0000
3003
0000
,  // measure 24
1000
0100
0010
0001
0100
0010
0001
0010
,  // measure 25
1000
0000
0100
0000
0001
0000
0100
0010
0100
0000
0010
0000
0002
0000
2003
0000
,  // measure 26
3001
0100
0010
1000
0100
0010
1000
0010
,  // measure 27
0001
0000
0100
0000
1000
0000
0100
0010
0100
0000
0010
0000
1000
0000
0001
0000
,  // measure 28
0011
0010
0100
1000
0010
0100
1000
0100
,  // measure 29
0001
0000
0010
0000
1000
0000
0010
0100
0010
0000
0100
0000
1000
0000
0001
0000
,  // measure 30
1000
0010
0100
0001
0010
0100
0001
0100
,  // measure 31
2000
0000
3010
1000
0002
0000
0103
0000
,  // measure 32
0001
0000
1000
0000
0000
0000
1000
0000
0010
0000
0100
0000
0001
0100
0000
0100
,  // measure 33
0001
0010
0100
1000
0002
0000
1003
0010
,  // measure 34
0100
0000
0001
0000
0010
0000
1001
0000
0010
0000
1000
0000
0100
1000
0100
0000
,  // measure 35
0010
0000
0000
0001
0000
0000
0100
0000
0000
0010
0000
0000
1000
0000
0000
0001
0000
0000
1000
0000
0100
0000
0010
0000
,  // measure 36
0001
0100
0010
0100
0001
0100
0010
1000
,  // measure 37
0001
0010
1000
0010
0001
0100
1000
0100
,  // measure 38
0101
0000
1100
0000
,  // measure 39
0002
0023
2030
3000
,  // measure 40
0002
0023
2030
3000
,  // measure 41
0002
0023
0032
0203
,  // measure 42
0320
2030
3200
0310
,  // measure 43
0110
0000
0100
0000
1000
0000
0010
0000
1000
0001
0000
0001
0010
0000
0100
0000
,  // measure 44
1000
0100
0010
0001
0200
0000
0010
0000
,  // measure 45
0301
0010
0100
1000
0001
0100
1000
0100
,  // measure 46
0001
0010
1000
0010
0001
1000
0010
0100
,  // measure 47
0110
0000
0100
0000
0001
0000
0010
0000
0001
1000
0000
1000
0010
0000
0100
0000
,  // measure 48
0001
0100
0010
1000
0200
0000
0010
0000
,  // measure 49
1300
0010
0100
0001
1000
0100
0001
0100
,  // measure 50
1000
0010
0001
0010
1000
1000
0001
0001
,  // measure 51
0011
0000
0010
0000
0001
0000
0100
0000
0010
1000
0000
0010
0100
0000
0001
0000
,  // measure 52
0010
0100
1000
0100
0020
0000
1000
0000
,  // measure 53
0031
0000
0000
0100
0000
0000
0000
0000
0000
0100
0000
0000
0001
0000
0000
0000
0000
0000
1000
0000
0000
0000
0000
0000
0010
0000
0000
0000
1000
0000
0000
0000
0100
0000
0000
0000
1000
0000
0000
0000
0000
0000
0010
0000
0000
0000
0000
0000
,  // measure 54
1000
0001
1000
0000
0010
0000
0100
0000
0002
0000
0023
0000
0230
0000
1300
0000
,  // measure 55
1010
0000
0010
0000
1000
0000
0100
0000
0010
0000
0001
1000
0001
1000
0001
0000
,  // measure 56
0100
0010
1000
0010
0200
0000
1000
0000
,  // measure 57
0301
0000
0000
0010
0000
0000
0000
0000
0000
0010
0000
0000
0001
0000
0000
0000
0000
0000
1000
0000
0000
0000
0000
0000
0001
0000
0000
0000
0100
0000
0000
0000
0001
0000
0000
0000
1000
0000
0000
0000
0000
0000
0001
0000
0000
0000
0000
0000
,  // measure 58
0001
0010
0010
0100
0100
0010
0000
2002
,  // measure 59
0000
0000
0000
0000
,  // measure 60
3003
0011
1010
0011
,  // measure 61
0200
0000
0001
0000
0000
0010
0000
0000
1000
0000
0000
0010
0000
0000
0301
0000
,  // measure 62
0000
0000
0001
0000
1000
0001
0000
0000
0010
0000
0001
0000
0100
0000
0000
0000
,  // measure 63
0020
0000
1000
0000
0000
0100
0000
0000
0001
0000
0000
0100
0000
0000
1030
0000
,  // measure 64
0000
0000
1000
0000
0001
1000
0000
0000
0100
0000
1000
0000
0001
0100
0001
0000
,  // measure 65
0020
0000
0001
0000
0000
0100
0000
0000
1000
0000
0000
0100
0000
0000
0031
0000
,  // measure 66
0000
0000
1000
0000
0001
1000
0000
0000
0010
0000
1000
0000
0100
0000
0000
0000
,  // measure 67
0200
0000
1000
0000
0000
0010
0000
0000
0001
0000
0000
0010
0000
0000
1300
0000
,  // measure 68
0000
0000
0001
0000
1000
0001
0000
0000
0010
0000
0001
0000
0100
0010
0100
0000
,  // measure 69
0001
0000
1000
0000
0001
0010
0000
0010
0100
0000
0100
1000
0000
2000
0002
0000
,  // measure 70
0000
0000
3003
0000
;
