#VERSION:0.81;
#TITLE:NIGHT FLIGHT;
#SUBTITLE:;
#ARTIST:Perfume;
#TITLETRANSLIT:;
#SUBTITLETRANSLIT:;
#ARTISTTRANSLIT:;
#GENRE:J-Electro;
#ORIGIN:;
#CREDIT:;
#BANNER:NIGHT FLIGHT.png;
#BACKGROUND:NIGHT FLIGHT-bg.png;
#PREVIEWVID:;
#JACKET:NIGHT FLIGHT-jacket.png;
#CDIMAGE:;
#DISCIMAGE:Perfume_logo.png;
#LYRICSPATH:;
#CDTITLE:;
#MUSIC:[Round 8] - NIGHT FLIGHT.ogg;
#OFFSET:-0.005000;
#SAMPLESTART:59.585999;
#SAMPLELENGTH:13.241000;
#SELECTABLE:YES;
#BPMS:0.000=145.000;
#STOPS:;
#DELAYS:;
#WARPS:;
#TIMESIGNATURES:0.000=4=4;
#TICKCOUNTS:0.000=4;
#COMBOS:0.000=1;
#SPEEDS:0.000=1.000=0.000=0;
#SCROLLS:0.000=1.000;
#FAKES:;
#LABELS:0.000=Song Start;
#BGCHANGES:;
#KEYSOUNDS:;
#ATTACKS:
;

//---------------dance-single - ----------------
#NOTEDATA:;
#CHARTNAME:;
#STEPSTYPE:dance-single;
#DESCRIPTION:;
#CHARTSTYLE:;
#DIFFICULTY:Hard;
#METER:8;
#RADARVALUES:0.458332,0.441487,0.073124,0.054843,0.031992,337.000000,8.000000,6.000000,0.000000,0.000000,0.000000,0.000000,0.000000,0.458332,0.441487,0.073124,0.054843,0.031992,337.000000,8.000000,6.000000,0.000000,0.000000,0.000000,0.000000,0.000000;
#CREDIT:;
#NOTES:
0000
0000
0000
0000
,
0000
0000
0000
0000
,
0000
0000
0000
0000
,
0000
0000
0000
0000
,
1000
0010
1000
0001
0000
1000
0000
0100
,
0000
0000
1000
0000
0010
0100
0010
0000
,
0100
0010
0001
0010
0000
0100
0000
0001
,
0000
1000
0010
0100
0001
1000
0001
1000
,
0100
0000
0010
0000
0001
0001
0010
0001
,
1000
0010
0100
1000
0100
0010
0100
0001
,
1000
0010
1000
0010
0100
0001
0100
0001
,
1000
0010
1000
0001
1000
0100
0010
0100
,
1000
0100
0010
1001
,
0001
0010
0100
1001
,
1000
0000
0100
0000
0010
0001
0010
0000
,
0001
0000
0010
0000
0100
1000
0100
0000
,
0010
0001
1000
0002
0000
0000
0000
0000
,
0003
0000
1000
0100
1000
0010
0100
0001
,
0010
0001
1000
0200
0000
0000
0000
0000
,
0300
0000
0010
0001
1000
0010
1000
0100
,
0010
0100
1000
0020
0000
0000
0000
0000
,
0030
0000
0100
0001
0010
0001
1000
0100
,
0010
0100
1000
0020
0000
0000
0000
0000
,
0030
0000
0100
0010
1000
0001
1000
0001
,
0010
0100
1000
0010
0000
1000
0010
1000
,
0100
1000
0001
0010
1000
0010
0001
1000
,
1001
1001
0110
0110
,
2002
0000
0000
3003
,
1000
0010
1000
0010
0001
0010
0001
0010
,
0000
0100
0010
1000
0001
1000
0010
0000
,
1000
0100
1000
0100
0001
0100
0001
0100
,
0000
0000
1000
0000
0001
0000
0000
0001
1000
0000
0010
0000
1000
0000
0000
0000
,
0001
0010
0001
0010
1000
0010
1000
0010
,
0000
0100
1000
0001
0100
0010
1000
0000
,
1000
0010
1000
0010
0001
0010
0001
0010
,
0000
0100
0010
1000
0001
1000
0001
0000
,
0010
0001
0010
0001
0100
0010
0100
0010
,
0000
1000
0001
0010
0100
0010
0001
0000
,
1000
0001
1000
0001
0100
0010
0100
0010
,
0000
0000
0100
0000
0001
0000
0000
0100
0010
0000
1000
0000
0001
0000
0000
0000
,
0100
0001
0100
0001
0010
0001
0010
0001
,
0000
1000
0010
0100
1000
0100
0010
0000
,
1000
0010
1000
0010
0100
0001
0100
0001
,
0000
1000
0001
0010
0100
1000
0100
0010
,
0001
0000
0001
0000
0010
0000
0001
0010
,
0100
0000
0000
0100
0010
0001
1000
0010
,
1000
0000
0000
0000
0010
0000
0100
0001
1000
0000
0000
0000
0001
0000
1000
0000
,
0100
0100
0100
0100
,
0100
0010
0001
1000
0100
0010
0001
1000
,
0001
0000
0000
0000
0001
0000
1000
0001
1000
0000
0100
0000
0010
0000
0100
0000
,
1000
0000
1000
0000
0100
0000
1000
0010
,
0100
0000
0001
0000
1000
0000
0000
0000
1001
0000
0001
1000
0001
1000
0000
1000
,
0001
0000
1000
0000
0010
0000
1000
0010
,
0100
0000
0000
0100
0001
0010
0100
0010
,
0001
0001
1000
0100
,
0100
0001
1000
0000
0000
0000
0000
0000
,
0001
0000
1000
0000
0010
0000
1000
0010
,
0100
0000
0000
0100
0001
0010
0100
0010
,
0001
0000
0001
0000
1000
0000
0100
1000
,
0010
0100
0001
0000
0000
0000
0000
0000
,
1000
0010
1000
0001
0000
0000
0000
0000
;

//---------------dance-single - ----------------
#NOTEDATA:;
#CHARTNAME:;
#STEPSTYPE:dance-single;
#DESCRIPTION:;
#CHARTSTYLE:;
#DIFFICULTY:Medium;
#METER:5;
#RADARVALUES:0.342117,0.331115,0.082265,0.054843,0.000000,247.000000,9.000000,6.000000,0.000000,0.000000,0.000000,0.000000,0.000000,0.342117,0.331115,0.082265,0.054843,0.000000,247.000000,9.000000,6.000000,0.000000,0.000000,0.000000,0.000000,0.000000;
#CREDIT:;
#NOTES:
0000
0000
0000
0000
,
0000
0000
0000
0000
,
0000
0000
0000
0000
,
0000
0000
0000
0000
,
0001
0010
0100
1000
0000
0000
0100
0000
,
1000
0000
1000
0000
0001
1000
0001
0000
,
0001
0100
0010
1000
0000
0000
0010
0000
,
0100
0000
0100
0000
0010
1000
0010
0000
,
1000
0001
0100
0001
,
0010
0100
0010
0100
0000
0000
0000
0000
,
0010
0010
0001
0001
,
1000
0100
1000
0100
0000
0000
0000
0000
,
1000
0100
0010
1001
,
0001
0010
0100
1001
,
1000
0000
0001
0000
1000
0001
1000
0000
,
0010
0000
0100
0000
0010
0100
0010
0000
,
0100
0000
0001
0200
0000
0000
0000
0000
,
0300
0001
0010
0100
,
1000
0000
0001
0200
0000
0000
0000
0000
,
0300
0001
1000
0010
,
0100
0000
0010
2000
0000
0000
0000
0000
,
3000
0010
0100
0001
,
1000
0000
0001
0020
0000
0000
0000
0000
,
0030
0100
0010
0001
,
0010
0000
0001
0100
0000
0010
1000
0001
,
0100
0010
1000
0100
,
1000
0100
0010
0001
,
2002
0000
0000
3003
,
0001
0100
0001
0100
0000
0000
0000
0010
,
0000
0100
0010
0000
1000
0000
0001
0000
,
0010
0100
0010
0100
0000
0000
0010
0001
,
0000
1000
0001
0000
1001
0000
1100
0000
,
0100
0010
0100
0010
0000
0000
0000
0001
,
0000
0010
0001
0000
1000
0000
0010
0000
,
0100
0001
0100
0001
0000
0000
0100
0010
,
0000
1000
0001
0000
1001
0000
1001
0000
,
0001
1000
0001
1000
0000
0000
0000
0100
,
0000
0010
0001
0000
0010
0000
0100
0000
,
1000
0010
1000
0010
0000
0000
0000
0100
,
0000
0010
1000
0000
1001
0000
1001
0000
,
0001
0010
0001
0010
0000
0000
0000
0100
,
0000
0010
0001
0000
1000
0000
0010
0000
,
0100
0001
0100
0001
0000
0000
0000
0100
,
0000
0001
0100
0010
1000
0001
0100
0010
,
1000
0000
0010
0000
0100
0000
0100
0010
,
1000
0000
0000
0001
1000
0000
0001
0000
,
0100
0000
0100
0010
0100
0000
0010
0000
,
1000
1000
1000
1000
,
0001
0000
0100
0000
0010
0000
0100
0001
,
1000
0000
0100
0000
0010
0100
0010
0000
,
0001
0001
0001
0001
,
0010
0000
0100
0000
1000
0001
1000
0001
,
1000
0000
0100
0000
0010
0000
0100
0010
,
0001
0000
0000
0001
0010
0000
0010
0000
,
0100
0010
0001
1000
,
0001
0100
0010
0000
0000
0000
0000
0000
,
0100
0000
0001
0000
0010
0000
0100
0010
,
0001
0000
0000
0001
0010
0100
1000
0100
,
0010
0000
0100
0000
1000
0000
0010
0100
,
0001
1000
0001
0000
0000
0000
0000
0000
,
1000
0100
0010
0100
0000
0000
0000
0000
;

//---------------dance-single - ----------------
#NOTEDATA:;
#CHARTNAME:;
#STEPSTYPE:dance-single;
#DESCRIPTION:;
#CHARTSTYLE:;
#DIFFICULTY:Easy;
#METER:3;
#RADARVALUES:0.259852,0.220743,0.000000,0.237653,0.000000,173.000000,0.000000,26.000000,0.000000,0.000000,0.000000,0.000000,0.000000,0.259852,0.220743,0.000000,0.237653,0.000000,173.000000,0.000000,26.000000,0.000000,0.000000,0.000000,0.000000,0.000000;
#CREDIT:;
#NOTES:
0000
0000
0000
0000
,
0000
0000
0000
0000
,
0000
0000
0000
0000
,
0000
0000
0000
0000
,
0001
1000
0000
1000
,
0000
0001
0100
0001
,
0100
0000
0001
0000
,
1000
0000
0001
1000
,
0010
0010
0100
0100
,
0010
1000
0000
0000
,
0001
0001
0001
0001
,
1000
0001
0100
0000
,
0010
0100
0001
1000
,
0010
0100
0001
1000
,
0001
0010
0100
1000
,
0001
0010
0100
1000
,
0001
0100
0020
0000
,
0030
0100
0001
0100
,
0010
1000
0002
0000
,
0003
1000
0001
0100
,
0001
1000
0200
0000
,
0300
0100
0010
0001
,
0010
0002
0000
0000
,
0003
1000
0001
0100
,
0001
0010
0100
0010
,
0001
0001
1000
1000
,
0001
0010
0100
1000
,
0020
0000
0000
0030
,
0200
0000
0320
0000
,
1030
0001
0100
0001
,
2000
0000
3200
0000
,
1300
0100
0010
0001
,
2000
0000
3020
0000
,
0130
0001
0100
0010
,
0200
0000
0302
0000
,
1003
0100
0010
0001
,
2000
0000
3020
0000
,
0130
0100
0010
0010
,
2000
0000
3002
0000
,
0013
0010
0001
0001
,
0020
0000
0230
0000
,
1300
1000
0100
0100
,
0020
0000
0230
0000
,
1300
0100
0010
0001
,
1000
0000
0001
0000
,
0100
0000
0001
0000
,
1000
0020
1030
0020
,
0130
0100
0000
0000
,
0001
0000
1000
0010
,
1000
0000
0020
0230
,
0301
0001
1000
1000
,
0001
0100
0000
0000
,
1000
0100
0010
0100
,
1000
0000
0001
0001
,
0010
0010
0001
0001
,
0100
0001
0000
0000
,
1000
1000
0010
1000
,
0100
0000
0100
0010
,
0001
0001
1000
0001
,
0100
0001
0000
0000
,
0020
0000
0000
0030
0000
0000
0000
0000
;

//---------------dance-single - ----------------
#NOTEDATA:;
#CHARTNAME:;
#STEPSTYPE:dance-single;
#DESCRIPTION:;
#CHARTSTYLE:;
#DIFFICULTY:Beginner;
#METER:1;
#RADARVALUES:0.134496,0.164529,0.036562,0.000000,0.000000,99.000000,4.000000,0.000000,0.000000,0.000000,0.000000,0.000000,0.000000,0.134496,0.164529,0.036562,0.000000,0.000000,99.000000,4.000000,0.000000,0.000000,0.000000,0.000000,0.000000,0.000000;
#CREDIT:;
#NOTES:
// measure 0
0000
0000
0000
0000
,  // measure 1
0000
0000
0000
0000
,  // measure 2
0000
0000
0000
0000
,  // measure 3
0000
0000
0000
0000
,  // measure 4
1000
0000
0000
0000
,  // measure 5
0001
0000
0001
0000
,  // measure 6
0010
0000
0000
0000
,  // measure 7
0100
0000
0010
0010
,  // measure 8
0010
0000
0001
0000
,  // measure 9
1000
0000
0000
0000
,  // measure 10
0001
0000
0001
0000
,  // measure 11
0001
0000
0000
0000
,  // measure 12
1000
0000
0000
0000
,  // measure 13
0001
0000
0000
0000
,  // measure 14
0010
0000
0010
0000
,  // measure 15
0100
0000
0100
0000
,  // measure 16
0001
0000
0000
0000
,  // measure 17
0000
1000
0000
1000
,  // measure 18
0010
0000
0000
0000
,  // measure 19
0000
0100
0100
0100
,  // measure 20
0010
0000
0000
0000
,  // measure 21
0000
1000
0000
1000
,  // measure 22
0001
0000
0000
0000
,  // measure 23
0000
1000
0000
1000
,  // measure 24
1000
0000
0000
0010
,  // measure 25
0000
0100
0000
0001
,  // measure 26
1000
0000
0001
0000
,  // measure 27
1001
0000
0000
0000
,  // measure 28
0010
0000
0000
0000
,  // measure 29
0100
0000
0100
0000
,  // measure 30
0001
0000
0000
0000
,  // measure 31
1000
0000
0001
0001
,  // measure 32
1000
0000
0100
0000
,  // measure 33
1000
0000
0001
0001
,  // measure 34
0001
0000
0100
0000
,  // measure 35
0010
0000
0100
0100
,  // measure 36
0100
0000
0010
0000
,  // measure 37
0100
0000
0001
0001
,  // measure 38
1000
0000
0001
0000
,  // measure 39
0100
0000
0010
0010
,  // measure 40
0100
0000
0010
0000
,  // measure 41
1000
0000
1000
1000
,  // measure 42
1000
0000
0001
0000
,  // measure 43
1001
0000
0110
0000
,  // measure 44
1001
0000
0001
0000
,  // measure 45
0100
0000
0000
0000
,  // measure 46
0001
0000
1000
0000
,  // measure 47
0010
0010
0000
0000
,  // measure 48
0100
0000
0001
0000
,  // measure 49
1000
0000
0000
0000
,  // measure 50
0100
0000
0010
0000
,  // measure 51
0001
0001
0000
0000
,  // measure 52
1000
0000
0000
0000
,  // measure 53
0000
0000
0001
0000
,  // measure 54
0100
0000
0000
0000
,  // measure 55
0001
0000
0000
0000
,  // measure 56
0010
0000
0000
0000
,  // measure 57
0100
0000
0000
0000
,  // measure 58
1000
0000
0000
0000
,  // measure 59
1000
0001
0000
0000
,  // measure 60
0010
0000
0000
0000
;
